<?xml version="1.0" standalone="no"?>
<!DOCTYPE svg PUBLIC "-//W3C//DTD SVG 1.1//EN" "http://www.w3.org/Graphics/SVG/1.1/DTD/svg11.dtd" >
<svg xmlns="http://www.w3.org/2000/svg">
<metadata></metadata>
<defs>
<font id="square_721_blkregular" horiz-adv-x="1492" >
<font-face units-per-em="2048" ascent="1638" descent="-410" />
<missing-glyph horiz-adv-x="567" />
<glyph horiz-adv-x="0" />
<glyph unicode="&#xd;" horiz-adv-x="567" />
<glyph unicode=" "  horiz-adv-x="567" />
<glyph unicode="&#x09;" horiz-adv-x="567" />
<glyph unicode="&#xa0;" horiz-adv-x="567" />
<glyph unicode="!" horiz-adv-x="784" d="M211 0v387h369v-387h-369zM211 578v911h369v-911h-369z" />
<glyph unicode="&#x22;" horiz-adv-x="960" d="M113 1229v266h282v-266l-86 -266h-110zM596 1229v266h283v-266l-86 -266h-111z" />
<glyph unicode="#" horiz-adv-x="1126" d="M25 295v229h229l49 254h-197v234h242l78 413h217l-78 -413h205l82 413h213l-78 -413h164v-234h-201l-49 -254h193v-229h-242l-70 -356h-217l70 356h-209l-66 -356h-217l66 356h-184zM471 524h209l53 254h-213z" />
<glyph unicode="$" horiz-adv-x="1480" d="M102 369v120h424v-34q0 -70 38 -95.5t136 -25.5h101q82 0 112.5 17.5t30.5 70.5v63q0 57 -53 74q-27 8 -88 14l-324 33q-190 23 -278 118t-88 284v90q0 215 137 327q61 49 146 65.5t227 16.5h32v217h164v-217h43q236 0 357.5 -93t121.5 -267v-119h-423v35q0 55 -27 75.5 t-98 20.5h-93q-80 0 -112.5 -15.5t-32.5 -62.5v-59q0 -47 37 -61q16 -6 106 -17l295 -33q397 -43 398 -372v-140q0 -190 -120 -303.5t-325 -113.5h-127v-267h-164v267h-34q-268 0 -393.5 92t-125.5 295z" />
<glyph unicode="%" horiz-adv-x="1861" d="M131 1073v137q0 160 64.5 224.5t226.5 64.5h92q162 0 225.5 -63.5t63.5 -225.5v-137q0 -160 -64.5 -224.5t-224.5 -64.5h-92q-162 0 -226.5 64.5t-64.5 224.5zM385 1087q0 -63 5 -89.5t65 -26.5h26q49 0 59.5 21t10.5 95v107q0 74 -10.5 96.5t-59.5 22.5h-26 q-49 0 -59.5 -20.5t-10.5 -98.5v-107zM438 12l856 1495h181l-873 -1495h-164zM1085 279v137q0 160 64.5 224.5t226.5 64.5h92q162 0 225.5 -63.5t63.5 -225.5v-137q0 -160 -64.5 -224.5t-224.5 -64.5h-92q-162 0 -226.5 64.5t-64.5 224.5zM1339 293q0 -63 5.5 -90t64.5 -27 h27q49 0 59 21.5t10 95.5v106q0 74 -10 96.5t-59 22.5h-27q-49 0 -59.5 -20.5t-10.5 -98.5v-106z" />
<glyph unicode="&#x26;" horiz-adv-x="1585" d="M92 375v182q0 264 221 320q-98 98 -98 233v76q0 172 115.5 246.5t367.5 74.5h115q250 0 366.5 -74.5t116.5 -246.5v-174h-368v123q0 53 -84 53h-154q-86 0 -86 -53v-45q0 -14 6 -28.5t17 -21.5l424 -370v133h364v-256q0 -109 -29 -168l201 -172l-215 -244l-166 143 q-61 -63 -153 -88.5t-236 -25.5h-190q-274 0 -404.5 93t-130.5 290zM492 430q0 -113 139 -113h233q53 1 76 21l-408 350q-27 -6 -33.5 -24.5t-6.5 -63.5v-39v-131z" />
<glyph unicode="'" horiz-adv-x="485" d="M113 1229v266h282v-266l-86 -266h-110z" />
<glyph unicode="(" horiz-adv-x="677" d="M94 541q0 199 56 389q45 156 129 313q45 84 151 252h205q-125 -217 -197 -442q-82 -258 -82 -496q0 -254 77 -516t202 -455h-205q-113 186 -168 297q-86 168 -123 305q-45 164 -45 353z" />
<glyph unicode=")" horiz-adv-x="677" d="M57 -414q121 186 200 452.5t79 518.5q0 244 -80 496q-68 217 -199 442h205q100 -158 150 -250q88 -168 131 -311q55 -190 55 -393q0 -186 -45 -353q-37 -137 -121 -303q-49 -98 -170 -299h-205z" />
<glyph unicode="*" horiz-adv-x="790" d="M49 1176l53 147l209 -78v250h160v-250l205 78l53 -147l-221 -78l160 -197l-131 -110l-152 196l-139 -196l-131 110l155 197z" />
<glyph unicode="+" horiz-adv-x="1183" d="M119 352v246h373v373h245v-373h373v-246h-373v-372h-245v372h-373z" />
<glyph unicode="," horiz-adv-x="784" d="M213 -14v372h369v-403q0 -94 -84 -154.5t-234 -60.5h-51v178h27q86 0 86 59v9h-113z" />
<glyph unicode="-" horiz-adv-x="677" d="M70 426v279h557v-279h-557z" />
<glyph unicode="." horiz-adv-x="784" d="M211 0v356h369v-356h-369z" />
<glyph unicode="/" horiz-adv-x="567" d="M16 0l430 1495h132l-431 -1495h-131z" />
<glyph unicode="0" d="M121 594v303q0 336 118.5 473t424.5 137h178q303 0 422.5 -136t119.5 -474v-303q0 -338 -118.5 -475t-423.5 -137h-178q-305 0 -424 137t-119 475zM545 606q0 -160 29.5 -210t146.5 -50h63q119 0 150 55q24 43 24 205v279q0 135 -8 168q-23 92 -166 92h-63 q-119 0 -147.5 -49t-28.5 -211v-279z" />
<glyph unicode="1" d="M178 1044l531 443l469 2v-1489h-416v1055l-330 -285z" />
<glyph unicode="2" d="M150 0v365q0 326 256 399l434 127q55 16 77.5 37.5t22.5 66.5v58q0 70 -33 96.5t-119 26.5h-65q-82 0 -116 -28t-34 -95v-101h-409v150q0 197 124 301t361 104h217q231 0 362.5 -107.5t131.5 -287.5v-121q0 -332 -287 -409l-422 -111q-72 -18 -71 -72v-39h770v-360h-1200 z" />
<glyph unicode="3" d="M133 377v151h418v-88q0 -66 37 -94.5t119 -28.5h69q154 0 154 113v53q0 113 -154 113h-143v332h139q139 0 139 108v37q0 104 -137 105h-63q-76 0 -108 -28t-32 -95v-70h-413v119q0 193 130 298t378 105h161q250 0 379 -98t129 -285v-94q0 -190 -174 -260 q197 -76 197 -293v-108q0 -180 -132 -283.5t-370 -103.5h-225q-233 0 -365.5 105.5t-132.5 289.5z" />
<glyph unicode="4" d="M88 279l2 405l592 805h567v-881h176v-329h-176v-279h-413v279h-748zM477 608h359v494z" />
<glyph unicode="5" d="M156 369v98h411v-45q0 -63 34 -83t124 -20h55q98 0 128 24t30 106v143q0 88 -27.5 109.5t-130.5 21.5h-55q-74 0 -86 -2q-59 -10 -66 -74h-393v842h1108v-326h-710v-186q82 72 229 72h86q246 0 355.5 -101.5t109.5 -329.5v-206q0 -240 -121 -334t-422 -94h-139 q-252 0 -386 101t-134 284z" />
<glyph unicode="6" d="M160 594v303q0 336 112.5 473t403.5 137h176q240 0 360.5 -88t120.5 -258v-108h-413v39q0 53 -23 69.5t-90 16.5h-98q-84 0 -107.5 -18.5t-23.5 -88.5v-209q90 68 223 68h145q219 0 320.5 -101.5t101.5 -312.5v-133q0 -401 -516 -401h-176q-291 0 -403.5 137t-112.5 475z M578 406q0 -61 28.5 -77t120.5 -16h80q94 0 120.5 16t26.5 77v108q0 57 -27.5 72.5t-119.5 15.5h-80q-92 0 -120.5 -14.5t-28.5 -73.5v-108z" />
<glyph unicode="7" d="M158 1159v330h1169l-2 -311l-516 -1178h-436l497 1159h-712z" />
<glyph unicode="8" d="M164 369v108q0 217 194 293q-172 68 -172 242v92q0 403 508 403h135q508 0 508 -403v-92q0 -168 -178 -240q201 -76 201 -295v-108q0 -180 -132 -283.5t-370 -103.5h-192q-238 0 -370 103t-132 284zM582 432q0 -115 159 -115h43q156 0 156 115v55q0 115 -162 115h-41 q-156 0 -155 -115v-55zM602 1034q0 -111 139 -110h39q142 -1 142 110v37q0 53 -36 81t-108 28h-35q-141 0 -141 -109v-37z" />
<glyph unicode="9" d="M150 973v133q0 401 516 401h176q291 0 403.5 -137t112.5 -473v-303q0 -336 -112.5 -474t-403.5 -138h-176q-240 0 -361 88t-121 258v110h414v-39q0 -53 22.5 -69.5t90.5 -16.5h98q84 0 107.5 18.5t23.5 88.5v209q-90 -68 -223 -68h-146q-217 0 -319 100.5t-102 311.5z M563 977q0 -57 27.5 -72.5t120.5 -15.5h82q92 0 119.5 14.5t27.5 73.5v108q0 61 -27.5 77t-119.5 16h-82q-94 0 -121 -15.5t-27 -77.5v-108z" />
<glyph unicode=":" horiz-adv-x="784" d="M211 0v383h369v-383h-369zM211 657v381h369v-381h-369z" />
<glyph unicode=";" horiz-adv-x="784" d="M211 -8v385h369v-416q0 -98 -84 -160.5t-234 -62.5h-51v184h27q86 0 86 62v8h-113zM211 653v385h369v-385h-369z" />
<glyph unicode="&#x3c;" horiz-adv-x="1183" d="M86 492v245l983 430v-245l-676 -308l676 -368v-246z" />
<glyph unicode="=" horiz-adv-x="1183" d="M119 106v246h991v-246h-991zM119 598v246h991v-246h-991z" />
<glyph unicode="&#x3e;" horiz-adv-x="1183" d="M90 0v246l676 368l-676 308v245l983 -430v-245z" />
<glyph unicode="?" horiz-adv-x="1241" d="M94 1065v106q0 158 105.5 247t302.5 89h235q190 0 297 -88t107 -233v-144q0 -92 -51 -178q-35 -55 -109 -104q-18 -12 -160 -90q-63 -33 -63 -84v-68h-391v137q0 96 33.5 151.5t109.5 96.5l174 92q61 31 61 60v90q0 63 -77 63h-88q-96 0 -97 -69v-74h-389zM367 0v387h391 v-387h-391z" />
<glyph unicode="@" horiz-adv-x="1974" d="M90 516q0 408 287 717q297 319 717 319q147 0 319 -69q219 -88 350 -252q166 -207 166 -502q0 -211 -110 -385q-143 -225 -398 -225q-170 0 -241 139q-102 -84 -168 -115.5t-135 -31.5q-111 0 -209 79q-127 102 -127 281q0 207 147 389q162 201 385 201q80 0 144.5 -41 t80.5 -98l33 122h185l-173 -618q0 -76 17.5 -111.5t73.5 -35.5q129 0 225 170q90 160 90 346q0 227 -204 406t-472 179q-354 0 -586 -288q-201 -252 -200 -547q0 -311 260 -498q213 -154 452 -153q147 0 210 12t216 69l62 -163q-117 -49 -195 -66q-119 -25 -317 -25 q-352 0 -610 218q-274 231 -275 577zM737 520q0 -100 43 -170.5t109 -70.5q172 0 266 163q74 129 74 287q0 61 -41 117q-49 68 -127 67q-141 0 -240 -147q-84 -125 -84 -246z" />
<glyph unicode="A" horiz-adv-x="1595" d="M47 0l440 1489h648l430 -1489h-473l-68 254h-436l-68 -254h-473zM672 588h272l-137 561z" />
<glyph unicode="B" horiz-adv-x="1544" d="M168 0v1489h721q281 0 400.5 -80t119.5 -276v-95q0 -215 -184 -270q213 -80 213 -291v-86q0 -225 -131 -311q-121 -80 -428 -80h-711zM606 362h277q106 1 106 87v59q0 47 -25.5 66.5t-80.5 19.5h-277v-232zM606 911h262q99 0 99 80v58q0 79 -97 79h-2h-262v-217z" />
<glyph unicode="C" horiz-adv-x="1507" d="M121 594v303q0 338 130 474t460 136h110q326 0 454 -119.5t128 -418.5v-49h-438v47q0 90 -43 124.5t-148 34.5q-127 0 -160.5 -52t-33.5 -210v-239q0 -158 28 -203q37 -57 166 -57q109 0 151 37.5t42 142.5v53h446v-61q0 -297 -133 -426t-434 -129h-135q-330 0 -460 136 t-130 476z" />
<glyph unicode="D" horiz-adv-x="1642" d="M168 0v1489h778q328 0 459 -135t131 -463v-293q0 -330 -130 -464t-460 -134h-778zM608 362h277q133 0 167.5 50.5t34.5 212.5v239q0 162 -30 207q-37 55 -172 55h-277v-764z" />
<glyph unicode="E" horiz-adv-x="1468" d="M168 0v1489h1159v-363h-719v-211h699v-319h-699v-234h735v-362h-1175z" />
<glyph unicode="F" horiz-adv-x="1318" d="M168 0v1489h1042v-363h-602v-241h568v-359h-568v-526h-440z" />
<glyph unicode="G" horiz-adv-x="1599" d="M121 616v220q0 346 140 508.5t450 162.5h217q254 0 410.5 -122.5t156.5 -305.5v-82h-440q0 74 -46 101.5t-145 27.5h-100q-133 0 -169 -51t-36 -211v-239q0 -162 31 -205q39 -55 174 -55h110q104 0 147.5 25.5t43.5 96.5v35h-227v312h657v-267q0 -305 -136 -445 t-435 -140h-271q-260 0 -396 160.5t-136 473.5z" />
<glyph unicode="H" horiz-adv-x="1681" d="M168 0v1489h440v-541h479v541h441v-1489h-441v567h-479v-567h-440z" />
<glyph unicode="I" horiz-adv-x="796" d="M180 0v1489h445v-1489h-445z" />
<glyph unicode="J" horiz-adv-x="1335" d="M84 436v226h430v-185q0 -63 14.5 -89t61.5 -26h72q45 0 60 26t15 89v1012h445v-1024q0 -481 -443 -481h-184q-252 0 -361.5 103t-109.5 349z" />
<glyph unicode="K" horiz-adv-x="1523" d="M168 0v1489h440v-543l379 543h524l-505 -721l555 -768h-543l-391 580h-19v-580h-440z" />
<glyph unicode="L" horiz-adv-x="1316" d="M172 0v1489h444v-1112h666v-377h-1110z" />
<glyph unicode="M" horiz-adv-x="2134" d="M168 0v1489h620l289 -991l289 991h621v-1489h-431v934l-262 -934h-432l-264 946v-946h-430z" />
<glyph unicode="N" horiz-adv-x="1798" d="M168 0v1489h627l430 -997v997h422v-1489h-629l-428 1008v-1008h-422z" />
<glyph unicode="O" horiz-adv-x="1605" d="M121 594v303q0 338 130 474t460 136h196q330 0 461 -135t131 -475v-303q0 -338 -131 -475t-461 -137h-196q-330 0 -460 136t-130 476zM569 625q0 -160 31 -205q39 -55 172 -55h74q135 0 170 50t35 210v239q0 162 -31 207q-39 55 -174 55h-74q-133 0 -168 -50t-35 -212 v-239z" />
<glyph unicode="P" horiz-adv-x="1531" d="M168 0v1489h719q301 0 435 -114.5t134 -387.5v-96q0 -272 -134 -388t-435 -116h-279v-387h-440zM608 750h258q86 0 114 29.5t28 121.5v84q0 78 -35 108.5t-123 30.5h-242v-374z" />
<glyph unicode="Q" horiz-adv-x="1619" d="M121 600v299q0 336 130 472t460 136h196q330 0 461 -135t131 -473v-299q0 -133 -15.5 -211t-58.5 -133l117 -94l-178 -215l-135 110q-57 -35 -142.5 -50t-197.5 -15h-178q-332 0 -461 135t-129 473zM569 629q0 -160 34 -209t169 -49h72l-92 75l186 209l113 -94v307 q0 160 -31 205q-39 55 -174 55h-74q-133 0 -168 -50t-35 -210v-239z" />
<glyph unicode="R" horiz-adv-x="1529" d="M168 0v1489h620q340 0 474 -82q147 -92 147 -334v-119q0 -262 -217 -329q115 -35 166 -107t51 -199v-319h-448v281q0 82 -33 112.5t-119 30.5h-201v-424h-440zM608 791h203q86 0 119 28.5t33 110.5v55q0 82 -32 111.5t-120 29.5h-203v-335z" />
<glyph unicode="S" horiz-adv-x="1480" d="M102 369v120h424v-34q0 -70 38 -95.5t136 -25.5h101q82 0 112.5 17.5t30.5 70.5v63q0 57 -53 74q-27 8 -88 14l-324 33q-190 23 -278 118t-88 284v90q0 215 137 327q61 49 146 65.5t227 16.5h239q236 0 357.5 -93t121.5 -267v-119h-423v35q0 55 -27 75.5t-98 20.5h-93 q-80 0 -112.5 -15.5t-32.5 -62.5v-59q0 -47 37 -61q16 -6 106 -17l295 -33q397 -43 398 -372v-140q0 -190 -120 -303.5t-325 -113.5h-325q-268 0 -393.5 92t-125.5 295z" />
<glyph unicode="T" horiz-adv-x="1351" d="M78 1126v363h1208v-363h-381v-1126h-444v1126h-383z" />
<glyph unicode="U" horiz-adv-x="1646" d="M145 594v895h439v-864q0 -158 39 -210.5t172 -52.5h73q133 0 171 51.5t38 211.5v864h439v-895q0 -178 -17 -258q-25 -117 -99.5 -202t-183 -117.5t-286.5 -32.5h-197q-174 0 -284.5 32.5t-185.5 117.5t-96.5 185.5t-21.5 274.5z" />
<glyph unicode="V" horiz-adv-x="1572" d="M47 1489h469l272 -1067l287 1067h467l-436 -1489h-637z" />
<glyph unicode="W" horiz-adv-x="2179" d="M78 1489h446l127 -1004l211 1004h479l195 -1002l139 1002h445l-254 -1489h-606l-164 889l-170 -889h-613z" />
<glyph unicode="X" horiz-adv-x="1564" d="M49 0l406 774l-349 715h496l197 -469l198 469h498l-360 -717l393 -772h-502l-233 524l-244 -524h-500z" />
<glyph unicode="Y" horiz-adv-x="1472" d="M-2 1489h498l252 -531l247 531h494l-524 -967v-522h-441v522z" />
<glyph unicode="Z" d="M111 0l2 367l686 745h-643v377h1214l-4 -373l-666 -739h670v-377h-1259z" />
<glyph unicode="[" horiz-adv-x="677" d="M147 -414v1909h496v-205h-225v-1491h225v-213h-496z" />
<glyph unicode="\" horiz-adv-x="567" d="M-8 1495h155l463 -1495h-155z" />
<glyph unicode="]" horiz-adv-x="677" d="M49 -201h230v1491h-230v205h496v-1909h-496v213z" />
<glyph unicode="^" horiz-adv-x="1183" d="M123 557l340 868h254l348 -868h-229l-242 610l-242 -610h-229z" />
<glyph unicode="_" horiz-adv-x="1013" d="M0 -250h1024v-246h-1024v246z" />
<glyph unicode="`" horiz-adv-x="1089" d="M213 1550h313l219 -370h-186z" />
<glyph unicode="a" horiz-adv-x="1261" d="M111 289v94q0 139 87 216t253 77h92q123 0 205 -66v150q0 69 -70 69h-2h-58q-47 0 -65 -13t-18 -60h-375q0 172 89 242.5t288 70.5h159q233 0 330.5 -81t97.5 -273v-715h-376v61q-79 -73 -212 -73h-4h-120q-145 0 -223 77.5t-78 223.5zM492 317q0 -69 79 -69h2h93h2 q77 0 77 69v54q0 67 -77 67h-2h-93q-82 0 -81 -67v-54z" />
<glyph unicode="b" horiz-adv-x="1265" d="M164 0v1489h375v-506q43 47 105.5 71.5t148.5 24.5q193 0 281.5 -107.5t88.5 -332.5v-211q0 -225 -88 -333.5t-280 -108.5q-178 0 -269 108l2 -94h-364zM539 453q0 -96 17 -133t85 -37h39q66 0 84 37t18 133v157q0 98 -14 129q-20 43 -88 43h-39q-66 0 -84 -37.5 t-18 -134.5v-157z" />
<glyph unicode="c" horiz-adv-x="1222" d="M111 424v209q0 240 98 338t340 98h141q236 0 337 -87t101 -296v-47h-376v29q0 66 -22.5 92t-84.5 26h-45q-74 0 -90 -33.5t-16 -144.5v-162q0 -92 4 -112q14 -66 102 -66h45q63 0 85 28t22 101v43h376l2 -67q0 -209 -102 -297t-338 -88h-141q-242 0 -340 98t-98 338z" />
<glyph unicode="d" horiz-adv-x="1265" d="M111 428v211q0 225 89 332.5t281 107.5q168 0 254 -96v506h377v-1489h-367l3 94q-89 -108 -264 -108h-3q-190 0 -280 108.5t-90 333.5zM494 453q0 -96 17 -133t85 -37h39q68 0 84 36t16 134v157q0 102 -12 129q-20 43 -88 43h-39q-66 0 -84 -37.5t-18 -134.5v-157z" />
<glyph unicode="e" horiz-adv-x="1226" d="M111 424v209q0 240 98 338t340 98h141q242 0 340 -98.5t98 -337.5v-180h-641v-105q0 -59 25 -81.5t88 -22.5h43q55 0 81 21.5t32 84.5h370q0 -195 -107.5 -278.5t-328.5 -83.5h-141q-242 0 -340 98t-98 338zM487 662h273v16q0 86 -21.5 116.5t-93.5 30.5h-43 q-70 0 -92.5 -28.5t-22.5 -108.5v-26z" />
<glyph unicode="f" horiz-adv-x="811" d="M68 776v289h112v55q0 193 80 281t256 88h266v-279h-98q-66 0 -93.5 -14t-27.5 -53v-78h219v-289h-219v-776h-381v776h-114z" />
<glyph unicode="g" horiz-adv-x="1259" d="M117 422v207q0 225 89 332.5t279 107.5q170 0 256 -96v82h375v-979q0 -147 -16 -215q-23 -92 -90 -158q-47 -45 -134.5 -74.5t-185.5 -29.5h-115q-412 0 -411 284v78h362q0 -51 18.5 -70.5t61.5 -19.5h49q61 0 81 34t20 122v82q-82 -94 -279 -95q-360 0 -360 408z M498 442q0 -100 14 -129q23 -43 94 -43h41q72 0 90.5 38t18.5 134v158q0 100 -15 129q-20 43 -94 43h-41q-70 0 -89 -38t-19 -134v-158z" />
<glyph unicode="h" horiz-adv-x="1292" d="M164 0v1489h375v-504q78 94 264 94q207 0 280.5 -86t73.5 -307v-686h-375v614q0 102 -22.5 130t-106.5 28q-76 0 -95 -37t-19 -141v-594h-375z" />
<glyph unicode="i" horiz-adv-x="692" d="M158 0v1065h381v-1065h-381zM158 1194v295h381v-295h-381z" />
<glyph unicode="j" horiz-adv-x="702" d="M72 -25q57 0 76.5 15.5t19.5 56.5v1016h381v-952q0 -225 -66 -314q-74 -100 -266 -100h-145v278zM168 1194v297h381v-297h-381z" />
<glyph unicode="k" horiz-adv-x="1220" d="M164 0v1489h375v-809h12l205 385h426l-297 -514l354 -551h-438l-250 412h-12v-412h-375z" />
<glyph unicode="l" horiz-adv-x="692" d="M168 0v1489h381v-1489h-381z" />
<glyph unicode="m" horiz-adv-x="1800" d="M164 0v1055h360l-2 -86q78 98 258 98q215 0 285 -135q76 135 283 135q188 0 255.5 -86t67.5 -301v-680h-371v608q0 98 -17 127t-87 29q-66 0 -80 -35t-14 -141v-588h-369v608q0 98 -17.5 127t-86.5 29q-66 0 -80 -35t-14 -141v-588h-371z" />
<glyph unicode="n" horiz-adv-x="1292" d="M164 0v1055h364l-2 -94q90 106 277 106q207 0 280.5 -84t73.5 -303v-680h-375v608q0 100 -23.5 128t-105.5 28q-78 0 -96 -36t-18 -140v-588h-375z" />
<glyph unicode="o" horiz-adv-x="1228" d="M111 424v209q0 240 98 338t340 98h141q242 0 340 -98.5t98 -337.5v-209q0 -242 -97 -339t-341 -97h-141q-242 0 -340 98t-98 338zM494 446q0 -92 4 -112q14 -66 102 -66h41q72 0 88 34.5t16 143.5v162q0 94 -4 115q-12 63 -100 63h-41q-74 0 -90 -33.5t-16 -144.5v-162z " />
<glyph unicode="p" horiz-adv-x="1265" d="M164 -401v1456h364l-2 -94q89 108 266 108h3q193 0 280.5 -106.5t87.5 -333.5v-213q0 -225 -89 -333t-281 -108q-170 0 -254 95v-471h-375zM539 444q0 -98 17 -135t85 -37h39q66 0 84 39t18 133v158q0 98 -14 129q-20 43 -88 43h-39q-66 0 -84 -39t-18 -133v-158z" />
<glyph unicode="q" horiz-adv-x="1265" d="M111 416v213q0 225 89 332.5t281 107.5q176 0 267 -108l-3 94h367v-1456h-377v471q-84 -94 -254 -95q-190 0 -280 109t-90 332zM494 444q0 -98 17 -135t85 -37h39q66 0 86 43q14 31 14 129v158q0 76 -6 105q-14 67 -92 67h-2h-39q-66 0 -84 -39t-18 -133v-158z" />
<glyph unicode="r" horiz-adv-x="1101" d="M164 0v1055h364l-2 -88q74 100 234 100q176 0 239.5 -86t63.5 -301v-111h-354v84q0 63 -17.5 87t-66.5 24q-61 0 -73.5 -35t-12.5 -141v-588h-375z" />
<glyph unicode="s" horiz-adv-x="1232" d="M100 297v33h385q8 -61 34 -80t87 -19h45q68 0 92.5 15.5t24.5 64.5q0 45 -24.5 60.5t-98.5 21.5l-215 21q-147 14 -232 91t-85 191v80q0 293 413 293h207q379 0 379 -285v-41h-373q0 82 -106 82h-43q-106 0 -107 -75q0 -37 18.5 -51.5t61.5 -14.5l238 -22 q342 -31 342 -267v-86q0 -150 -104.5 -235.5t-293.5 -85.5h-223q-422 0 -422 309z" />
<glyph unicode="t" horiz-adv-x="1116" d="M53 784v277h121v196h375v-196h446v-277h-446v-397q0 -74 14.5 -98.5t73.5 -24.5q49 0 66.5 19.5t17.5 70.5v105h319v-135q0 -174 -83 -255t-261 -81h-178q-195 0 -285 110q-37 47 -48 103.5t-11 136.5v55v391h-121z" />
<glyph unicode="u" horiz-adv-x="1300" d="M164 373v682h375v-609q0 -100 23.5 -127.5t105.5 -27.5q76 0 98 41q16 31 16 133v590h375v-1055h-364l2 94q-90 -106 -277 -106q-209 0 -281.5 82t-72.5 303z" />
<glyph unicode="v" horiz-adv-x="1191" d="M16 1053h406l170 -695l178 695h406l-322 -1053h-530z" />
<glyph unicode="w" horiz-adv-x="1691" d="M61 1053h379l76 -639l123 639h434l123 -637l74 637h377l-181 -1053h-495l-115 610l-113 -610h-503z" />
<glyph unicode="x" horiz-adv-x="1228" d="M49 0l309 551l-270 502h426l113 -310l123 310h415l-272 -506l307 -547h-430l-145 346l-156 -346h-420z" />
<glyph unicode="y" horiz-adv-x="1181" d="M-41 1055h393l289 -688l180 688h402l-377 -1184q-43 -145 -129 -209.5t-254 -64.5q-39 0 -62 2q-115 10 -141 10v268h94q43 0 70 20.5t27 53.5l-5 69z" />
<glyph unicode="z" horiz-adv-x="1171" d="M115 0l2 301l473 473h-445v279h912l-4 -297l-461 -471h479v-285h-956z" />
<glyph unicode="{" horiz-adv-x="790" d="M74 455v192q72 0 106 12q61 23 62 86v467q0 133 86 215q70 68 143 68h176v-201h-78q-61 0 -82 -34q-12 -20 -12 -76v-434q0 -104 -74 -158q-47 -33 -122 -43q80 -10 122 -41q74 -53 74 -176v-438q0 -55 10 -74q18 -33 84 -33h78v-201h-176q-72 0 -141 66q-88 84 -88 213 v471q0 76 -60 102q-37 16 -108 17z" />
<glyph unicode="|" horiz-adv-x="647" d="M262 -414v1909h164v-1909h-164z" />
<glyph unicode="}" horiz-adv-x="790" d="M152 -213h77q61 0 82 33q12 20 13 74v438q0 123 73 176q43 31 123 41q-76 10 -123 43q-74 53 -73 158v434q0 57 -11 76q-18 35 -84 34h-77v201h176q72 0 141 -68q88 -84 88 -215v-467q0 -66 59 -86q35 -12 109 -12v-192q-70 0 -107 -17q-61 -29 -61 -102v-471 q0 -129 -86 -211q-72 -68 -143 -68h-176v201z" />
<glyph unicode="~" horiz-adv-x="1183" d="M123 479q16 109 59 183q72 121 195 120q82 0 235.5 -98t198.5 -98q51 0 76 45q18 35 18 86h160q0 -123 -74 -217q-66 -82 -164 -82q-63 0 -237 98t-213 98q-59 0 -85 -44t-26 -91h-143z" />
<glyph unicode="&#xa0;" horiz-adv-x="710" d="M115 614q0 109 74.5 183.5t183.5 74.5q104 0 179 -74.5t75 -183.5q0 -104 -75 -179t-179 -75q-109 0 -183.5 73t-74.5 181z" />
<glyph unicode="&#xa1;" horiz-adv-x="784" d="M211 0v911h369v-911h-369zM211 1102v387h369v-387h-369z" />
<glyph unicode="&#xa2;" horiz-adv-x="1222" d="M111 424v209q0 236 94 336t327 100v186h164v-186q233 0 332.5 -87t99.5 -296v-47h-376v29q0 66 -22.5 92t-84.5 26h-45q-74 0 -90 -33.5t-16 -144.5v-162q0 -92 4 -112q14 -66 102 -66h45q63 0 85 28t22 101v43h376l2 -67q0 -209 -100 -297t-334 -88v-230h-164v230 q-231 0 -326 99t-95 337z" />
<glyph unicode="&#xa3;" d="M141 573v299h168v199q0 205 126 320.5t356 115.5h106q231 0 363.5 -97t132.5 -259v-125h-400v72q0 35 -26.5 57.5t-71.5 22.5h-70q-98 0 -98 -84v-222h383v-299h-383q0 -137 -84 -213h780v-360h-1245v360q63 0 97 28t34 75v110h-168z" />
<glyph unicode="&#xa4;" horiz-adv-x="1136" d="M74 1094l143 139l160 -160q82 61 221 62q61 0 117.5 -16.5t91.5 -41.5l160 160l139 -139l-164 -160q20 -37 41 -74q29 -59 29 -119q0 -78 -27 -145q-8 -20 -47 -92l156 -156l-140 -135l-155 160q-68 -37 -84 -43q-57 -23 -129 -23q-117 0 -205 70l-164 -164l-135 135 l160 164q-74 88 -74 215q0 137 70 203zM373 713q0 -88 64.5 -146.5t152.5 -58.5q109 0 168 70q49 57 49 135q0 90 -61.5 161.5t-155.5 71.5q-96 0 -156.5 -70.5t-60.5 -162.5z" />
<glyph unicode="&#xa5;" horiz-adv-x="1472" d="M-2 1489h498l252 -531l247 531h494l-313 -578h133v-204h-244l-68 -123h230v-185h-262v-399h-441v399h-288v185h256l-68 123h-270v204h159z" />
<glyph unicode="&#xa6;" horiz-adv-x="647" d="M262 -414v852l164 -110v-742h-164zM262 827v668h164v-778z" />
<glyph unicode="&#xa7;" horiz-adv-x="1126" d="M86 496q0 104 33 173.5t94 116.5q-39 35 -56.5 78t-17.5 107q0 225 187 319q113 57 276 58q240 0 367 -127q104 -104 104 -250h-274q0 70 -54.5 114.5t-158.5 44.5q-66 0 -109 -22q-59 -31 -59 -92q0 -66 176 -107q262 -63 330 -94q178 -84 178 -250q0 -104 -33 -173.5 t-94 -121.5q74 -68 74 -180q0 -227 -187 -321q-117 -59 -276 -60q-240 0 -367 127q-104 104 -104 254h274q0 -74 53.5 -119t159.5 -45q66 0 109 23q59 31 59 96q0 66 -176 107q-262 63 -330 94q-178 84 -178 250zM381 545q0 -82 71.5 -121t178.5 -39q94 0 135 34t41 97 q0 78 -72.5 119t-177.5 41q-94 0 -135 -35t-41 -96z" />
<glyph unicode="&#xa8;" horiz-adv-x="1089" d="M242 1237v246h266v-246h-266zM590 1237v246h266v-246h-266z" />
<glyph unicode="&#xa9;" horiz-adv-x="1495" d="M-16 745q0 324 229 553.5t557 229.5q324 0 553 -229.5t229 -553.5t-229 -555t-553 -231q-326 0 -556 230.5t-230 555.5zM131 745q0 -264 185.5 -451.5t453.5 -187.5q262 0 448.5 186.5t186.5 452.5q0 262 -186.5 448.5t-448.5 186.5q-266 0 -452.5 -186t-186.5 -449z M369 750q0 201 115.5 325.5t314.5 124.5q143 0 243.5 -78t124.5 -217h-176q-12 72 -66.5 114t-129.5 42q-121 0 -185.5 -89t-64.5 -218q0 -121 70.5 -218.5t187.5 -97.5q74 0 128 46t60 118h176q-14 -137 -118.5 -220t-245.5 -83q-195 0 -314.5 128t-119.5 323z" />
<glyph unicode="&#xaa;" horiz-adv-x="964" d="M88 956v68q0 98 65.5 151.5t194.5 53.5h68q90 0 149 -41v94q0 43 -49 43h-43q-35 0 -46 -8t-11 -43h-291q0 125 66.5 176t220.5 51h120q178 0 252 -57.5t74 -192.5v-497h-293v37q-63 -47 -155 -48h-93q-229 0 -229 213zM383 977q0 -43 57 -43h68q55 0 55 43v37 q0 41 -55 41h-68q-57 0 -57 -41v-37z" />
<glyph unicode="&#xab;" horiz-adv-x="1126" d="M201 451v237l340 299v-233l-205 -185l205 -180v-242zM639 455v237l340 299v-233l-205 -185l205 -180v-241z" />
<glyph unicode="&#xac;" horiz-adv-x="1183" d="M86 610v234h1032v-594h-233v360h-799z" />
<glyph unicode="&#xad;" horiz-adv-x="677" d="M70 426v279h557v-279h-557z" />
<glyph unicode="&#xae;" horiz-adv-x="1495" d="M-16 745q0 324 229 553.5t557 229.5q324 0 553 -229.5t229 -553.5t-229 -555t-553 -231q-326 0 -556 230.5t-230 555.5zM131 745q0 -268 185.5 -453.5t453.5 -185.5q264 0 449.5 185.5t185.5 453.5q0 264 -185.5 449.5t-449.5 185.5q-266 0 -452.5 -184t-186.5 -451z M446 319v844h410q70 0 127 -8t102 -33q51 -35 75 -92t24 -125q0 -229 -230 -229l205 -357h-192l-189 357h-168v-357h-164zM610 803h250q80 0 115 22q45 29 45 105q0 72 -72 96q-41 14 -133 14h-205v-237z" />
<glyph unicode="&#xaf;" horiz-adv-x="1089" d="M242 1284v156h614v-156h-614z" />
<glyph unicode="&#xb0;" horiz-adv-x="813" d="M111 1180q0 127 90 217t217 90t217 -90t90 -217t-90 -217.5t-217 -90.5t-217 88.5t-90 219.5zM233 1180q0 -78 53.5 -131.5t131.5 -53.5t131 53.5t53 131.5q0 74 -53 129t-131 55q-76 0 -130.5 -54.5t-54.5 -129.5z" />
<glyph unicode="&#xb1;" horiz-adv-x="1183" d="M98 -20h992v-246h-992v246zM98 598v246h373v373h246v-373h373v-246h-373v-373h-246v373h-373z" />
<glyph unicode="&#xb2;" horiz-adv-x="985" d="M98 512v240q0 215 170 264l287 84q37 12 51.5 25.5t14.5 43.5v37q0 45 -23 63.5t-78 18.5h-43q-55 0 -76.5 -17.5t-21.5 -64.5v-65h-270v98q0 129 81.5 198.5t237.5 69.5h143q152 0 239 -71.5t87 -190.5v-80q0 -217 -188 -270l-279 -72q-47 -14 -47 -47v-26h508v-238 h-793z" />
<glyph unicode="&#xb3;" horiz-adv-x="985" d="M88 760v100h277v-57q0 -82 102 -82h45q102 0 102 76v34q0 74 -102 74h-94v219h92q92 0 92 72v25q0 68 -92 67h-41q-47 0 -69.5 -18.5t-22.5 -61.5v-47h-273v80q0 129 85 197.5t249 68.5h109q334 0 334 -254v-61q0 -127 -115 -172q131 -51 131 -193v-71q0 -119 -87 -187.5 t-245 -68.5h-149q-156 0 -242 69.5t-86 190.5z" />
<glyph unicode="&#xb4;" horiz-adv-x="1089" d="M352 1180l219 370h314l-346 -370h-187z" />
<glyph unicode="&#xb5;" horiz-adv-x="1212" d="M119 -451v1561h287v-688q0 -104 24 -143q43 -70 184 -70q115 10 166 72q35 41 43 112v717h287v-1110h-287v139q-59 -96 -131 -139q-57 -35 -143 -49q-63 0 -143 12v-414h-287z" />
<glyph unicode="&#xb6;" horiz-adv-x="1126" d="M51 1026q0 180 120 324.5t271 144.5h652v-147h-156v-1799h-147v1799h-173v-1799h-147v996q-176 16 -276 108q-121 111 -142 330q-2 14 -2 43z" />
<glyph unicode="&#xb7;" horiz-adv-x="567" d="M135 770v299h307v-299h-307z" />
<glyph unicode="&#xb8;" horiz-adv-x="1089" d="M332 -324h260q37 0 50 9.5t13 40.5q0 43 -55 43h-123v231h144v-90h77q172 0 172 -186q0 -121 -60 -163t-224 -42h-254v157z" />
<glyph unicode="&#xb9;" horiz-adv-x="985" d="M117 1202l350 291l309 2v-983h-272v696l-219 -188z" />
<glyph unicode="&#xba;" horiz-adv-x="940" d="M88 1051v143q0 170 72.5 238.5t261.5 68.5h104q186 0 260 -69.5t74 -237.5v-143q0 -170 -72.5 -239t-261.5 -69h-104q-186 0 -260 70t-74 238zM385 1065q0 -63 5 -89t69 -26h30q61 0 67.5 30t6.5 85v113q0 61 -2 73q-8 43 -72 43h-30q-49 0 -61.5 -23.5t-12.5 -92.5v-113 z" />
<glyph unicode="&#xbb;" horiz-adv-x="1126" d="M201 147v242l205 180l-205 185v233l340 -299v-237zM627 147v242l204 180l-204 185v233l340 -299v-237z" />
<glyph unicode="&#xbc;" horiz-adv-x="2392" d="M117 1202l350 291l309 2v-983h-272v696l-219 -188zM664 12l856 1495h180l-873 -1495h-163zM1348 184l2 267l391 532h375v-582h114v-217h-114v-184h-275v184h-493zM1606 401h235v326z" />
<glyph unicode="&#xbd;" horiz-adv-x="2392" d="M117 1202l350 291l309 2v-983h-272v696l-219 -188zM664 12l856 1495h180l-873 -1495h-163zM1470 0v240q0 215 170 264l287 84q37 12 51.5 25.5t14.5 43.5v37q0 45 -22.5 63.5t-78.5 18.5h-43q-55 0 -76.5 -17.5t-21.5 -64.5v-65h-270v98q0 129 82 198.5t237 69.5h144 q152 0 238.5 -71.5t86.5 -190.5v-80q0 -217 -188 -270l-279 -72q-47 -14 -47 -47v-26h508v-238h-793z" />
<glyph unicode="&#xbe;" horiz-adv-x="2392" d="M88 760v100h277v-57q0 -82 102 -82h45q102 0 102 76v34q0 74 -102 74h-94v219h92q92 0 92 72v25q0 68 -92 67h-41q-47 0 -69.5 -18.5t-22.5 -61.5v-47h-273v80q0 129 85 197.5t249 68.5h109q334 0 334 -254v-61q0 -127 -115 -172q131 -51 131 -193v-71q0 -119 -87 -187.5 t-245 -68.5h-149q-156 0 -242 69.5t-86 190.5zM705 12l856 1495h180l-873 -1495h-163zM1389 184l2 267l391 532h375v-582h114v-217h-114v-184h-275v184h-493zM1647 401h235v326z" />
<glyph unicode="&#xbf;" horiz-adv-x="1241" d="M94 309v142q0 41 14.5 92t36.5 88q35 55 111 104q27 16 160 88q61 35 61 88v64h393v-135q0 -96 -33.5 -151.5t-109.5 -98.5l-174 -88q-23 -10 -37 -23q-27 -20 -27 -41v-88q0 -66 80 -65h88q94 0 95 71v74h389v-106q0 -160 -103.5 -249t-302.5 -89h-237q-190 0 -297 89 t-107 234zM477 1108v385h393v-385h-393z" />
<glyph unicode="&#xc0;" horiz-adv-x="1595" d="M47 0l440 1499h648l430 -1499h-473l-68 256h-436l-68 -256h-473zM469 1985h313l219 -404h-186zM672 592h272l-137 565z" />
<glyph unicode="&#xc1;" horiz-adv-x="1595" d="M47 0l440 1499h648l430 -1499h-473l-68 256h-436l-68 -256h-473zM608 1581l219 404h314l-346 -404h-187zM672 592h272l-137 565z" />
<glyph unicode="&#xc2;" horiz-adv-x="1595" d="M47 0l440 1499h648l430 -1499h-473l-68 256h-436l-68 -256h-473zM455 1581l219 404h262l219 -404h-186l-164 201l-166 -201h-184zM672 592h272l-137 565z" />
<glyph unicode="&#xc3;" horiz-adv-x="1595" d="M47 0l440 1499h648l430 -1499h-473l-68 256h-436l-68 -256h-473zM461 1626q33 143 88 207.5t143 64.5q25 0 45.5 -2t46.5 -10l93 -26l49 -7q49 0 69 82h154q-33 -147 -89 -212.5t-147 -65.5q-37 0 -79 12l-89 25q-41 12 -59 12q-49 0 -72 -80h-153zM672 592h272l-137 563 z" />
<glyph unicode="&#xc4;" horiz-adv-x="1595" d="M47 0l440 1499h648l430 -1499h-473l-68 256h-436l-68 -256h-473zM498 1638v281h266v-281h-266zM672 592h272l-137 563zM846 1638v281h266v-281h-266z" />
<glyph unicode="&#xc5;" horiz-adv-x="1595" d="M47 0l440 1499h115q-80 80 -80 193q0 119 83 199.5t204 80.5t204 -81t83 -199q0 -119 -78 -193h117l430 -1499h-473l-68 256h-436l-68 -256h-473zM672 592h272l-137 563zM709 1692q0 -41 28.5 -70t71.5 -29q41 0 71.5 29t30.5 70q0 39 -30.5 69.5t-71.5 30.5 q-43 0 -71.5 -28.5t-28.5 -71.5z" />
<glyph unicode="&#xc6;" horiz-adv-x="2070" d="M-33 0l613 1489h1345v-344h-571v-227h555v-312h-555v-258h585v-348h-1009v307h-381l-113 -307h-469zM666 623h264v551h-64z" />
<glyph unicode="&#xc7;" horiz-adv-x="1507" d="M121 590v303q0 340 130 478t460 138h110q324 0 453 -120.5t129 -423.5v-47h-438v45q0 90 -44 126.5t-147 36.5q-127 0 -160.5 -53t-33.5 -213v-239q0 -160 28 -205q37 -57 166 -58q106 0 149.5 39t43.5 144v53h446v-62q0 -297 -133 -428t-434 -131h-135 q-330 0 -460 138.5t-130 478.5zM543 -313h260q37 0 50 11t13 42q0 45 -55 45h-123v248h143v-96h78q172 0 172 -199q0 -127 -61.5 -172t-222.5 -45h-254v166z" />
<glyph unicode="&#xc8;" horiz-adv-x="1468" d="M168 0v1499h1159v-364h-719v-213h699v-322h-699v-233h735v-367h-1175zM420 1985h313l219 -404h-186z" />
<glyph unicode="&#xc9;" horiz-adv-x="1468" d="M168 0v1499h1159v-364h-719v-213h699v-322h-699v-233h735v-367h-1175zM559 1581l219 404h314l-347 -404h-186z" />
<glyph unicode="&#xca;" horiz-adv-x="1468" d="M168 0v1499h1159v-364h-719v-213h699v-322h-699v-233h735v-367h-1175zM406 1581l219 404h262l219 -404h-186l-164 201l-166 -201h-184z" />
<glyph unicode="&#xcb;" horiz-adv-x="1468" d="M168 0v1499h1159v-366h-719v-211h699v-322h-699v-235h735v-365h-1175zM449 1638v281h266v-281h-266zM797 1638v281h266v-281h-266z" />
<glyph unicode="&#xcc;" horiz-adv-x="796" d="M66 1985h313l219 -404h-186zM180 0v1499h445v-1499h-445z" />
<glyph unicode="&#xcd;" horiz-adv-x="796" d="M180 0v1499h445v-1499h-445zM205 1581l219 404h313l-346 -404h-186z" />
<glyph unicode="&#xce;" horiz-adv-x="796" d="M51 1581l219 404h262l220 -404h-187l-164 201l-165 -201h-185zM180 0v1499h445v-1499h-445z" />
<glyph unicode="&#xcf;" horiz-adv-x="796" d="M94 1638v281h266v-281h-266zM180 0v1499h445v-1499h-445zM442 1638v281h267v-281h-267z" />
<glyph unicode="&#xd0;" horiz-adv-x="1642" d="M20 702v279h148v508h778q328 0 459 -135t131 -463v-293q0 -330 -130 -464t-460 -134h-778v702h-148zM608 362h277q133 0 167.5 50.5t34.5 212.5v239q0 162 -30 207q-37 55 -172 55h-277v-764z" />
<glyph unicode="&#xd1;" horiz-adv-x="1798" d="M168 0v1499h627l430 -1005v1005h422v-1499h-629l-428 1014v-1014h-422zM563 1626q33 143 88.5 207.5t143.5 64.5q25 0 45 -2t47 -10l92 -26l49 -7q49 0 70 82h153q-33 -147 -89 -212.5t-146 -65.5q-37 0 -80 12l-88 25q-41 12 -60 12q-49 0 -71 -80h-154z" />
<glyph unicode="&#xd2;" horiz-adv-x="1605" d="M121 598v303q0 340 130 478.5t460 138.5h196q330 0 461 -137.5t131 -479.5v-303q0 -340 -130 -478t-462 -138h-196q-330 0 -460 138t-130 478zM475 1985h313l220 -404h-187zM569 629q0 -162 34 -212t169 -50h74q135 0 170 50t35 212v241q0 162 -31 207q-39 57 -174 58 h-74q-133 0 -168 -52.5t-35 -212.5v-241z" />
<glyph unicode="&#xd3;" horiz-adv-x="1605" d="M121 598v303q0 340 130 478.5t460 138.5h196q330 0 461 -137.5t131 -479.5v-303q0 -340 -130 -478t-462 -138h-196q-330 0 -460 138t-130 478zM569 629q0 -162 34 -212t169 -50h74q135 0 170 50t35 212v241q0 162 -31 207q-39 57 -174 58h-74q-133 0 -168 -52.5 t-35 -212.5v-241zM614 1581l220 404h313l-346 -404h-187z" />
<glyph unicode="&#xd4;" horiz-adv-x="1605" d="M121 598v303q0 340 130 478.5t460 138.5h196q330 0 461 -137.5t131 -479.5v-303q0 -340 -130 -478t-462 -138h-196q-330 0 -460 138t-130 478zM461 1581l219 404h262l219 -404h-186l-164 201l-166 -201h-184zM569 629q0 -162 34 -212t169 -50h74q135 0 170 50t35 212v241 q0 162 -31 207q-39 57 -174 58h-74q-133 0 -168 -52.5t-35 -212.5v-241z" />
<glyph unicode="&#xd5;" horiz-adv-x="1605" d="M121 598v303q0 340 130 478.5t460 138.5h196q328 0 460 -138.5t132 -478.5v-303q0 -340 -130 -478t-462 -138h-196q-330 0 -460 138t-130 478zM467 1628q31 141 87 205.5t144 64.5q25 0 45.5 -2t47.5 -10l92 -26l49 -7q49 0 69 82h154q-33 -147 -89 -212.5t-146 -65.5 q-37 0 -80 12l-88 25q-41 12 -60 12q-49 0 -71 -78h-154zM569 629q0 -164 34 -214t169 -50h74q133 0 172 55q33 47 33 209v239q0 164 -31 209q-39 57 -174 58h-74q-133 0 -168 -52.5t-35 -214.5v-239z" />
<glyph unicode="&#xd6;" horiz-adv-x="1605" d="M121 598v303q0 340 130 478.5t460 138.5h196q328 0 460 -138.5t132 -478.5v-303q0 -340 -130 -478t-462 -138h-196q-330 0 -460 138t-130 478zM504 1638v281h266v-281h-266zM569 629q0 -164 34 -214t169 -50h74q133 0 172 55q33 47 33 209v239q0 164 -31 209 q-39 57 -174 58h-74q-133 0 -168 -52.5t-35 -214.5v-239zM852 1638v281h266v-281h-266z" />
<glyph unicode="&#xd7;" horiz-adv-x="1183" d="M133 168l307 307l-307 307l174 174l307 -307l308 307l174 -174l-308 -307l308 -307l-174 -174l-308 307l-307 -307z" />
<glyph unicode="&#xd8;" horiz-adv-x="1605" d="M100 -233l199 309q-94 68 -136 192.5t-42 325.5v303q0 338 130 474t460 136h196q86 0 157 -8t130 -26l131 206h180l-176 -272q90 -68 130 -189.5t40 -320.5v-303q0 -338 -131 -475t-461 -137h-196q-174 0 -285 34l-162 -249h-164zM569 563.5q0 -28.5 4 -57.5l390 606 q-41 14 -117 14h-74q-133 0 -168 -50t-35 -212v-239v-61.5zM659 377q43 -12 113 -12h74q135 0 170 50t35 210v239v45v41q-4 16 -4 23z" />
<glyph unicode="&#xd9;" horiz-adv-x="1646" d="M145 598v901h439v-870q0 -160 39 -211t172 -51h73q133 0 171 51t38 211v870h439v-901q0 -180 -17 -260q-25 -117 -98.5 -202t-185 -119.5t-285.5 -34.5h-197q-178 0 -285.5 32.5t-183.5 119.5t-97.5 187.5t-21.5 276.5zM496 1985h313l219 -404h-186z" />
<glyph unicode="&#xda;" horiz-adv-x="1646" d="M145 598v901h439v-870q0 -160 39 -211t172 -51h73q133 0 171 51t38 211v870h439v-901q0 -180 -17 -260q-25 -117 -98.5 -202t-185 -119.5t-285.5 -34.5h-197q-178 0 -285.5 32.5t-183.5 119.5t-97.5 187.5t-21.5 276.5zM635 1581l219 404h313l-346 -404h-186z" />
<glyph unicode="&#xdb;" horiz-adv-x="1646" d="M145 598v901h439v-870q0 -160 39 -211t172 -51h73q133 0 171 51t38 211v870h439v-901q0 -180 -17 -260q-25 -117 -98.5 -202t-185 -119.5t-285.5 -34.5h-197q-178 0 -285.5 32.5t-183.5 119.5t-97.5 187.5t-21.5 276.5zM481 1581l219 404h263l219 -404h-187l-164 201 l-165 -201h-185z" />
<glyph unicode="&#xdc;" horiz-adv-x="1646" d="M145 598v901h439v-870q0 -160 39 -212t172 -52h73q131 0 170 53t39 211v870h439v-901q0 -180 -17 -260q-25 -117 -98.5 -202t-185 -119.5t-285.5 -34.5h-197q-178 0 -285.5 32.5t-183.5 119.5t-97.5 187.5t-21.5 276.5zM524 1638v281h267v-281h-267zM872 1638v281h267 v-281h-267z" />
<glyph unicode="&#xdd;" horiz-adv-x="1472" d="M-2 1499h498l252 -534l247 534h494l-524 -973v-526h-441v526zM547 1581l219 404h313l-346 -404h-186z" />
<glyph unicode="&#xde;" horiz-adv-x="1531" d="M168 0v1489h440v-193h279q301 0 435 -115.5t134 -387.5v-97q0 -272 -133 -386.5t-436 -114.5h-279v-195h-440zM608 555h258q84 0 113 31t29 123v82q0 74 -36 107.5t-122 33.5h-242v-377z" />
<glyph unicode="&#xdf;" horiz-adv-x="1247" d="M160 0v1100q0 389 399 389h125q186 0 284.5 -84t98.5 -238v-110q0 -78 -21.5 -127t-72.5 -78q92 -31 137 -105.5t45 -201.5v-178q0 -205 -90 -293t-303 -88q-55 0 -148 12v283l60 -7q53 0 74.5 28t21.5 95v187q0 59 -32.5 81.5t-119.5 22.5v248q53 0 72 18.5t19 61.5v106 q0 84 -84 84q-49 0 -65.5 -25.5t-16.5 -90.5v-1090h-383z" />
<glyph unicode="&#xe0;" horiz-adv-x="1261" d="M111 293v94q0 141 86 219t254 78h92q125 0 205 -68v152q0 72 -72 72h-58q-47 0 -65 -13.5t-18 -62.5h-375q0 174 89 244.5t288 70.5h159q236 0 332 -79.5t96 -276.5v-723h-376v61q-82 -76 -216 -75h-120q-145 0 -223 79.5t-78 227.5zM317 1548h314l219 -399h-186z M492 319q0 -70 81 -69h93q79 -1 79 69v54q0 72 -79 71h-93q-82 0 -81 -71v-54z" />
<glyph unicode="&#xe1;" horiz-adv-x="1261" d="M111 293v94q0 141 86 219t254 78h92q125 0 205 -68v152q0 72 -72 72h-58q-47 0 -65 -13.5t-18 -62.5h-375q0 174 89 244.5t288 70.5h159q236 0 332 -79.5t96 -276.5v-723h-376v61q-82 -76 -216 -75h-120q-145 0 -223 79.5t-78 227.5zM457 1149l219 399h313l-346 -399 h-186zM492 319q0 -70 81 -69h93q79 -1 79 69v54q0 72 -79 71h-93q-82 0 -81 -71v-54z" />
<glyph unicode="&#xe2;" horiz-adv-x="1261" d="M111 293v94q0 141 86 219t254 78h92q125 0 205 -68v152q0 72 -72 72h-58q-47 0 -65 -13.5t-18 -62.5h-375q0 174 89 244.5t288 70.5h159q236 0 332 -79.5t96 -276.5v-723h-376v61q-82 -76 -216 -75h-120q-145 0 -223 79.5t-78 227.5zM303 1149l219 399h262l220 -399h-187 l-164 199l-166 -199h-184zM492 319q0 -70 81 -69h93q79 -1 79 69v54q0 72 -79 71h-93q-82 0 -81 -71v-54z" />
<glyph unicode="&#xe3;" horiz-adv-x="1261" d="M111 291v96q0 141 87 218t253 77h92q127 0 205 -66v152q0 70 -72 70h-58q-47 0 -65 -13.5t-18 -60.5h-375q0 174 89 244.5t288 70.5h159q233 0 330.5 -80.5t97.5 -275.5v-723h-376v61q-82 -76 -216 -75h-120q-145 0 -223 79.5t-78 225.5zM309 1194q31 139 87.5 203.5 t144.5 64.5q25 0 45 -2t47 -10l92 -27l49 -4q51 0 70 80h153q-33 -145 -90 -210.5t-145 -65.5q-37 0 -80 12l-88 25q-35 10 -59 10q-27 0 -43.5 -16.5t-28.5 -59.5h-154zM492 319q0 -70 81 -69h93q79 -1 79 69v54q0 70 -79 69h-93q-82 0 -81 -69v-54z" />
<glyph unicode="&#xe4;" horiz-adv-x="1261" d="M111 291v96q0 141 87 218t253 77h92q123 0 205 -66v152q0 70 -72 70h-58q-47 0 -65 -13.5t-18 -60.5h-375q0 174 89 244.5t288 70.5h159q233 0 330.5 -80.5t97.5 -275.5v-723h-376v61q-82 -76 -216 -75h-120q-145 0 -223 79.5t-78 225.5zM346 1204v279h266v-279h-266z M492 319q0 -70 81 -69h93q79 -1 79 69v54q0 70 -79 69h-93q-82 0 -81 -69v-54zM694 1204v279h267v-279h-267z" />
<glyph unicode="&#xe5;" horiz-adv-x="1261" d="M111 293v96q0 141 87 218t253 77h92q123 0 205 -66v152q0 70 -72 70h-58q-47 0 -65 -13.5t-18 -60.5h-375q0 174 89 244.5t288 70.5h159q236 0 332 -79.5t96 -276.5v-725h-376v61q-82 -76 -216 -75h-120q-145 0 -223 79.5t-78 227.5zM379 1386q0 117 83 198t202 81 q123 0 204.5 -80t81.5 -199t-83 -199.5t-203 -80.5q-121 0 -203 80t-82 200zM492 319q0 -70 81 -69h93q79 -1 79 69v56q0 70 -79 69h-93q-82 0 -81 -69v-56zM563 1386q0 -41 29 -69.5t72 -28.5q41 0 71.5 28.5t30.5 69.5q0 39 -30.5 70t-71.5 31q-43 0 -72 -28.5t-29 -72.5z " />
<glyph unicode="&#xe6;" horiz-adv-x="1843" d="M111 289v94q0 139 87 216t253 77h92q123 0 205 -66v150q0 70 -72 69h-58q-47 0 -65 -13t-18 -60h-375q0 172 89 242.5t288 70.5h159q84 0 142.5 -15.5t103.5 -58.5q37 41 89 57.5t136 16.5h142q242 0 340 -98.5t98 -337.5v-180h-641v-105q0 -59 24.5 -81.5t88.5 -22.5h41 q57 0 82.5 21.5t31.5 84.5h371q0 -195 -107.5 -278.5t-328.5 -83.5h-142q-137 0 -223 27.5t-139 95.5q-104 -123 -273 -123h-120q-145 0 -223 77.5t-78 223.5zM492 317q0 -70 81 -69h93q79 -1 79 69v54q0 68 -79 67h-93q-82 0 -81 -67v-54zM1106 662h272v16 q0 86 -21.5 116.5t-92.5 30.5h-43q-70 0 -92.5 -28.5t-22.5 -108.5v-26z" />
<glyph unicode="&#xe7;" horiz-adv-x="1222" d="M111 416v211q0 242 97 341t341 99h141q238 0 338 -87t100 -300v-47h-376v31q0 66 -22.5 92t-84.5 26h-45q-74 0 -90 -34.5t-16 -145.5v-164q0 -94 4 -114q12 -63 102 -64h45q61 0 84 27.5t23 101.5v45h376l2 -69q0 -211 -102 -301.5t-338 -90.5h-141q-242 0 -340 100.5 t-98 342.5zM399 -315h260q37 0 50.5 11t13.5 42q0 45 -55 45h-123v246h143v-97h78q172 1 172 -196q0 -127 -61.5 -172t-223.5 -45h-254v166z" />
<glyph unicode="&#xe8;" horiz-adv-x="1226" d="M111 428v211q0 242 97 341t341 99h141q242 0 340 -98t98 -342v-182h-641v-105q0 -61 25 -83.5t88 -22.5h43q57 0 82 22.5t31 85.5h370q0 -197 -107.5 -282.5t-328.5 -85.5h-141q-242 0 -340 100t-98 342zM283 1548h313l219 -399h-186zM487 670h273v14q0 90 -21.5 121 t-93.5 31h-43q-68 0 -91.5 -30t-23.5 -112v-24z" />
<glyph unicode="&#xe9;" horiz-adv-x="1226" d="M111 428v211q0 242 97 341t341 99h141q242 0 340 -98t98 -342v-182h-641v-105q0 -61 25 -83.5t88 -22.5h43q57 0 82 22.5t31 85.5h370q0 -197 -107.5 -282.5t-328.5 -85.5h-141q-242 0 -340 100t-98 342zM422 1149l219 399h313l-346 -399h-186zM487 670h273v14 q0 90 -21.5 121t-93.5 31h-43q-68 0 -91.5 -30t-23.5 -112v-24z" />
<glyph unicode="&#xea;" horiz-adv-x="1226" d="M111 428v211q0 242 97 341t341 99h141q242 0 340 -98t98 -342v-182h-641v-105q0 -61 25 -83.5t88 -22.5h43q57 0 82 22.5t31 85.5h370q0 -197 -107.5 -282.5t-328.5 -85.5h-141q-242 0 -340 100t-98 342zM268 1149l219 399h263l219 -399h-187l-164 199l-165 -199h-185z M487 670h273v14q0 90 -21.5 121t-93.5 31h-43q-68 0 -91.5 -30t-23.5 -112v-24z" />
<glyph unicode="&#xeb;" horiz-adv-x="1226" d="M111 428v211q0 242 97 341t341 99h141q242 0 340 -100t98 -340v-182h-641v-105q0 -61 25 -83.5t88 -22.5h43q57 0 82 22.5t31 85.5h370q0 -197 -107.5 -282.5t-328.5 -85.5h-141q-242 0 -340 100t-98 342zM311 1204v279h267v-279h-267zM487 668h273v16q0 88 -21.5 119 t-93.5 31h-43q-70 0 -92.5 -29t-22.5 -111v-26zM659 1204v279h267v-279h-267z" />
<glyph unicode="&#xec;" horiz-adv-x="692" d="M12 1548h314l219 -401h-187zM158 0v1065h381v-1065h-381z" />
<glyph unicode="&#xed;" horiz-adv-x="692" d="M152 1147l219 401h313l-346 -401h-186zM158 0v1065h381v-1065h-381z" />
<glyph unicode="&#xee;" horiz-adv-x="692" d="M-2 1147l219 401h262l219 -401h-186l-164 201l-166 -201h-184zM158 0v1065h381v-1065h-381z" />
<glyph unicode="&#xef;" horiz-adv-x="692" d="M41 1204v279h266v-279h-266zM158 0v1065h381v-1065h-381zM389 1204v279h266v-279h-266z" />
<glyph unicode="&#xf0;" d="M156 383v133q0 211 101 312.5t321 101.5h145q133 0 223 -68v209q0 70 -23.5 88.5t-107.5 18.5h-98q-68 0 -90.5 -15.5t-22.5 -70.5v-39h-414v108q0 168 122 257t360 89h176q135 0 223 -26l248 153l139 -241l-158 -99q63 -133 64 -397v-303q0 -336 -112.5 -474 t-403.5 -138h-176q-516 0 -516 401zM569 406q0 -59 27 -76t121 -17h80q90 0 119.5 16t29.5 77v108q0 57 -28.5 72.5t-120.5 15.5h-80q-96 0 -122 -13.5t-26 -74.5v-108z" />
<glyph unicode="&#xf1;" horiz-adv-x="1292" d="M164 0v1065h364l-2 -94q90 109 277 108q207 0 280.5 -86t73.5 -307v-686h-375v614q0 102 -22.5 130t-106.5 28q-76 0 -95 -37t-19 -141v-594h-375zM324 1192q31 141 87 205.5t144 64.5q25 0 45.5 -2t46.5 -10l92 -27l49 -6q49 0 70 82h154q-33 -145 -90.5 -210.5 t-145.5 -65.5q-37 0 -80 12l-88 22q-41 12 -59 13q-27 0 -43.5 -16.5t-28.5 -61.5h-153z" />
<glyph unicode="&#xf2;" horiz-adv-x="1228" d="M111 428v211q0 242 97 341t341 99h141q242 0 340 -98t98 -342v-211q0 -244 -97 -343t-341 -99h-141q-242 0 -340 100t-98 342zM285 1548h313l219 -399h-186zM494 451q0 -94 4 -115q12 -63 102 -64h41q72 0 88 35t16 144v163q0 96 -4 117q-12 63 -100 64h-41 q-74 0 -90 -35t-16 -146v-163z" />
<glyph unicode="&#xf3;" horiz-adv-x="1228" d="M111 428v211q0 242 97 341t341 99h141q242 0 340 -98t98 -342v-211q0 -244 -97 -343t-341 -99h-141q-242 0 -340 100t-98 342zM424 1149l219 399h313l-346 -399h-186zM494 451q0 -94 4 -115q12 -63 102 -64h41q72 0 88 35t16 144v163q0 96 -4 117q-12 63 -100 64h-41 q-74 0 -90 -35t-16 -146v-163z" />
<glyph unicode="&#xf4;" horiz-adv-x="1228" d="M111 428v211q0 242 97 341t341 99h141q242 0 340 -98t98 -342v-211q0 -244 -97 -343t-341 -99h-141q-242 0 -340 100t-98 342zM270 1149l219 399h263l219 -399h-187l-163 199l-166 -199h-185zM494 451q0 -94 4 -115q12 -63 102 -64h41q72 0 88 35t16 144v163q0 96 -4 117 q-12 63 -100 64h-41q-74 0 -90 -35t-16 -146v-163z" />
<glyph unicode="&#xf5;" horiz-adv-x="1228" d="M111 428v211q0 242 97 341t341 99h141q242 0 340 -98t98 -342v-211q0 -244 -97 -343t-341 -99h-141q-242 0 -340 100t-98 342zM276 1194q31 139 87.5 203.5t144.5 64.5q25 0 45 -2t47 -10l92 -27l49 -4q51 0 70 80h154q-33 -145 -90.5 -210.5t-145.5 -65.5q-37 0 -80 12 l-88 25q-35 10 -59 10q-27 0 -43.5 -16.5t-28.5 -59.5h-154zM494 451q0 -94 4 -115q12 -63 102 -64h41q72 0 88 35t16 144v163q0 94 -4 115q-12 66 -100 66h-41q-72 0 -89 -36t-17 -145v-163z" />
<glyph unicode="&#xf6;" horiz-adv-x="1228" d="M111 428v211q0 242 97 341t341 99h141q242 0 340 -100t98 -340v-211q0 -244 -97 -343t-341 -99h-141q-242 0 -340 100t-98 342zM313 1204v279h267v-279h-267zM494 451q0 -94 4 -115q12 -63 102 -64h41q72 0 88 35t16 144v163q0 94 -4 115q-12 66 -100 66h-41 q-72 0 -89 -36t-17 -145v-163zM662 1204v279h266v-279h-266z" />
<glyph unicode="&#xf7;" horiz-adv-x="1183" d="M111 410v245h991v-245h-991zM459 0v299h307v-299h-307zM459 770v299h307v-299h-307z" />
<glyph unicode="&#xf8;" horiz-adv-x="1228" d="M100 -233l158 280q-78 45 -112.5 138.5t-34.5 238.5v209q0 240 98 338t340 98h141q86 0 152 -12l114 205h181l-154 -254q76 -47 110.5 -138.5t34.5 -236.5v-209q0 -242 -97 -339t-341 -97h-141q-74 0 -146 10l-139 -231h-164zM494 446q0 -92 4 -112q14 -66 102 -66h41 q72 0 88 34.5t16 143.5v162q0 94 -4 115q-12 63 -100 63h-41q-74 0 -90 -33.5t-16 -144.5v-162z" />
<glyph unicode="&#xf9;" horiz-adv-x="1300" d="M164 377v690h375v-616q0 -102 22.5 -129t106.5 -27q76 0 98 41q16 31 16 133v598h375v-1067h-364l2 94q-90 -109 -277 -108q-207 0 -280.5 84t-73.5 307zM340 1548h313l219 -399h-186z" />
<glyph unicode="&#xfa;" horiz-adv-x="1300" d="M164 377v690h375v-616q0 -102 22.5 -129t106.5 -27q76 0 98 41q16 31 16 133v598h375v-1067h-364l2 94q-90 -109 -277 -108q-207 0 -280.5 84t-73.5 307zM479 1149l219 399h314l-346 -399h-187z" />
<glyph unicode="&#xfb;" horiz-adv-x="1300" d="M164 377v690h375v-616q0 -102 22.5 -129t106.5 -27q76 0 98 41q16 31 16 133v598h375v-1067h-364l2 94q-90 -109 -277 -108q-207 0 -280.5 84t-73.5 307zM326 1149l219 399h262l219 -399h-186l-164 199l-166 -199h-184z" />
<glyph unicode="&#xfc;" horiz-adv-x="1300" d="M164 377v688h375v-614q0 -102 22.5 -130t106.5 -28q78 0 96 36t18 140v596h375v-1065h-364l2 94q-90 -109 -277 -108q-207 0 -280.5 84t-73.5 307zM369 1204v279h266v-279h-266zM717 1204v279h266v-279h-266z" />
<glyph unicode="&#xfd;" horiz-adv-x="1181" d="M-41 1055h393l289 -688l180 688h402l-377 -1184q-43 -145 -129 -209.5t-254 -64.5q-39 0 -62 2q-115 10 -141 10v268h94q43 0 70 20.5t27 53.5l-5 69zM399 1145l219 403h314l-346 -403h-187z" />
<glyph unicode="&#xfe;" horiz-adv-x="1265" d="M164 -403v1892h375v-508q86 96 264 96q360 0 360 -444v-211q0 -444 -360 -445q-178 0 -264 95v-475h-375zM539 449q0 -98 17 -135.5t85 -37.5h39q66 0 84 39.5t18 133.5v159q0 98 -14 129q-20 43 -88 43h-39q-66 0 -84 -39t-18 -133v-159z" />
<glyph unicode="&#xff;" horiz-adv-x="1181" d="M-41 1055h393l289 -688l180 688h402l-377 -1184q-43 -145 -129 -209.5t-254 -64.5q-39 0 -62 2q-115 10 -141 10v268h94q43 0 70 20.5t27 53.5l-5 69zM289 1202v281h266v-281h-266zM637 1202v281h266v-281h-266z" />
<glyph unicode="&#x152;" horiz-adv-x="2125" d="M121 594v303q0 319 143.5 464.5t452.5 145.5q135 0 213 -27.5t153 -105.5v117h928v-356h-538v-224h514v-311h-514v-246h555v-354h-945v125q-70 -84 -143.5 -113.5t-210.5 -29.5q-319 0 -463.5 144t-144.5 468zM569 621q0 -168 34 -220.5t169 -52.5h74q135 0 170 52.5 t35 220.5v249q0 168 -31 215q-39 57 -174 58h-74q-127 0 -165 -52.5t-38 -220.5v-249z" />
<glyph unicode="&#x153;" horiz-adv-x="1888" d="M111 424v209q0 240 98 338t340 98h127q104 0 168.5 -25.5t105.5 -85.5q82 111 275 111h133q244 0 340 -98.5t96 -337.5v-180h-651v-105q0 -59 26.5 -81.5t87.5 -22.5h52q57 0 82.5 21.5t31.5 84.5h367q0 -190 -106.5 -276t-325.5 -86h-168q-184 0 -244 116 q-76 -117 -270 -116h-127q-242 0 -340 98t-98 338zM494 446q0 -111 14 -137q23 -41 102 -41h43q80 0 98.5 34.5t18.5 143.5v162q0 113 -14 140q-20 39 -103 38h-45q-78 0 -96 -34.5t-18 -143.5v-162zM1143 662h282v16q0 86 -21.5 116.5t-92.5 30.5h-51q-72 0 -94.5 -28.5 t-22.5 -112.5v-22z" />
<glyph unicode="&#x178;" horiz-adv-x="1472" d="M-2 1499h498l252 -534l247 534h494l-524 -973v-526h-441v526zM436 1638v281h266v-281h-266zM784 1638v281h267v-281h-267z" />
<glyph unicode="&#x2c6;" horiz-adv-x="1089" d="M199 1180l219 370h262l219 -370h-186l-164 184l-166 -184h-184z" />
<glyph unicode="&#x2dc;" horiz-adv-x="1089" d="M205 1227q61 240 231 239q20 0 43 -2t49 -8l93 -22l49 -7q49 0 69 74h154q-35 -133 -90 -190.5t-146 -57.5q-16 0 -37.5 2t-41.5 9l-89 20q-41 12 -59 12q-49 0 -72 -69h-153z" />
<glyph unicode="&#x2000;" horiz-adv-x="992" />
<glyph unicode="&#x2001;" horiz-adv-x="1985" />
<glyph unicode="&#x2002;" horiz-adv-x="992" />
<glyph unicode="&#x2003;" horiz-adv-x="1985" />
<glyph unicode="&#x2004;" horiz-adv-x="661" />
<glyph unicode="&#x2005;" horiz-adv-x="496" />
<glyph unicode="&#x2006;" horiz-adv-x="330" />
<glyph unicode="&#x2007;" horiz-adv-x="330" />
<glyph unicode="&#x2008;" horiz-adv-x="248" />
<glyph unicode="&#x2009;" horiz-adv-x="397" />
<glyph unicode="&#x200a;" horiz-adv-x="110" />
<glyph unicode="&#x2010;" horiz-adv-x="677" d="M70 426v279h557v-279h-557z" />
<glyph unicode="&#x2011;" horiz-adv-x="677" d="M70 426v279h557v-279h-557z" />
<glyph unicode="&#x2012;" horiz-adv-x="677" d="M70 426v279h557v-279h-557z" />
<glyph unicode="&#x2013;" horiz-adv-x="1013" d="M0 426v217h1024v-217h-1024z" />
<glyph unicode="&#x2014;" horiz-adv-x="2027" d="M0 426v217h2048v-217h-2048z" />
<glyph unicode="&#x2018;" horiz-adv-x="755" d="M193 895v360q0 233 305 234h43v-174h-33q-76 0 -76 -62v-8h109v-350h-348z" />
<glyph unicode="&#x2019;" horiz-adv-x="755" d="M193 895v174h32q74 0 74 64v8h-106v348h348v-359q0 -236 -305 -235h-43z" />
<glyph unicode="&#x201a;" horiz-adv-x="755" d="M193 -14v348h348v-363q0 -231 -305 -231h-43v172h32q74 0 74 63v11h-106z" />
<glyph unicode="&#x201c;" horiz-adv-x="1220" d="M193 895v360q0 233 305 234h43v-174h-33q-76 0 -76 -62v-8h109v-350h-348zM690 895v360q0 233 303 234h43v-174h-32q-74 0 -74 -62v-8h106v-350h-346z" />
<glyph unicode="&#x201d;" horiz-adv-x="1220" d="M193 895v174h32q74 0 74 64v8h-106v348h348v-359q0 -236 -305 -235h-43zM688 895v174h33q76 0 76 64v8h-109v348h348v-359q0 -236 -305 -235h-43z" />
<glyph unicode="&#x201e;" horiz-adv-x="1220" d="M193 -14v348h348v-363q0 -231 -305 -231h-43v172h32q74 0 74 63v11h-106zM688 -14v348h348v-363q0 -231 -305 -231h-43v172h33q76 0 76 63v11h-109z" />
<glyph unicode="&#x2022;" horiz-adv-x="710" d="M115 614q0 109 74.5 183.5t183.5 74.5q104 0 179 -74.5t75 -183.5q0 -104 -75 -179t-179 -75q-109 0 -183.5 73t-74.5 181z" />
<glyph unicode="&#x2026;" horiz-adv-x="2027" d="M197 0v299h307v-299h-307zM881 0v299h307v-299h-307zM1561 0v299h307v-299h-307z" />
<glyph unicode="&#x202f;" horiz-adv-x="397" />
<glyph unicode="&#x2039;" horiz-adv-x="677" d="M188 438v254l340 283v-225l-213 -181l213 -180v-237z" />
<glyph unicode="&#x203a;" horiz-adv-x="677" d="M180 152v237l213 180l-213 181v225l344 -283v-254z" />
<glyph unicode="&#x205f;" horiz-adv-x="496" />
<glyph unicode="&#x2122;" horiz-adv-x="2027" d="M156 1368v160h700v-160h-250v-668h-200v668h-250zM958 700v828h291l185 -492l188 492h291v-828h-180v668l-246 -668h-107l-241 668v-668h-181z" />
<glyph unicode="&#x25fc;" horiz-adv-x="1054" d="M0 0v1055h1055v-1055h-1055z" />
</font>
</defs>
</svg>
