<?xml version="1.0" standalone="no"?>
<!DOCTYPE svg PUBLIC "-//W3C//DTD SVG 1.1//EN" "http://www.w3.org/Graphics/SVG/1.1/DTD/svg11.dtd" >
<svg xmlns="http://www.w3.org/2000/svg" xmlns:xlink="http://www.w3.org/1999/xlink" version="1.1">
<metadata></metadata>
<defs>
<font id="refrigeratorbold" horiz-adv-x="819" >
<font-face units-per-em="2048" ascent="1638" descent="-410" />
<missing-glyph horiz-adv-x="409" />
<glyph horiz-adv-x="0" />
<glyph unicode="&#xd;" horiz-adv-x="409" />
<glyph unicode=" "  horiz-adv-x="409" />
<glyph unicode="&#x09;" horiz-adv-x="409" />
<glyph unicode="&#xa0;" horiz-adv-x="409" />
<glyph unicode="!" horiz-adv-x="409" d="M82 102q0 51 36 87t87 36t87 -36t36 -87t-36 -86.5t-87 -35.5t-87 35.5t-36 86.5zM102 410v1024h205v-1024h-205z" />
<glyph unicode="&#x22;" horiz-adv-x="718" d="M90 1436h250l-76 -412h-98zM379 1436h250l-76 -412h-98z" />
<glyph unicode="#" horiz-adv-x="1091" d="M51 0l125 377h-121v184h183l104 311h-117v185h178l123 377h131l-125 -377h254l125 377h129l-122 -377h122v-185h-184l-104 -311h118v-184h-180l-123 -377h-131l123 377h-252l-125 -377h-131zM369 561h252l104 311h-254z" />
<glyph unicode="$" horiz-adv-x="921" d="M102 389v152h205v-152h307v125l-307 158q-205 104 -205 241v131q0 86 59.5 145.5t145.5 59.5h62v185h184v-185h61q86 0 145.5 -59.5t59.5 -145.5v-145h-205v145h-307v-131l307 -155q92 -47 129 -78q76 -63 76 -156v-135q0 -86 -59.5 -145.5t-145.5 -59.5h-61v-184h-184 v184h-62q-86 0 -145.5 59.5t-59.5 145.5z" />
<glyph unicode="%" horiz-adv-x="1329" d="M102 852v444q0 57 41 97.5t99 40.5h182q57 0 98 -40t41 -98v-444q0 -57 -40 -97t-99 -40h-182q-59 0 -99.5 40t-40.5 97zM242 852h182v444h-182v-444zM362 0l476 1434h131l-475 -1434h-132zM768 137v445q0 57 40 97t97 40h185q57 0 97 -40t40 -97v-445q0 -57 -40 -97 t-97 -40h-185q-57 0 -97 40t-40 97zM905 137h185v445h-185v-445z" />
<glyph unicode="&#x26;" horiz-adv-x="1228" d="M102 205v350q0 123 168 223q-168 113 -168 260v191q0 86 59.5 145.5t145.5 59.5h307q86 0 145.5 -59.5t59.5 -145.5v-205h-205v205h-307v-185l410 -405l110 221h209l-176 -360l367 -365l-148 -149l-329 333l-50 -106q-47 -102 -86 -145q-57 -68 -139 -68h-168 q-86 0 -145.5 59.5t-59.5 145.5zM307 205h189l118 237l-213 215l-94 -96v-356z" />
<glyph unicode="'" horiz-adv-x="409" d="M90 1436h250l-76 -412h-98z" />
<glyph unicode="(" horiz-adv-x="448" d="M76 666q0 614 217 972h131q-164 -369 -164 -972q0 -606 164 -975h-131q-217 358 -217 975z" />
<glyph unicode=")" horiz-adv-x="448" d="M25 -309q164 369 163 975q0 604 -163 972h131q217 -358 217 -972q0 -616 -217 -975h-131z" />
<glyph unicode="*" horiz-adv-x="655" d="M51 1022l201 115l-201 114l39 68l199 -117v232h78l-2 -232l200 117l39 -68l-203 -114l203 -115l-39 -68l-200 117l2 -231h-78v231l-199 -117z" />
<glyph unicode="+" horiz-adv-x="917" d="M51 369v184h311v319h185v-319h323v-184h-323v-316h-185v316h-311z" />
<glyph unicode="," horiz-adv-x="409" d="M82 102q0 51 36 87t87 36t88 -36t35 -87q0 -20 -17 -57l-114 -250h-99l62 197q-74 27 -78 110z" />
<glyph unicode="-" horiz-adv-x="534" d="M51 369v184h432v-184h-432z" />
<glyph unicode="." horiz-adv-x="409" d="M82 102q0 51 36 87t87 36t87 -36t36 -87t-36 -86.5t-87 -35.5t-87 35.5t-36 86.5z" />
<glyph unicode="/" horiz-adv-x="604" d="M0 -309l475 1947h129l-473 -1947h-131z" />
<glyph unicode="0" horiz-adv-x="921" d="M102 205v1024q0 86 59.5 145.5t145.5 59.5h307q86 0 145.5 -59.5t59.5 -145.5v-1024q0 -86 -59.5 -145.5t-145.5 -59.5h-307q-86 0 -145.5 59.5t-59.5 145.5zM307 205h307v1024h-307v-1024z" />
<glyph unicode="1" horiz-adv-x="921" d="M154 0v205h204v1024h-204v205h409v-1229h205v-205h-614z" />
<glyph unicode="2" horiz-adv-x="921" d="M102 0v205l512 655v369h-307v-205h-205v205q0 86 59.5 145.5t145.5 59.5h307q86 0 145.5 -59.5t59.5 -145.5v-369q0 -57 -31 -110q-14 -25 -71 -95l-365 -450h467v-205h-717z" />
<glyph unicode="3" horiz-adv-x="921" d="M102 205v205h205v-205h307v450h-307v205h307v369h-307v-205h-205v205q0 86 59.5 145.5t145.5 59.5h307q86 0 145.5 -59.5t59.5 -145.5v-316q0 -117 -102 -157q102 -37 102 -158v-393q0 -86 -59.5 -145.5t-145.5 -59.5h-307q-86 0 -145.5 59.5t-59.5 145.5z" />
<glyph unicode="4" horiz-adv-x="921" d="M102 307v205l461 922h205v-922h102v-205h-102v-307h-205v307h-461zM305 512h258v535z" />
<glyph unicode="5" horiz-adv-x="921" d="M102 205v205h205v-205h307v553h-307v-103h-205v779h717v-205h-512v-369q41 102 160 103h147q86 0 145.5 -59.5t59.5 -145.5v-553q0 -86 -59.5 -145.5t-145.5 -59.5h-307q-86 0 -145.5 59.5t-59.5 145.5z" />
<glyph unicode="6" horiz-adv-x="921" d="M102 205v1024q0 86 59.5 145.5t145.5 59.5h307q86 0 145.5 -59.5t59.5 -145.5v-205h-205v205h-307v-471q41 102 160 102h147q86 0 145.5 -59.5t59.5 -145.5v-450q0 -86 -59.5 -145.5t-145.5 -59.5h-307q-86 0 -145.5 59.5t-59.5 145.5zM307 205h307v450h-307v-450z" />
<glyph unicode="7" horiz-adv-x="921" d="M102 1024v410h717v-205l-287 -1229h-225l299 1229h-299v-205h-205z" />
<glyph unicode="8" horiz-adv-x="921" d="M102 205v395q0 117 103 158q-102 41 -103 157v314q0 86 59.5 145.5t145.5 59.5h307q86 0 145.5 -59.5t59.5 -145.5v-314q0 -117 -102 -157q102 -41 102 -158v-395q0 -86 -59.5 -145.5t-145.5 -59.5h-307q-86 0 -145.5 59.5t-59.5 145.5zM307 205h307v450h-307v-450z M307 860h307v369h-307v-369z" />
<glyph unicode="9" horiz-adv-x="921" d="M102 205v205h205v-205h307v471q-37 -102 -157 -103h-150q-86 0 -145.5 59.5t-59.5 145.5v451q0 86 59.5 145.5t145.5 59.5h307q86 0 145.5 -59.5t59.5 -145.5v-1024q0 -86 -59.5 -145.5t-145.5 -59.5h-307q-86 0 -145.5 59.5t-59.5 145.5zM307 778h307v451h-307v-451z " />
<glyph unicode=":" horiz-adv-x="409" d="M82 102q0 51 36 87t87 36t87 -36t36 -87t-36 -86.5t-87 -35.5t-87 35.5t-36 86.5zM82 819q0 51 36 87t87 36t87 -36t36 -87t-36 -87t-87 -36t-87 36t-36 87z" />
<glyph unicode=";" horiz-adv-x="409" d="M82 102q0 51 36 87t87 36t88 -36t35 -87q0 -20 -17 -57l-114 -250h-99l62 197q-74 27 -78 110zM82 819q0 51 36 87t87 36t87 -36t36 -87t-36 -87t-87 -36t-87 36t-36 87z" />
<glyph unicode="&#x3c;" horiz-adv-x="653" d="M51 461l422 420l129 -129l-301 -291l301 -291l-129 -129z" />
<glyph unicode="=" horiz-adv-x="921" d="M51 184v185h819v-185h-819zM51 553v184h819v-184h-819z" />
<glyph unicode="&#x3e;" horiz-adv-x="653" d="M51 170l301 291l-301 291l129 129l422 -420l-422 -420z" />
<glyph unicode="?" horiz-adv-x="921" d="M102 1024v205q0 86 59.5 145.5t145.5 59.5h307q86 0 145.5 -59.5t59.5 -145.5v-172q0 -98 -100 -199l-236 -235l107 -111l-148 -147l-110 106q-53 53 -53 137q0 96 61 158l274 274v189h-307v-205h-205zM340 102q0 51 36 87t87 36t87 -36t36 -87t-36 -86.5t-87 -35.5 t-87 35.5t-36 86.5z" />
<glyph unicode="@" horiz-adv-x="1153" d="M102 459v516q0 197 140 336q139 139 336 139q195 0 333 -139q139 -139 140 -336v-535q0 -35 -25 -59.5t-59 -24.5h-201q-41 0 -69.5 21.5t-28.5 48.5q0 -27 -28 -48.5t-69 -21.5h-86q-57 0 -98 41t-41 99v442q0 59 41 99t98 40h86q41 0 69 -21.5t28 -47.5v69h139v-637 h162v535q0 162 -115 276q-115 115 -276 115q-162 0 -277 -115t-115 -276v-516q0 -162 115 -277t277 -114q113 0 207 59t143 158l73 -39q-59 -119 -172.5 -190.5t-250.5 -71.5q-197 0 -336 139t-140 336zM485 496h183v442h-183v-442z" />
<glyph unicode="A" horiz-adv-x="960" d="M43 0l307 1434h258l307 -1434h-217l-41 205h-356l-41 -205h-217zM342 410h274l-133 667z" />
<glyph unicode="B" horiz-adv-x="923" d="M104 0v1434h512q86 0 145.5 -59.5t59.5 -145.5v-314q0 -117 -102 -157q102 -41 102 -158v-395q0 -86 -59.5 -145.5t-145.5 -59.5h-512zM309 205h307v450h-307v-450zM309 860h307v369h-307v-369z" />
<glyph unicode="C" horiz-adv-x="921" d="M102 205v1024q0 86 59.5 145.5t145.5 59.5h307q86 0 145.5 -59.5t59.5 -145.5v-205h-205v205h-307v-1024h307v205h205v-205q0 -86 -59.5 -145.5t-145.5 -59.5h-307q-86 0 -145.5 59.5t-59.5 145.5z" />
<glyph unicode="D" horiz-adv-x="921" d="M102 0v1434h512q86 0 145.5 -59.5t59.5 -145.5v-1024q0 -86 -59.5 -145.5t-145.5 -59.5h-512zM307 205h307v1024h-307v-1024z" />
<glyph unicode="E" horiz-adv-x="768" d="M102 0v1434h615v-205h-410v-369h307v-205h-307v-450h410v-205h-615z" />
<glyph unicode="F" horiz-adv-x="768" d="M102 0v1434h615v-205h-410v-369h307v-205h-307v-655h-205z" />
<glyph unicode="G" horiz-adv-x="921" d="M102 205v1024q0 86 59.5 145.5t145.5 59.5h307q86 0 145.5 -59.5t59.5 -145.5v-205h-205v205h-307v-1024h307v348h-153v205h358v-553q0 -86 -59.5 -145.5t-145.5 -59.5h-307q-86 0 -145.5 59.5t-59.5 145.5z" />
<glyph unicode="H" horiz-adv-x="921" d="M102 0v1434h205v-574h307v574h205v-1434h-205v655h-307v-655h-205z" />
<glyph unicode="I" horiz-adv-x="409" d="M102 0v1434h205v-1434h-205z" />
<glyph unicode="J" horiz-adv-x="870" d="M51 205v205h205v-205h307v1229h205v-1229q0 -86 -59.5 -145.5t-145.5 -59.5h-307q-86 0 -145.5 59.5t-59.5 145.5z" />
<glyph unicode="K" horiz-adv-x="921" d="M102 0v1434h205v-734l373 734h217l-340 -664l365 -770h-234l-246 571l-135 -262v-309h-205z" />
<glyph unicode="L" horiz-adv-x="768" d="M102 0v1434h205v-1229h410v-205h-615z" />
<glyph unicode="M" horiz-adv-x="1163" d="M102 0v1434h258l222 -844l221 844h258v-1434h-205v909l-242 -909h-65l-242 909v-909h-205z" />
<glyph unicode="N" horiz-adv-x="921" d="M102 0v1434h222l290 -844v844h205v-1434h-180l-332 938v-938h-205z" />
<glyph unicode="O" horiz-adv-x="921" d="M102 205v1024q0 86 59.5 145.5t145.5 59.5h307q86 0 145.5 -59.5t59.5 -145.5v-1024q0 -86 -59.5 -145.5t-145.5 -59.5h-307q-86 0 -145.5 59.5t-59.5 145.5zM307 205h307v1024h-307v-1024z" />
<glyph unicode="P" horiz-adv-x="870" d="M102 0v1434h512q86 0 145.5 -59.5t59.5 -145.5v-451q0 -43 -15.5 -79.5t-43 -64.5t-65.5 -44.5t-81 -16.5h-307v-573h-205zM307 778h307v451h-307v-451z" />
<glyph unicode="Q" horiz-adv-x="921" d="M102 205v1024q0 86 59.5 145.5t145.5 59.5h307q86 0 145.5 -59.5t59.5 -145.5v-1024q0 -86 -59.5 -145.5t-145.5 -59.5h-51v-102h103v-205h-103q-86 0 -145.5 59.5t-59.5 145.5v102h-51q-86 0 -145.5 59.5t-59.5 145.5zM307 205h307v1024h-307v-1024z" />
<glyph unicode="R" horiz-adv-x="921" d="M102 0v1434h512q86 0 145.5 -59.5t59.5 -145.5v-451q0 -168 -162 -194l162 -584h-217l-135 573h-160v-573h-205zM307 778h307v451h-307v-451z" />
<glyph unicode="S" horiz-adv-x="921" d="M102 205v205h205v-205h307v237l-307 303q-119 121 -141 148q-63 82 -64 178v158q0 86 59.5 145.5t145.5 59.5h307q86 0 145.5 -59.5t59.5 -145.5v-205h-205v205h-307v-185l307 -303q111 -106 144 -153q61 -82 61 -178v-205q0 -86 -59.5 -145.5t-145.5 -59.5h-307 q-86 0 -145.5 59.5t-59.5 145.5z" />
<glyph unicode="T" d="M51 1229v205h717v-205h-256v-1229h-205v1229h-256z" />
<glyph unicode="U" horiz-adv-x="921" d="M102 205v1229h205v-1229h307v1229h205v-1229q0 -86 -59.5 -145.5t-145.5 -59.5h-307q-86 0 -145.5 59.5t-59.5 145.5z" />
<glyph unicode="V" horiz-adv-x="917" d="M25 1434h227l207 -1112l207 1112h227l-307 -1434h-254z" />
<glyph unicode="W" horiz-adv-x="1339" d="M25 1434h221l166 -1082l163 1082h191l162 -1082l168 1082h219l-246 -1434h-244l-155 934l-156 -934h-244z" />
<glyph unicode="X" horiz-adv-x="917" d="M4 0l328 750l-295 684h235l187 -504l186 504h236l-295 -684l327 -750h-243l-211 569l-211 -569h-244z" />
<glyph unicode="Y" d="M0 1434h225l185 -656l184 656h225l-309 -881v-553h-205v553z" />
<glyph unicode="Z" horiz-adv-x="835" d="M51 0v205l484 1024h-467v205h700v-205l-483 -1024h499v-205h-733z" />
<glyph unicode="[" horiz-adv-x="501" d="M102 -309v1947h349v-131h-220v-1685h220v-131h-349z" />
<glyph unicode="\" horiz-adv-x="604" d="M0 1638h129l475 -1947h-131z" />
<glyph unicode="]" horiz-adv-x="501" d="M51 -178h219v1685h-219v131h348v-1947h-348v131z" />
<glyph unicode="^" horiz-adv-x="614" d="M51 1137l256 256l256 -256l-90 -90l-166 165l-166 -165z" />
<glyph unicode="_" horiz-adv-x="921" d="M0 0h922v-184h-922v184z" />
<glyph unicode="`" horiz-adv-x="448" d="M51 1303l90 90l256 -256l-90 -90z" />
<glyph unicode="a" horiz-adv-x="798" d="M82 184v226q0 86 53 135t131 49h125q98 0 121 -78v262h-338v185h338q78 0 131 -53.5t53 -131.5v-778h-184v78q-66 -78 -121 -78h-121q-37 0 -71.5 14.5t-60 40t-41 59t-15.5 70.5zM268 184h244v226h-244v-226z" />
<glyph unicode="b" d="M102 0v1434h185v-566q33 94 147 95h98q78 0 131.5 -53.5t53.5 -131.5v-594q0 -37 -14.5 -70.5t-39 -59t-58.5 -40t-73 -14.5h-98q-115 0 -147 94v-94h-185zM287 184h245v594h-245v-594z" />
<glyph unicode="c" d="M102 184v594q0 39 14.5 73t40 58.5t59.5 39t71 14.5h245q78 0 131.5 -53.5t53.5 -131.5v-184h-185v184h-245v-594h245v185h185v-185q0 -37 -14.5 -70.5t-39 -59t-58.5 -40t-73 -14.5h-245q-76 0 -130.5 54.5t-54.5 129.5z" />
<glyph unicode="d" d="M102 184v594q0 39 14.5 73t40 58.5t59.5 39t71 14.5h98q115 0 147 -95v566h185v-1434h-185v94q-33 -94 -147 -94h-98q-76 0 -130.5 54.5t-54.5 129.5zM287 184h245v594h-245v-594z" />
<glyph unicode="e" d="M102 184v594q0 39 14.5 73t40 58.5t59.5 39t71 14.5h245q78 0 131.5 -53.5t53.5 -131.5v-409h-430v-185h340v-184h-340q-76 0 -130.5 54.5t-54.5 129.5zM287 553h245v225h-245v-225z" />
<glyph unicode="f" horiz-adv-x="634" d="M31 778v185h184v286q0 39 14.5 73t40 58.5t59 39t70.5 14.5h185v-185h-185v-286h185v-185h-185v-778h-184v778h-184z" />
<glyph unicode="g" d="M102 184v594q0 76 54.5 130.5t130.5 54.5h98q115 0 147 -95v95h185v-1086q0 -37 -14.5 -70.5t-40 -58t-59.5 -40t-71 -15.5h-315v184h315v217q-33 -94 -147 -94h-98q-76 0 -130.5 54.5t-54.5 129.5zM287 184h245v594h-245v-594z" />
<glyph unicode="h" d="M102 0v1434h185v-566q33 94 147 95h98q78 0 131.5 -53.5t53.5 -131.5v-778h-185v778h-245v-778h-185z" />
<glyph unicode="i" horiz-adv-x="389" d="M74 1323q0 51 35.5 87t87.5 36q51 0 86.5 -36t35.5 -87t-35.5 -87t-86.5 -36t-87 36t-36 87zM102 0v963h185v-963h-185z" />
<glyph unicode="j" horiz-adv-x="389" d="M-82 -123h184v1086h185v-1086q0 -37 -14.5 -70.5t-40 -58t-59.5 -40t-71 -15.5h-184v184zM74 1323q0 51 35.5 87t87.5 36q51 0 86.5 -36t35.5 -87t-35.5 -87t-86.5 -36t-87 36t-36 87z" />
<glyph unicode="k" horiz-adv-x="737" d="M102 0v1434h185v-918l245 447h197l-225 -398l233 -565h-205l-139 389l-106 -184v-205h-185z" />
<glyph unicode="l" horiz-adv-x="389" d="M102 0v1434h185v-1434h-185z" />
<glyph unicode="m" horiz-adv-x="1249" d="M102 0v963h185v-95q33 94 147 95h115q115 0 147 -95q33 94 148 95h119q78 0 131 -53.5t53 -131.5v-778h-184v778h-246v-778h-185v778h-245v-778h-185z" />
<glyph unicode="n" d="M102 0v963h185v-95q33 94 147 95h98q78 0 131.5 -53.5t53.5 -131.5v-778h-185v778h-245v-778h-185z" />
<glyph unicode="o" d="M102 184v594q0 39 14.5 73t40 58.5t59.5 39t71 14.5h245q78 0 131.5 -53.5t53.5 -131.5v-594q0 -37 -14.5 -70.5t-39 -59t-58.5 -40t-73 -14.5h-245q-76 0 -130.5 54.5t-54.5 129.5zM287 184h245v594h-245v-594z" />
<glyph unicode="p" d="M102 -307v1270h185v-95q33 94 147 95h98q76 0 130.5 -54.5t54.5 -130.5v-594q0 -76 -54.5 -130t-130.5 -54h-98q-115 0 -147 94v-401h-185zM287 184h245v594h-245v-594z" />
<glyph unicode="q" d="M102 184v594q0 76 54.5 130.5t130.5 54.5h98q115 0 147 -95v95h185v-1270h-185v401q-33 -94 -147 -94h-98q-76 0 -130.5 54.5t-54.5 129.5zM287 184h245v594h-245v-594z" />
<glyph unicode="r" horiz-adv-x="583" d="M102 0v963h185v-95q33 94 147 95h98v-185h-245v-778h-185z" />
<glyph unicode="s" d="M102 184v144h185v-144h245v144l-286 135q-143 68 -144 184v131q0 39 14.5 73t40 58.5t59.5 39t71 14.5h245q78 0 131.5 -53.5t53.5 -131.5v-143h-185v143h-245v-123l262 -123q168 -76 168 -188v-160q0 -37 -14.5 -70.5t-39 -59t-58.5 -40t-73 -14.5h-245 q-76 0 -130.5 54.5t-54.5 129.5z" />
<glyph unicode="t" horiz-adv-x="634" d="M31 778v185h184v286h184v-286h185v-185h-185v-594h185v-184h-185q-76 0 -130 54.5t-54 129.5v594h-184z" />
<glyph unicode="u" d="M102 184v779h185v-779h245v779h185v-963h-185v94q-33 -94 -147 -94h-98q-76 0 -130.5 54.5t-54.5 129.5z" />
<glyph unicode="v" horiz-adv-x="770" d="M25 963h196l164 -730l164 730h196l-241 -963h-238z" />
<glyph unicode="w" horiz-adv-x="1089" d="M25 963h196l123 -672l127 672h147l127 -672l123 672h197l-201 -963h-209l-110 557l-111 -557h-209z" />
<glyph unicode="x" horiz-adv-x="770" d="M25 0l237 475l-237 488h204l156 -363l154 363h206l-237 -488l237 -475h-206l-154 358l-156 -358h-204z" />
<glyph unicode="y" horiz-adv-x="770" d="M25 963h196l164 -689l164 689h196l-356 -1270h-196l94 307z" />
<glyph unicode="z" d="M102 0v184l377 594h-360v185h586v-185l-377 -594h389v-184h-615z" />
<glyph unicode="{" horiz-adv-x="528" d="M25 600v131h131v776q0 53 37.5 92t91.5 39h219v-131h-219v-735q0 -45 -21.5 -75.5t-54.5 -30.5q33 0 54.5 -32t21.5 -77v-735h219v-131h-219q-53 0 -91 39t-38 92v778h-131z" />
<glyph unicode="|" horiz-adv-x="286" d="M102 -410v2048h78v-2048h-78z" />
<glyph unicode="}" horiz-adv-x="528" d="M25 -178h219v735q0 45 21.5 77t53.5 32q-33 0 -54 30.5t-21 75.5v735h-219v131h219q53 0 91 -38.5t38 -92.5v-776h131v-131h-131v-778q0 -53 -38 -92t-91 -39h-219v131z" />
<glyph unicode="~" horiz-adv-x="686" d="M51 1157l154 154q23 23 57 22q31 0 57 -22l107 -105l121 121l88 -90l-152 -152q-25 -25 -57 -24q-35 0 -59 24l-105 103l-121 -119z" />
<glyph unicode="&#xa1;" horiz-adv-x="409" d="M82 1331q0 51 36 87t87 36t87 -36t36 -87t-36 -87t-87 -36t-87 36t-36 87zM102 0v1024h205v-1024h-205z" />
<glyph unicode="&#xa2;" d="M102 369v594q0 39 14.5 72.5t40 58t59.5 39t71 14.5h28v184h185v-184h32q78 0 131.5 -53.5t53.5 -130.5v-185h-185v185h-245v-594h245v184h185v-184q0 -37 -14.5 -71t-39 -59.5t-58.5 -40t-73 -14.5h-32v-184h-185v184h-28q-76 0 -130.5 54.5t-54.5 130.5z" />
<glyph unicode="&#xa3;" horiz-adv-x="958" d="M51 0v205h109v450h-103v205h103v369q0 86 59.5 145.5t145.5 59.5h204q86 0 145.5 -59.5t59.5 -145.5v-205h-205v205h-204v-369h204v-205h-204v-450h307v205h205v-205q0 -86 -59.5 -145.5t-145.5 -59.5h-621z" />
<glyph unicode="&#xa4;" horiz-adv-x="1075" d="M51 436v185h205v184h-205v184h205v240q0 86 59.5 145.5t145.5 59.5h307q86 0 145.5 -59.5t59.5 -145.5v-205h-205v205h-307v-240h205v-184h-205v-184h205v-185h-205v-231h307v205h205v-205q0 -86 -59.5 -145.5t-145.5 -59.5h-307q-86 0 -145.5 59.5t-59.5 145.5v231h-205 z" />
<glyph unicode="&#xa5;" horiz-adv-x="905" d="M43 1434h225l185 -656l184 656h225l-217 -617h209v-76h-236l-65 -188h301v-76h-301v-477h-205v477h-297v76h297l-65 188h-232v76h205z" />
<glyph unicode="&#xa7;" d="M102 647v131q0 127 117 172q-70 51 -69 168v131q0 39 14 73t39.5 58.5t59.5 39t71 14.5h151q78 0 131.5 -53.5t53.5 -131.5v-143h-185v143h-151v-141l215 -104q168 -82 168 -189v-160q0 -109 -99 -161q51 -39 52 -150v-160q0 -37 -14.5 -70.5t-39 -59t-58.5 -40 t-73 -14.5h-151q-76 0 -130 54.5t-54 129.5v144h184v-144h151v168l-239 111q-143 63 -144 184zM287 655l245 -112v256l-245 119v-263z" />
<glyph unicode="&#xa8;" horiz-adv-x="651" d="M102 1151q0 35 25 59.5t59 24.5q35 0 58.5 -24.5t23.5 -59.5q0 -33 -23.5 -57.5t-58.5 -24.5t-59.5 23.5t-24.5 58.5zM381 1151q0 35 24.5 59.5t59.5 24.5t59.5 -24.5t24.5 -59.5q0 -33 -24.5 -57.5t-59.5 -24.5t-59.5 23.5t-24.5 58.5z" />
<glyph unicode="&#xa9;" horiz-adv-x="1632" d="M82 717q0 305 215 520t518 215q305 0 520 -215t215 -520q0 -301 -215 -520q-215 -215 -520 -215q-303 0 -518 215t-215 520zM164 717q0 -270 190 -461q195 -190 461 -190q270 0 461 190q190 191 190 461t-190 461q-190 190 -461 190q-266 0 -461 -190 q-190 -190 -190 -461zM444 389v655q0 53 39 92.5t92 39.5h484q55 0 93 -39t38 -93v-131h-131v131h-484v-655h484v131h131v-131q0 -53 -38 -92t-93 -39h-484q-53 0 -92 39t-39 92z" />
<glyph unicode="&#xab;" horiz-adv-x="794" d="M51 506l256 256l90 -90l-166 -166l166 -166l-90 -90zM397 506l256 256l90 -90l-165 -166l165 -166l-90 -90z" />
<glyph unicode="&#xad;" horiz-adv-x="534" d="M51 369v184h432v-184h-432z" />
<glyph unicode="&#xae;" horiz-adv-x="897" d="M82 1083q0 154 106 260q109 109 261 109q150 0 258 -109q108 -108 108 -260t-108 -260q-106 -106 -258 -106q-154 0 -261 106q-106 106 -106 260zM152 1083q0 -121 86 -211q90 -86 211 -86q123 0 208 86q88 88 88 211q0 125 -88 211q-86 88 -208 88q-123 0 -211 -88 q-86 -86 -86 -211zM285 881v407h272q57 0 57 -57v-158q0 -59 -57 -59h-35l92 -133h-92l-94 133h-57v-133h-86zM371 1102h157v100h-157v-100z" />
<glyph unicode="&#xaf;" horiz-adv-x="614" d="M72 1212v127h477v-127h-477z" />
<glyph unicode="&#xb0;" horiz-adv-x="518" d="M51 1251q0 43 16.5 81t45 66.5t66.5 45t81 16.5t81 -16.5t65.5 -45t44 -66.5t16.5 -81t-16.5 -80.5t-44 -65.5t-65.5 -44.5t-81 -16.5t-81 16.5t-66.5 44.5t-45 65.5t-16.5 80.5zM150 1251q0 -45 32.5 -77.5t77.5 -32.5q47 0 79 32.5t32 77.5q0 47 -32 79t-79 32 q-45 0 -77.5 -32t-32.5 -79z" />
<glyph unicode="&#xb4;" horiz-adv-x="448" d="M49 1137l256 256l90 -90l-256 -256z" />
<glyph unicode="&#xb5;" d="M102 -307v1270h185v-779h245v779h185v-963h-185v94q-33 -94 -147 -94h-98v-307h-185z" />
<glyph unicode="&#xb6;" horiz-adv-x="894" d="M51 1087q0 141 103 244q102 102 245 103h445v-78h-160v-1665h-78v1665h-129v-1665h-78v1048q-143 0 -245 103q-102 102 -103 245z" />
<glyph unicode="&#xb7;" horiz-adv-x="409" d="M82 496q0 51 36 86.5t87 35.5t87 -35.5t36 -86.5t-36 -87t-87 -36t-87 35.5t-36 87.5z" />
<glyph unicode="&#xb8;" horiz-adv-x="462" d="M102 -236h177v82h-125v154h82v-72h124v-164q0 -33 -23.5 -57t-55.5 -24h-179v81z" />
<glyph unicode="&#xbb;" horiz-adv-x="794" d="M51 340l166 166l-166 166l90 90l256 -256l-256 -256zM397 340l166 166l-166 166l90 90l256 -256l-256 -256z" />
<glyph unicode="&#xbf;" horiz-adv-x="921" d="M115 205v172q0 98 100 198l236 236l-107 111l148 147l110 -106q53 -53 53 -138q0 -96 -61 -157l-275 -275v-188h308v205h204v-205q0 -86 -59 -145.5t-145 -59.5h-308q-86 0 -145 59.5t-59 145.5zM348 1331q0 51 36 87t87 36t87 -36t36 -87t-36 -87t-87 -36t-87 36t-36 87 z" />
<glyph unicode="&#xc0;" horiz-adv-x="960" d="M43 0l307 1434h258l307 -1434h-217l-41 205h-356l-41 -205h-217zM301 1739l90 90l256 -256l-90 -90zM342 410h274l-133 667z" />
<glyph unicode="&#xc1;" horiz-adv-x="960" d="M43 0l307 1434h258l307 -1434h-217l-41 205h-356l-41 -205h-217zM303 1573l256 256l90 -90l-256 -256zM342 410h274l-133 667z" />
<glyph unicode="&#xc2;" horiz-adv-x="960" d="M43 0l307 1434h258l307 -1434h-217l-41 205h-356l-41 -205h-217zM227 1612l256 256l256 -256l-90 -90l-166 166l-166 -166zM342 410h274l-133 667z" />
<glyph unicode="&#xc3;" horiz-adv-x="960" d="M43 0l307 1434h258l307 -1434h-217l-41 205h-356l-41 -205h-217zM190 1616l154 153q23 23 57 23q31 0 58 -23l106 -104l121 121l88 -90l-151 -152q-25 -25 -58 -24q-35 0 -59 24l-105 103l-120 -119zM342 410h274l-133 667z" />
<glyph unicode="&#xc4;" horiz-adv-x="960" d="M43 0l307 1434h258l307 -1434h-217l-41 205h-356l-41 -205h-217zM252 1571q0 35 24.5 59.5t59.5 24.5t58.5 -24.5t23.5 -59.5q0 -33 -23.5 -57.5t-58.5 -24.5t-59.5 23.5t-24.5 58.5zM342 410h274l-133 667zM530 1571q0 35 25 59.5t59 24.5q35 0 59.5 -24.5t24.5 -59.5 q0 -33 -24.5 -57.5t-59.5 -24.5t-59.5 23.5t-24.5 58.5z" />
<glyph unicode="&#xc5;" horiz-adv-x="960" d="M43 0l307 1434h258l307 -1434h-217l-41 205h-356l-41 -205h-217zM305 1638q0 70 50.5 119t119.5 49q70 0 120 -49t50 -119q0 -35 -13.5 -65.5t-36 -54t-53 -37t-67.5 -13.5q-70 0 -120 50.5t-50 119.5zM342 410h274l-133 667zM385 1638q0 -39 26.5 -65.5t63.5 -26.5 q39 0 65.5 26.5t26.5 65.5q0 37 -26.5 64t-65.5 27q-37 0 -63.5 -27t-26.5 -64z" />
<glyph unicode="&#xc6;" horiz-adv-x="1341" d="M0 0l629 1434h661v-205h-409v-369h307v-205h-307v-450h409v-205h-614v205h-357l-81 -205h-238zM401 410h275v667z" />
<glyph unicode="&#xc7;" horiz-adv-x="921" d="M102 205v1024q0 86 59.5 145.5t145.5 59.5h307q86 0 145.5 -59.5t59.5 -145.5v-205h-205v205h-307v-1024h307v205h205v-205q0 -86 -59.5 -145.5t-145.5 -59.5h-114v-72h125v-164q0 -33 -23.5 -57t-56.5 -24h-178v81h176v82h-125v154h-111q-86 0 -145.5 59.5t-59.5 145.5z " />
<glyph unicode="&#xc8;" horiz-adv-x="768" d="M102 0v1434h615v-205h-410v-369h307v-205h-307v-450h410v-205h-615zM242 1739l90 90l256 -256l-90 -90z" />
<glyph unicode="&#xc9;" horiz-adv-x="768" d="M102 0v1434h615v-205h-410v-369h307v-205h-307v-450h410v-205h-615zM244 1573l256 256l90 -90l-256 -256z" />
<glyph unicode="&#xca;" horiz-adv-x="768" d="M102 0v1434h615v-205h-410v-369h307v-205h-307v-450h410v-205h-615zM162 1612l256 256l256 -256l-90 -90l-166 166l-166 -166z" />
<glyph unicode="&#xcb;" horiz-adv-x="768" d="M102 0v1434h615v-205h-410v-369h307v-205h-307v-450h410v-205h-615zM188 1622q0 35 25 59.5t59 24.5q35 0 58.5 -24.5t23.5 -59.5q0 -33 -23.5 -57.5t-58.5 -24.5t-59.5 23.5t-24.5 58.5zM467 1622q0 35 24.5 59.5t59.5 24.5t59.5 -24.5t24.5 -59.5q0 -33 -24.5 -57.5 t-59.5 -24.5t-59.5 23.5t-24.5 58.5z" />
<glyph unicode="&#xcc;" horiz-adv-x="409" d="M33 1739l90 90l256 -256l-90 -90zM102 0v1434h205v-1434h-205z" />
<glyph unicode="&#xcd;" horiz-adv-x="409" d="M35 1573l256 256l90 -90l-256 -256zM102 0v1434h205v-1434h-205z" />
<glyph unicode="&#xce;" horiz-adv-x="409" d="M-51 1612l256 256l256 -256l-90 -90l-166 166l-166 -166zM102 0v1434h205v-1434h-205z" />
<glyph unicode="&#xcf;" horiz-adv-x="409" d="M-20 1622q0 35 24.5 59.5t58.5 24.5q35 0 58.5 -24.5t23.5 -59.5q0 -33 -23.5 -57.5t-58.5 -24.5t-59 23.5t-24 58.5zM102 0v1434h205v-1434h-205zM258 1622q0 35 24.5 59.5t59.5 24.5t59.5 -24.5t24.5 -59.5q0 -33 -24.5 -57.5t-59.5 -24.5t-59.5 23.5t-24.5 58.5z" />
<glyph unicode="&#xd0;" horiz-adv-x="866" d="M-33 657v127h135v650h512q86 0 145.5 -59.5t59.5 -145.5v-1024q0 -86 -59.5 -145.5t-145.5 -59.5h-512v657h-135zM307 205h307v1024h-307v-445h137v-127h-137v-452z" />
<glyph unicode="&#xd1;" horiz-adv-x="921" d="M102 0v1434h222l290 -844v844h205v-1434h-180l-332 938v-938h-205zM168 1616l154 153q23 23 57 23q31 0 57 -23l107 -104l121 121l88 -90l-152 -152q-25 -25 -57 -24q-35 0 -60 24l-104 103l-121 -119z" />
<glyph unicode="&#xd2;" horiz-adv-x="921" d="M102 205v1024q0 86 59.5 145.5t145.5 59.5h307q86 0 145.5 -59.5t59.5 -145.5v-1024q0 -86 -59.5 -145.5t-145.5 -59.5h-307q-86 0 -145.5 59.5t-59.5 145.5zM291 1739l90 90l256 -256l-90 -90zM307 205h307v1024h-307v-1024z" />
<glyph unicode="&#xd3;" horiz-adv-x="921" d="M102 205v1024q0 86 59.5 145.5t145.5 59.5h307q86 0 145.5 -59.5t59.5 -145.5v-1024q0 -86 -59.5 -145.5t-145.5 -59.5h-307q-86 0 -145.5 59.5t-59.5 145.5zM293 1573l256 256l90 -90l-256 -256zM307 205h307v1024h-307v-1024z" />
<glyph unicode="&#xd4;" horiz-adv-x="921" d="M102 205v1024q0 86 59.5 145.5t145.5 59.5h307q86 0 145.5 -59.5t59.5 -145.5v-1024q0 -86 -59.5 -145.5t-145.5 -59.5h-307q-86 0 -145.5 59.5t-59.5 145.5zM205 1612l256 256l256 -256l-90 -90l-166 166l-166 -166zM307 205h307v1024h-307v-1024z" />
<glyph unicode="&#xd5;" horiz-adv-x="921" d="M102 205v1024q0 86 59.5 145.5t145.5 59.5h307q86 0 145.5 -59.5t59.5 -145.5v-1024q0 -86 -59.5 -145.5t-145.5 -59.5h-307q-86 0 -145.5 59.5t-59.5 145.5zM168 1616l154 153q23 23 57 23q31 0 57 -23l107 -104l121 121l88 -90l-152 -152q-25 -25 -57 -24q-35 0 -60 24 l-104 103l-121 -119zM307 205h307v1024h-307v-1024z" />
<glyph unicode="&#xd6;" horiz-adv-x="921" d="M102 205v1024q0 86 59.5 145.5t145.5 59.5h307q86 0 145.5 -59.5t59.5 -145.5v-1024q0 -86 -59.5 -145.5t-145.5 -59.5h-307q-86 0 -145.5 59.5t-59.5 145.5zM238 1622q0 35 24.5 59.5t59.5 24.5t58 -24.5t23 -59.5q0 -33 -23.5 -57.5t-57.5 -24.5q-35 0 -59.5 23.5 t-24.5 58.5zM307 205h307v1024h-307v-1024zM516 1622q0 35 24.5 59.5t59.5 24.5t59.5 -24.5t24.5 -59.5q0 -33 -24.5 -57.5t-59.5 -24.5t-59.5 23.5t-24.5 58.5z" />
<glyph unicode="&#xd8;" horiz-adv-x="921" d="M70 -152l86 220q-53 59 -54 137v1024q0 86 59.5 145.5t145.5 59.5h307q37 0 80 -17l66 168h90l-84 -219q53 -59 53 -137v-1024q0 -86 -59.5 -145.5t-145.5 -59.5h-307q-37 0 -80 16l-67 -168h-90zM301 205h313v794zM307 434l311 795h-311v-795z" />
<glyph unicode="&#xd9;" horiz-adv-x="921" d="M102 205v1229h205v-1229h307v1229h205v-1229q0 -86 -59.5 -145.5t-145.5 -59.5h-307q-86 0 -145.5 59.5t-59.5 145.5zM291 1739l90 90l256 -256l-90 -90z" />
<glyph unicode="&#xda;" horiz-adv-x="921" d="M102 205v1229h205v-1229h307v1229h205v-1229q0 -86 -59.5 -145.5t-145.5 -59.5h-307q-86 0 -145.5 59.5t-59.5 145.5zM293 1573l256 256l90 -90l-256 -256z" />
<glyph unicode="&#xdb;" horiz-adv-x="921" d="M102 205v1229h205v-1229h307v1229h205v-1229q0 -86 -59.5 -145.5t-145.5 -59.5h-307q-86 0 -145.5 59.5t-59.5 145.5zM205 1612l256 256l256 -256l-90 -90l-166 166l-166 -166z" />
<glyph unicode="&#xdc;" horiz-adv-x="921" d="M102 205v1229h205v-1229h307v1229h205v-1229q0 -86 -59.5 -145.5t-145.5 -59.5h-307q-86 0 -145.5 59.5t-59.5 145.5zM238 1622q0 35 24.5 59.5t59.5 24.5t58 -24.5t23 -59.5q0 -33 -23.5 -57.5t-57.5 -24.5q-35 0 -59.5 23.5t-24.5 58.5zM516 1622q0 35 24.5 59.5 t59.5 24.5t59.5 -24.5t24.5 -59.5q0 -33 -24.5 -57.5t-59.5 -24.5t-59.5 23.5t-24.5 58.5z" />
<glyph unicode="&#xdd;" d="M0 1434h225l185 -656l184 656h225l-309 -881v-553h-205v553zM244 1573l256 256l90 -90l-256 -256z" />
<glyph unicode="&#xde;" horiz-adv-x="870" d="M102 0v1434h205v-283h307q86 0 145.5 -59.5t59.5 -145.5v-450q0 -43 -15.5 -80t-43 -64.5t-65.5 -44t-81 -16.5h-307v-291h-205zM307 496h307v450h-307v-450z" />
<glyph unicode="&#xdf;" horiz-adv-x="1075" d="M51 0v184h185v1065q0 39 14 73t39.5 58.5t59.5 39t71 14.5h242q78 0 131 -53.5t53 -131.5v-250q0 -76 -35 -130t-80 -54h57q78 0 131.5 -53t53.5 -131v-447q0 -37 -14.5 -70.5t-39 -59t-58.5 -40t-73 -14.5h-268v184h268v447h-268v184h142v434h-242v-1065 q0 -37 -14.5 -70.5t-39 -59t-58.5 -40t-72 -14.5h-185z" />
<glyph unicode="&#xe0;" d="M82 184v226q0 86 53 135t131 49h125q98 0 121 -78v262h-338v185h338q78 0 131 -53.5t53 -131.5v-778h-184v78q-66 -78 -121 -78h-121q-37 0 -71.5 14.5t-60 40t-41 59t-15.5 70.5zM221 1303l90 90l256 -256l-90 -90zM268 184h244v226h-244v-226z" />
<glyph unicode="&#xe1;" d="M82 184v226q0 86 53 135t131 49h125q98 0 121 -78v262h-338v185h338q78 0 131 -53.5t53 -131.5v-778h-184v78q-66 -78 -121 -78h-121q-37 0 -71.5 14.5t-60 40t-41 59t-15.5 70.5zM223 1137l256 256l90 -90l-256 -256zM268 184h244v226h-244v-226z" />
<glyph unicode="&#xe2;" d="M82 184v226q0 86 53 135t131 49h125q98 0 121 -78v262h-338v185h338q78 0 131 -53.5t53 -131.5v-778h-184v78q-66 -78 -121 -78h-121q-37 0 -71.5 14.5t-60 40t-41 59t-15.5 70.5zM133 1137l256 256l256 -256l-90 -90l-166 165l-166 -165zM268 184h244v226h-244v-226z " />
<glyph unicode="&#xe3;" d="M82 184v226q0 86 53 135t131 49h125q98 0 121 -78v262h-338v185h338q78 0 131 -53.5t53 -131.5v-778h-184v78q-66 -78 -121 -78h-121q-37 0 -71.5 14.5t-60 40t-41 59t-15.5 70.5zM98 1157l154 154q23 23 57 22q31 0 58 -22l106 -105l121 121l88 -90l-152 -152 q-25 -25 -57 -24q-35 0 -59 24l-105 103l-121 -119zM268 184h244v226h-244v-226z" />
<glyph unicode="&#xe4;" d="M82 184v226q0 86 53 135t131 49h125q98 0 121 -78v262h-338v185h338q78 0 131 -53.5t53 -131.5v-778h-184v78q-66 -78 -121 -78h-121q-37 0 -71.5 14.5t-60 40t-41 59t-15.5 70.5zM166 1151q0 35 24.5 59.5t59.5 24.5t58.5 -24.5t23.5 -59.5q0 -33 -23.5 -57.5 t-58.5 -24.5t-59.5 23.5t-24.5 58.5zM268 184h244v226h-244v-226zM444 1151q0 35 25 59.5t59 24.5q35 0 59.5 -24.5t24.5 -59.5q0 -33 -24.5 -57.5t-59.5 -24.5t-59.5 23.5t-24.5 58.5z" />
<glyph unicode="&#xe5;" d="M82 184v226q0 86 53 135t131 49h125q98 0 121 -78v262h-338v185h338q78 0 131 -53.5t53 -131.5v-778h-184v78q-66 -78 -121 -78h-121q-37 0 -71.5 14.5t-60 40t-41 59t-15.5 70.5zM223 1202q0 70 50.5 119t119.5 49q70 0 120 -49t50 -119q0 -35 -13 -65.5t-35.5 -54 t-53.5 -37t-68 -13.5q-70 0 -120 50.5t-50 119.5zM268 184h244v226h-244v-226zM303 1202q0 -39 26.5 -65.5t63.5 -26.5q39 0 65.5 26.5t26.5 65.5q0 37 -26.5 63.5t-65.5 26.5q-37 0 -63.5 -26.5t-26.5 -63.5z" />
<glyph unicode="&#xe6;" horiz-adv-x="1249" d="M82 184v226q0 86 53 135t131 49h125q98 0 121 -78v262h-338v185h307q123 0 123 -99q0 98 125 99h213q78 0 131 -53.5t53 -131.5v-409h-430v-185h340v-184h-307q-125 0 -125 98q0 -98 -123 -98h-211q-37 0 -71.5 14.5t-60 40t-41 59t-15.5 70.5zM268 184h244v226h-244 v-226zM696 553h246v225h-246v-225z" />
<glyph unicode="&#xe7;" d="M102 184v594q0 39 14.5 73t40 58.5t59.5 39t71 14.5h245q78 0 131.5 -53.5t53.5 -131.5v-184h-185v184h-245v-594h245v185h185v-185q0 -37 -14.5 -70.5t-39 -59t-58.5 -40t-73 -14.5h-83v-72h124v-164q0 -33 -23.5 -57t-55.5 -24h-179v81h177v82h-125v154h-80 q-76 0 -130.5 54.5t-54.5 129.5z" />
<glyph unicode="&#xe8;" d="M102 184v594q0 39 14.5 73t40 58.5t59.5 39t71 14.5h245q78 0 131.5 -53.5t53.5 -131.5v-409h-430v-185h340v-184h-340q-76 0 -130.5 54.5t-54.5 129.5zM242 1303l90 90l256 -256l-90 -90zM287 553h245v225h-245v-225z" />
<glyph unicode="&#xe9;" d="M102 184v594q0 39 14.5 73t40 58.5t59.5 39t71 14.5h245q78 0 131.5 -53.5t53.5 -131.5v-409h-430v-185h340v-184h-340q-76 0 -130.5 54.5t-54.5 129.5zM244 1137l256 256l90 -90l-256 -256zM287 553h245v225h-245v-225z" />
<glyph unicode="&#xea;" d="M102 184v594q0 39 14.5 73t40 58.5t59.5 39t71 14.5h245q78 0 131.5 -53.5t53.5 -131.5v-409h-430v-185h340v-184h-340q-76 0 -130.5 54.5t-54.5 129.5zM154 1137l256 256l256 -256l-91 -90l-165 165l-166 -165zM287 553h245v225h-245v-225z" />
<glyph unicode="&#xeb;" d="M102 184v594q0 39 14.5 73t40 58.5t59.5 39t71 14.5h245q78 0 131.5 -53.5t53.5 -131.5v-409h-430v-185h340v-184h-340q-76 0 -130.5 54.5t-54.5 129.5zM186 1151q0 35 25 59.5t59 24.5q35 0 58.5 -24.5t23.5 -59.5q0 -33 -23.5 -57.5t-58.5 -24.5t-59.5 23.5t-24.5 58.5 zM287 553h245v225h-245v-225zM465 1151q0 35 24.5 59.5t59.5 24.5t59.5 -24.5t24.5 -59.5q0 -33 -24.5 -57.5t-59.5 -24.5t-59.5 23.5t-24.5 58.5z" />
<glyph unicode="&#xec;" horiz-adv-x="389" d="M20 1303l91 90l256 -256l-91 -90zM102 0v963h185v-963h-185z" />
<glyph unicode="&#xed;" horiz-adv-x="389" d="M23 1137l256 256l90 -90l-256 -256zM102 0v963h185v-963h-185z" />
<glyph unicode="&#xee;" horiz-adv-x="389" d="M-61 1137l256 256l256 -256l-91 -90l-165 165l-166 -165zM102 0v963h185v-963h-185z" />
<glyph unicode="&#xef;" horiz-adv-x="389" d="M-29 1151q0 35 24.5 59.5t59.5 24.5t58.5 -24.5t23.5 -59.5q0 -33 -23.5 -57.5t-58.5 -24.5t-59.5 23.5t-24.5 58.5zM102 0v963h185v-963h-185zM250 1151q0 35 24.5 59.5t59.5 24.5t59.5 -24.5t24.5 -59.5q0 -33 -24.5 -57.5t-59.5 -24.5t-59.5 23.5t-24.5 58.5z" />
<glyph unicode="&#xf0;" horiz-adv-x="774" d="M102 184v594q0 39 14.5 73t40 58.5t59.5 39t71 14.5h98q115 0 147 -95v238h-147v127h147v201h185v-201h145v-127h-145v-1106h-185v94q-33 -94 -147 -94h-98q-76 0 -130.5 54.5t-54.5 129.5zM287 184h245v594h-245v-594z" />
<glyph unicode="&#xf1;" d="M102 0v963h185v-95q33 94 147 95h98q78 0 131.5 -53.5t53.5 -131.5v-778h-185v778h-245v-778h-185zM119 1157l153 154q23 23 58 22q31 0 57 -22l107 -105l120 121l88 -90l-151 -152q-25 -25 -57 -24q-35 0 -60 24l-104 103l-121 -119z" />
<glyph unicode="&#xf2;" d="M102 184v594q0 39 14.5 73t40 58.5t59.5 39t71 14.5h245q78 0 131.5 -53.5t53.5 -131.5v-594q0 -37 -14.5 -70.5t-39 -59t-58.5 -40t-73 -14.5h-245q-76 0 -130.5 54.5t-54.5 129.5zM242 1303l90 90l256 -256l-90 -90zM287 184h245v594h-245v-594z" />
<glyph unicode="&#xf3;" d="M102 184v594q0 39 14.5 73t40 58.5t59.5 39t71 14.5h245q78 0 131.5 -53.5t53.5 -131.5v-594q0 -37 -14.5 -70.5t-39 -59t-58.5 -40t-73 -14.5h-245q-76 0 -130.5 54.5t-54.5 129.5zM244 1137l256 256l90 -90l-256 -256zM287 184h245v594h-245v-594z" />
<glyph unicode="&#xf4;" d="M102 184v594q0 39 14.5 73t40 58.5t59.5 39t71 14.5h245q78 0 131.5 -53.5t53.5 -131.5v-594q0 -37 -14.5 -70.5t-39 -59t-58.5 -40t-73 -14.5h-245q-76 0 -130.5 54.5t-54.5 129.5zM154 1137l256 256l256 -256l-91 -90l-165 165l-166 -165zM287 184h245v594h-245v-594z " />
<glyph unicode="&#xf5;" d="M102 184v594q0 39 14.5 73t40 58.5t59.5 39t71 14.5h245q78 0 131.5 -53.5t53.5 -131.5v-594q0 -37 -14.5 -70.5t-39 -59t-58.5 -40t-73 -14.5h-245q-76 0 -130.5 54.5t-54.5 129.5zM119 1157l153 154q23 23 58 22q31 0 57 -22l107 -105l120 121l88 -90l-151 -152 q-25 -25 -57 -24q-35 0 -60 24l-104 103l-121 -119zM287 184h245v594h-245v-594z" />
<glyph unicode="&#xf6;" d="M102 184v594q0 39 14.5 73t40 58.5t59.5 39t71 14.5h245q78 0 131.5 -53.5t53.5 -131.5v-594q0 -37 -14.5 -70.5t-39 -59t-58.5 -40t-73 -14.5h-245q-76 0 -130.5 54.5t-54.5 129.5zM186 1151q0 35 25 59.5t59 24.5q35 0 58.5 -24.5t23.5 -59.5q0 -33 -23.5 -57.5 t-58.5 -24.5t-59.5 23.5t-24.5 58.5zM287 184h245v594h-245v-594zM465 1151q0 35 24.5 59.5t59.5 24.5t59.5 -24.5t24.5 -59.5q0 -33 -24.5 -57.5t-59.5 -24.5t-59.5 23.5t-24.5 58.5z" />
<glyph unicode="&#xf8;" d="M31 -109l106 187q-35 47 -35 106v594q0 76 54.5 130.5t130.5 54.5h245q49 0 95 -25l75 133h89l-107 -186q33 -47 33 -107v-594q0 -76 -54.5 -130t-130.5 -54h-245q-45 0 -94 25l-74 -134h-88zM285 184h247v445zM287 334l250 444h-250v-444z" />
<glyph unicode="&#xf9;" d="M102 184v779h185v-779h245v779h185v-963h-185v94q-33 -94 -147 -94h-98q-76 0 -130.5 54.5t-54.5 129.5zM242 1303l90 90l256 -256l-90 -90z" />
<glyph unicode="&#xfa;" d="M102 184v779h185v-779h245v779h185v-963h-185v94q-33 -94 -147 -94h-98q-76 0 -130.5 54.5t-54.5 129.5zM244 1137l256 256l90 -90l-256 -256z" />
<glyph unicode="&#xfb;" d="M102 184v779h185v-779h245v779h185v-963h-185v94q-33 -94 -147 -94h-98q-76 0 -130.5 54.5t-54.5 129.5zM154 1137l256 256l256 -256l-91 -90l-165 165l-166 -165z" />
<glyph unicode="&#xfc;" d="M102 184v779h185v-779h245v779h185v-963h-185v94q-33 -94 -147 -94h-98q-76 0 -130.5 54.5t-54.5 129.5zM186 1151q0 35 25 59.5t59 24.5q35 0 58.5 -24.5t23.5 -59.5q0 -33 -23.5 -57.5t-58.5 -24.5t-59.5 23.5t-24.5 58.5zM465 1151q0 35 24.5 59.5t59.5 24.5 t59.5 -24.5t24.5 -59.5q0 -33 -24.5 -57.5t-59.5 -24.5t-59.5 23.5t-24.5 58.5z" />
<glyph unicode="&#xfd;" horiz-adv-x="770" d="M25 963h196l164 -689l164 689h196l-356 -1270h-196l94 307zM213 1137l256 256l90 -90l-256 -256z" />
<glyph unicode="&#xfe;" d="M102 -307v1741h185v-566q33 94 147 95h98q76 0 130.5 -54.5t54.5 -130.5v-594q0 -76 -54.5 -130t-130.5 -54h-98q-115 0 -147 94v-401h-185zM287 184h245v594h-245v-594z" />
<glyph unicode="&#xff;" horiz-adv-x="770" d="M25 963h196l164 -689l164 689h196l-356 -1270h-196l94 307zM162 1151q0 35 24.5 59.5t59.5 24.5t58.5 -24.5t23.5 -59.5q0 -33 -23.5 -57.5t-58.5 -24.5t-59.5 23.5t-24.5 58.5zM440 1151q0 35 24.5 59.5t59.5 24.5t59.5 -24.5t24.5 -59.5q0 -33 -24.5 -57.5t-59.5 -24.5 t-59.5 23.5t-24.5 58.5z" />
<glyph unicode="&#x152;" horiz-adv-x="1280" d="M102 205v1024q0 86 59.5 145.5t145.5 59.5h283q51 0 88 -33t37 -78v111h514v-205h-410v-369h307v-205h-307v-450h410v-205h-514v111q0 -45 -37 -78t-88 -33h-283q-86 0 -145.5 59.5t-59.5 145.5zM307 205h307v1024h-307v-1024z" />
<glyph unicode="&#x153;" horiz-adv-x="1249" d="M102 184v594q0 39 14.5 73t40 58.5t59.5 39t71 14.5h215q123 0 123 -99q0 98 125 99h213q78 0 131 -53.5t53 -131.5v-409h-430v-185h340v-184h-307q-125 0 -125 98q0 -98 -123 -98h-215q-76 0 -130.5 54.5t-54.5 129.5zM287 184h245v594h-245v-594zM717 553h246v225h-246 v-225z" />
<glyph unicode="&#x178;" d="M0 1434h225l185 -656l184 656h225l-309 -881v-553h-205v553zM186 1622q0 35 25 59.5t59 24.5q35 0 58.5 -24.5t23.5 -59.5q0 -33 -23.5 -57.5t-58.5 -24.5t-59.5 23.5t-24.5 58.5zM465 1622q0 35 24.5 59.5t59.5 24.5t59.5 -24.5t24.5 -59.5q0 -33 -24.5 -57.5 t-59.5 -24.5t-59.5 23.5t-24.5 58.5z" />
<glyph unicode="&#x2c6;" horiz-adv-x="614" d="M51 1137l256 256l256 -256l-90 -90l-166 165l-166 -165z" />
<glyph unicode="&#x2dc;" horiz-adv-x="686" d="M51 1157l154 154q23 23 57 22q31 0 57 -22l107 -105l121 121l88 -90l-152 -152q-25 -25 -57 -24q-35 0 -59 24l-105 103l-121 -119z" />
<glyph unicode="&#x2000;" horiz-adv-x="934" />
<glyph unicode="&#x2001;" horiz-adv-x="1868" />
<glyph unicode="&#x2002;" horiz-adv-x="934" />
<glyph unicode="&#x2003;" horiz-adv-x="1868" />
<glyph unicode="&#x2004;" horiz-adv-x="622" />
<glyph unicode="&#x2005;" horiz-adv-x="467" />
<glyph unicode="&#x2006;" horiz-adv-x="311" />
<glyph unicode="&#x2007;" horiz-adv-x="311" />
<glyph unicode="&#x2008;" horiz-adv-x="233" />
<glyph unicode="&#x2009;" horiz-adv-x="373" />
<glyph unicode="&#x200a;" horiz-adv-x="103" />
<glyph unicode="&#x2010;" horiz-adv-x="534" d="M51 369v184h432v-184h-432z" />
<glyph unicode="&#x2011;" horiz-adv-x="534" d="M51 369v184h432v-184h-432z" />
<glyph unicode="&#x2012;" horiz-adv-x="534" d="M51 369v184h432v-184h-432z" />
<glyph unicode="&#x2013;" horiz-adv-x="921" d="M51 369v184h819v-184h-819z" />
<glyph unicode="&#x2014;" horiz-adv-x="1339" d="M51 369v184h1237v-184h-1237z" />
<glyph unicode="&#x2018;" horiz-adv-x="409" d="M66 1124q0 20 16 58l115 250h98l-62 -197q74 -27 78 -111q0 -51 -35.5 -87t-87.5 -36q-51 0 -88 36t-34 87z" />
<glyph unicode="&#x2019;" horiz-adv-x="409" d="M82 1331q0 51 36 87t87 36t88 -36t35 -87q0 -20 -17 -57l-114 -250h-99l62 197q-74 27 -78 110z" />
<glyph unicode="&#x201a;" horiz-adv-x="409" d="M82 102q0 51 36 87t87 36t88 -36t35 -87q0 -20 -17 -57l-114 -250h-99l62 197q-74 27 -78 110z" />
<glyph unicode="&#x201c;" horiz-adv-x="718" d="M66 1124q0 20 16 58l115 250h98l-62 -197q74 -27 78 -111q0 -51 -35.5 -87t-87.5 -36q-51 0 -88 36t-34 87zM391 1124q0 20 17 58l114 250h99l-62 -197q74 -27 78 -111q0 -51 -36 -87t-87 -36t-88 36t-35 87z" />
<glyph unicode="&#x201d;" horiz-adv-x="718" d="M82 1331q0 51 36 87t87 36t88 -36t35 -87q0 -20 -17 -57l-114 -250h-99l62 197q-74 27 -78 110zM397 1331q0 51 36 87t87 36t88 -36t35 -87q0 -20 -16 -57l-115 -250h-98l61 197q-74 27 -78 110z" />
<glyph unicode="&#x201e;" horiz-adv-x="718" d="M82 102q0 51 36 87t87 36t88 -36t35 -87q0 -20 -17 -57l-114 -250h-99l62 197q-74 27 -78 110zM397 102q0 51 36 87t87 36t88 -36t35 -87q0 -20 -16 -57l-115 -250h-98l61 197q-74 27 -78 110z" />
<glyph unicode="&#x2022;" horiz-adv-x="804" d="M82 655q0 133 92 228q94 94 227 94t228 -94q94 -95 94 -228t-94 -227t-228 -94q-133 0 -227 94q-92 96 -92 227z" />
<glyph unicode="&#x2026;" horiz-adv-x="1228" d="M82 102q0 51 36 87t87 36t87 -36t36 -87t-36 -86.5t-87 -35.5t-87 35.5t-36 86.5zM492 102q0 51 35.5 87t86.5 36t87 -36t36 -87t-35.5 -86.5t-87.5 -35.5q-51 0 -86.5 35.5t-35.5 86.5zM901 102q0 51 36 87t87 36t87 -36t36 -87t-36 -86.5t-87 -35.5t-87 35.5t-36 86.5z " />
<glyph unicode="&#x202f;" horiz-adv-x="373" />
<glyph unicode="&#x2039;" horiz-adv-x="448" d="M51 506l256 256l90 -90l-166 -166l166 -166l-90 -90z" />
<glyph unicode="&#x203a;" horiz-adv-x="448" d="M51 340l166 166l-166 166l90 90l256 -256l-256 -256z" />
<glyph unicode="&#x205f;" horiz-adv-x="467" />
<glyph unicode="&#x20ac;" horiz-adv-x="1075" d="M51 436v185h205v184h-205v184h205v240q0 86 59.5 145.5t145.5 59.5h307q86 0 145.5 -59.5t59.5 -145.5v-205h-205v205h-307v-240h205v-184h-205v-184h205v-185h-205v-231h307v205h205v-205q0 -86 -59.5 -145.5t-145.5 -59.5h-307q-86 0 -145.5 59.5t-59.5 145.5v231h-205 z" />
<glyph unicode="&#x2122;" horiz-adv-x="907" d="M51 1352v82h287v-82h-102v-492h-82v492h-103zM420 860v574h104l88 -338l88 338h105v-574h-82v365l-98 -365h-25l-98 365v-365h-82z" />
<glyph unicode="&#x25fc;" horiz-adv-x="962" d="M0 0v963h963v-963h-963z" />
<glyph unicode="&#xfb01;" horiz-adv-x="1024" d="M31 778v185h184v286q0 39 14.5 73t40 58.5t59 39t70.5 14.5h185v-185h-185v-286l521 2l2 -2v-963h-185l-2 780l-336 -2v-778h-184v778h-184zM709 1323q0 51 35.5 87t86.5 36t87 -36t36 -87t-35.5 -87t-87.5 -36q-51 0 -86.5 36t-35.5 87z" />
<glyph unicode="&#xfb02;" horiz-adv-x="1021" d="M31 778v185h184v286q0 39 14.5 73t40 58.5t59 39t70.5 14.5l521 -2l2 2l-2 -1434h-185v1247l-336 2v-286h185v-185h-185v-778h-184v778h-184z" />
</font>
</defs>
</svg>
