<?xml version="1.0" standalone="no"?>
<!DOCTYPE svg PUBLIC "-//W3C//DTD SVG 1.1//EN" "http://www.w3.org/Graphics/SVG/1.1/DTD/svg11.dtd" >
<svg xmlns="http://www.w3.org/2000/svg">
<metadata></metadata>
<defs>
<font id="handelgothicefregular" horiz-adv-x="1024" >
<font-face units-per-em="2048" ascent="1638" descent="-410" />
<missing-glyph horiz-adv-x="512" />
<glyph horiz-adv-x="2048" />
<glyph horiz-adv-x="2048" />
<glyph horiz-adv-x="682" />
<glyph d="M217 1358q10 -129 89 -189.5t202 -60.5q127 0 205 60.5t94 189.5h-105q-23 -74 -66.5 -101.5t-117.5 -27.5q-72 0 -126 26.5t-70 102.5h-105z" />
<glyph d="M406 1108h212v217h-212v-217z" />
<glyph d="M305 1313q0 -43 16.5 -81t45 -65.5t65.5 -43t80 -15.5t80 15.5t65.5 43t45 65.5t16.5 81t-16.5 81t-44 65.5t-65.5 44t-81 16.5t-81 -16.5t-65.5 -44t-44 -65.5t-16.5 -81zM414 1313q0 41 28.5 69.5t69.5 28.5t69.5 -28.5t28.5 -69.5t-28.5 -68.5t-69.5 -27.5t-69.5 27.5 t-28.5 68.5z" />
<glyph unicode="&#xa;" d="M242 1108h127l233 227h-217zM541 1108h127l235 227h-219z" />
<glyph d="M641 -186q0 -59 23.5 -96t61.5 -58.5t85 -29t96 -7.5h45t45 4v117q-31 0 -66.5 -2t-64 5t-48 28.5t-19.5 68.5t18.5 88t59.5 68h-168q-35 -39 -51.5 -87t-16.5 -99z" />
<glyph d="M199 1368l209 -260h208l209 260h-178l-135 -166l-127 166h-186z" />
<glyph unicode="&#xd;" />
<glyph horiz-adv-x="325" d="M-324 -8h195l766 1382h-195z" />
<glyph horiz-adv-x="1282" d="M37 784h180v-784h275v784h380v-784h275v997h-655v45q0 51 19 75t51 32t70 6t75 -2v213h-199q-160 0 -225.5 -78t-65.5 -231v-60h-180v-213zM872 1100h275v266h-275v-266z" />
<glyph horiz-adv-x="1282" d="M37 784h180v-784h275v784h215v213h-215v45q0 51 19 75t51 32t70 6t75 -2v213h-199q-160 0 -225.5 -78t-65.5 -231v-60h-180v-213zM872 0h275v1366h-275v-1366z" />
<glyph horiz-adv-x="1091" d="M2 586l123 57v-86t3 -95t10 -94t20 -83q35 -102 108.5 -168t177.5 -94q76 -20 154 -21.5t156 -1.5h307v244h-279h-77q-39 0 -79 5t-77 17.5t-66 36.5q-27 20 -41 45q-12 20 -17 53t-7 70t-2 72v57v150l213 98v235l-213 -102v385h-291v-496l-123 -59v-225z" />
<glyph horiz-adv-x="544" d="M6 461l129 86v-547h275v707l129 88v256l-129 -88v403h-275v-563l-129 -86v-256z" />
<glyph horiz-adv-x="1339" d="M76 0h1188v244h-832l832 870v252h-1188v-244h862l-862 -884v-238zM346 1706l215 -238h217l213 238h-203l-120 -141l-125 141h-197z" />
<glyph horiz-adv-x="1079" d="M63 0h941v213h-576l576 578v206h-941v-213h576l-576 -577v-207zM227 1366l207 -258h209l209 258h-178l-135 -164l-125 164h-187z" />
<glyph unicode=" "  horiz-adv-x="512" />
<glyph unicode="&#x09;" horiz-adv-x="512" />
<glyph unicode="&#xa0;" horiz-adv-x="512" />
<glyph unicode="!" horiz-adv-x="561" d="M135 0h291v231h-291v-231zM135 334h291v1032h-291v-1032z" />
<glyph unicode="&#x22;" horiz-adv-x="845" d="M84 1366l49 -549h195l51 549h-295zM467 1366l49 -549h197l49 549h-295z" />
<glyph unicode="#" horiz-adv-x="1228" d="M12 373h209l-61 -373h270l59 373h175l-62 -373h275l59 373h209l35 239h-207l26 170h205l37 238h-205l56 346h-273l-55 -346h-174l57 346h-270l-55 -346h-207l-37 -238h207l-29 -170h-207zM526 612l27 170h174l-27 -170h-174z" />
<glyph unicode="$" horiz-adv-x="1474" d="M96 961q0 -53 14.5 -107.5t41 -101.5t66.5 -84t91 -58q84 -35 171 -36t175 -1v-329h-493v-244h493v-201h166v201q63 0 128 -1t126.5 9t116.5 38t98 85q45 59 66.5 128.5t21.5 141.5q0 53 -10 106.5t-31.5 102.5t-56.5 89t-86 65q-86 43 -182.5 47t-190.5 4v307h482v244 h-482v197h-166v-197q-31 0 -62.5 -1t-62.5 -1q-47 0 -87 -2t-76.5 -9t-70.5 -24.5t-69 -50.5q-66 -59 -98.5 -144t-32.5 -173zM416 971q0 53 18.5 83.5t49 46t71.5 18.5t84 3h16v-307q-41 0 -84 4t-77.5 20.5t-56 47.5t-21.5 84zM821 244v329q51 -2 98.5 -9t86.5 -44 q49 -49 49 -117q0 -53 -31 -95t-82 -54q-29 -8 -60.5 -9t-60.5 -1z" />
<glyph unicode="%" horiz-adv-x="1808" d="M80 1024q0 -92 26.5 -157.5t75.5 -106.5t120 -59.5t159 -18.5q174 0 261 84t87 260q0 184 -94 265t-273 81q-180 0 -271 -82t-91 -266zM283 1034q0 78 34.5 134.5t122.5 56.5q92 0 130 -53.5t38 -139.5q0 -41 -6 -77.5t-23.5 -64.5t-48 -44.5t-77.5 -16.5 q-102 0 -136 55.5t-34 149.5zM537 0h174l553 1366h-174zM999 336q0 -184 101.5 -264t277.5 -80t262 84t86 262q0 184 -94 264t-272 80q-180 0 -270.5 -81t-90.5 -265zM1200 344q0 80 34 135.5t124 55.5q92 0 130 -53.5t38 -139.5q0 -41 -6.5 -77t-23.5 -63.5t-47 -44 t-77 -16.5q-51 0 -84 14.5t-52 40t-27.5 63.5t-8.5 85z" />
<glyph unicode="&#x26;" horiz-adv-x="1538" d="M72 1004q0 -115 49 -190t143 -134q-90 -35 -131 -113t-41 -170q0 -104 41 -192t131 -144q76 -47 163 -58t173 -11q160 0 274.5 34.5t197.5 105.5t142.5 177.5t106.5 251.5h188v244h-694v-244h199q-37 -160 -123 -241.5t-256 -81.5q-45 0 -85 7t-70.5 26.5t-49 52 t-18.5 84.5q0 61 22.5 92.5t59 45t82 14.5t92.5 1v244h-101q-72 0 -116.5 46t-44.5 118q0 92 56 122.5t138 30.5h389v244h-457q-66 0 -142.5 -6t-135.5 -35q-43 -23 -78 -57.5t-57.5 -77.5t-34.5 -91t-12 -95z" />
<glyph unicode="'" horiz-adv-x="460" d="M84 1366l49 -549h195l51 549h-295z" />
<glyph unicode="(" horiz-adv-x="870" d="M90 485q0 -102 12.5 -208.5t46 -207t92 -186.5t150.5 -145q94 -61 197.5 -83t214.5 -30v228q-86 8 -159 31.5t-132 90.5q-41 47 -66.5 107.5t-40 126t-18.5 132.5t-4 128q0 117 11.5 234.5t54.5 214t125.5 159t228.5 68.5v229q-53 -4 -107.5 -8t-107.5 -18 q-100 -25 -183 -84.5t-145 -141.5q-49 -66 -82 -143.5t-52.5 -160.5t-27.5 -168t-8 -165z" />
<glyph unicode=")" horiz-adv-x="870" d="M68 -147v-228q63 4 122.5 12.5t120.5 24.5q141 39 232.5 124t144.5 196.5t73.5 241.5t20.5 261q0 106 -14 215t-49 210.5t-93.5 189.5t-148.5 155q-51 37 -98 59.5t-96.5 35t-101.5 16.5t-113 8v-229q143 -6 227 -68.5t127 -158t54 -213t11 -234.5q0 -59 -4 -127 t-18 -134.5t-39 -126.5t-68 -108q-59 -68 -130.5 -91t-159.5 -31z" />
<glyph unicode="*" horiz-adv-x="1169" d="M313 1118l160 -47l-94 -131l113 -82l92 135l94 -135l113 82l-97 131l160 47l-49 131l-156 -51l4 168h-139l6 -168l-155 51z" />
<glyph unicode="+" d="M68 573h311v-313h266v313h311v246h-311v314h-266v-314h-311v-246z" />
<glyph unicode="," horiz-adv-x="479" d="M90 -281h125l158 310v237h-248v-266h90z" />
<glyph unicode="-" horiz-adv-x="477" d="M0 406h477v245h-477v-245z" />
<glyph unicode="." horiz-adv-x="458" d="M104 0h250v266h-250v-266z" />
<glyph unicode="/" horiz-adv-x="1091" d="M25 0h256l788 1366h-256z" />
<glyph unicode="0" horiz-adv-x="1474" d="M63 678q0 -352 178.5 -519t526.5 -167q172 0 294 46t199.5 134t113.5 216t36 294q0 350 -164 520t-516 170q-176 0 -303 -44t-208 -131t-119 -217t-38 -302zM383 696q0 86 16.5 167t55.5 143.5t104.5 99.5t165.5 37q104 0 175 -35t114 -95.5t60.5 -142.5t17.5 -176 q0 -47 -4.5 -100t-15.5 -104.5t-32.5 -98.5t-54.5 -84q-49 -53 -103.5 -69.5t-125.5 -16.5q-92 0 -156.5 21.5t-107.5 65.5t-66 109.5t-33 153.5q-4 31 -7 63t-3 62z" />
<glyph unicode="1" horiz-adv-x="1474" d="M592 0h291v1366h-291v-1366z" />
<glyph unicode="2" horiz-adv-x="1474" d="M143 0h1182v242h-893q0 29 -1 71.5t3 85.5t19.5 80t48.5 53q39 20 94 23.5t98 3.5q63 0 147.5 -2t168.5 7t157.5 38t116.5 90q41 55 58.5 131t17.5 144q0 53 -11.5 107t-36 102.5t-62.5 86t-89 60.5q-66 29 -144.5 36t-150.5 7h-702v-244h643q43 0 85 -6t74.5 -24.5 t53 -51t20.5 -84.5q0 -49 -21.5 -78.5t-55 -46t-75.5 -22.5t-81 -6h-223q-57 0 -113.5 -1t-110.5 -24q-66 -27 -107.5 -70.5t-66 -99t-34 -119t-9.5 -127.5v-362z" />
<glyph unicode="3" horiz-adv-x="1474" d="M176 0h627q51 0 100 2t101 12q135 27 214.5 118t79.5 230q0 111 -45 191t-137 139q86 51 134 123t48 174q0 90 -44 178t-119 140q-33 20 -65 31.5t-63.5 16.5t-66.5 6t-72 3q-14 0 -27.5 1t-27.5 1h-637v-244h586q47 0 95 -4t83 -43q18 -23 27.5 -53.5t9.5 -58.5 q0 -55 -17.5 -85t-47 -45.5t-68.5 -18.5t-82 -3h-457v-242h457q18 0 41.5 -1t47 -5t45.5 -12t36 -23q25 -25 36 -57.5t11 -67.5q0 -53 -17.5 -84.5t-46 -49t-68.5 -22.5t-85 -5h-586v-242z" />
<glyph unicode="4" horiz-adv-x="1474" d="M76 238h864v-238h289v238h180v241h-180v887h-381l-772 -840v-288zM401 479l539 584v-584h-539z" />
<glyph unicode="5" horiz-adv-x="1474" d="M162 0h598q57 0 118.5 2t122 12.5t117 31t103.5 58.5q72 59 104.5 140.5t32.5 173.5q0 57 -14.5 113.5t-42 105.5t-69.5 88t-99 57q-57 20 -123 24.5t-125 4.5h-432v311h833v244h-1124v-797h598q23 0 45 -1t45 -1q49 -2 90 -10t69.5 -53t28.5 -98q0 -47 -20.5 -86 t-67.5 -56q-37 -14 -93 -18t-97 -4h-598v-242z" />
<glyph unicode="6" horiz-adv-x="1474" d="M100 684q0 -90 17.5 -188.5t57.5 -187.5t104.5 -159.5t156.5 -107.5q78 -31 173.5 -40t178.5 -9q63 0 127 4t124.5 18.5t114.5 43t103 75.5q63 63 91 132t28 159q0 55 -13 109.5t-40 101.5t-66.5 85t-95.5 56q-59 20 -137 24.5t-139 4.5h-461q2 123 37 187.5t96 93 t144 32.5t184 4h415v244h-503q-76 0 -153 -4t-149.5 -22.5t-137 -56.5t-113.5 -103q-37 -49 -63.5 -110.5t-45 -127t-27 -131.5t-8.5 -127zM424 561h412q51 0 97 -6t81 -47q41 -49 41 -115q0 -57 -22.5 -91t-59.5 -52.5t-83 -23.5t-93 -5q-43 0 -87 2t-86 11.5t-78 31 t-63 60.5q-35 53 -46 112.5t-13 122.5z" />
<glyph unicode="7" horiz-adv-x="1474" d="M172 1122h864l-858 -1122h357l829 1122v244h-1192v-244z" />
<glyph unicode="8" horiz-adv-x="1474" d="M92 360q0 -53 17.5 -104t48.5 -94q66 -94 149.5 -127t194.5 -37q119 -6 237 -6h113q63 0 127.5 6t125 19.5t105.5 39.5q37 23 68 58t52.5 76.5t33.5 87t12 88.5q0 55 -18.5 113.5t-52.5 101.5q-27 35 -61 56t-70 42q104 47 156 122.5t52 192.5q0 152 -88 250t-237 117 q-86 10 -176 10h-174q-82 0 -165 -1t-163 -15q-88 -16 -158 -68q-72 -53 -100.5 -120.5t-28.5 -155.5q0 -61 13.5 -109.5t39 -87.5t63.5 -71.5t89 -63.5q-41 -23 -74 -46.5t-61 -60.5q-35 -45 -52.5 -101t-17.5 -112zM412 393q0 76 33.5 121t111.5 53q45 4 88 6t88 2 q23 0 44.5 -2t43.5 -2q43 -2 88 -4t82 -28.5t50.5 -63.5t13.5 -80q0 -37 -10.5 -75.5t-40.5 -61.5q-39 -29 -84.5 -31t-92.5 -4q-23 0 -47 -1t-47 -1t-47 1t-47 1q-45 2 -91 4t-83 31q-29 25 -41 61.5t-12 73.5zM412 967q0 61 19.5 95t51 51t75.5 21.5t93 6.5q23 0 42.5 1 t41.5 1q23 0 45.5 -1t44.5 -1q47 0 90 -5.5t76 -22.5t52.5 -52t19.5 -92q0 -35 -11.5 -73t-41.5 -60q-39 -29 -86 -30t-93 -3q-23 0 -47 -1t-47 -1t-47 1t-47 1q-43 2 -92 3t-86 30q-29 23 -41 58.5t-12 72.5z" />
<glyph unicode="9" horiz-adv-x="1474" d="M98 942q0 -55 13.5 -110.5t39 -103.5t66.5 -85t96 -55q29 -10 65 -15.5t72.5 -8.5t71.5 -3h68h461q-2 -121 -37 -186.5t-95.5 -95t-144.5 -33.5t-184 -4h-416v-242h504q72 0 143.5 4t141.5 19q78 16 148.5 57t119.5 106q37 49 64.5 109.5t46 126t26.5 131.5t8 127 q0 92 -18.5 189.5t-58 186.5t-104.5 159.5t-157 107.5q-80 33 -173 42t-179 9q-66 0 -128 -4t-122.5 -18.5t-115 -43t-103.5 -75.5q-66 -63 -92.5 -132t-26.5 -159zM420 969q0 61 23.5 97t62.5 53.5t86 21.5t96 4q96 0 165 -16.5t112 -55.5t63.5 -104.5t22.5 -165.5h-412 q-49 0 -96 6t-82 47q-41 47 -41 113z" />
<glyph unicode=":" horiz-adv-x="458" d="M104 0h250v266h-250v-266zM104 479h250v266h-250v-266z" />
<glyph unicode=";" horiz-adv-x="479" d="M90 -281h125l158 310v237h-248v-266h90zM125 479h248v266h-248v-266z" />
<glyph unicode="&#x3c;" d="M68 573l888 -454l-2 262l-606 303l608 301v262l-888 -450v-224z" />
<glyph unicode="=" d="M68 403h888v232h-888v-232zM68 758h888v231h-888v-231z" />
<glyph unicode="&#x3e;" d="M68 119l888 452v224l-888 452l2 -262l606 -301l-608 -301v-264z" />
<glyph unicode="?" horiz-adv-x="1394" d="M121 1122h612h96q49 0 89 -12t65 -45t25 -96q0 -53 -20.5 -94t-78.5 -56q-72 -16 -150.5 -14t-150.5 2q-104 0 -187 -14.5t-140.5 -55.5t-88 -114.5t-30.5 -192.5v-96h291v63q0 33 6 64t23.5 54.5t54.5 33.5q20 6 40.5 8t40.5 4q66 4 130 4h131q74 0 154.5 10.5 t144.5 53.5q80 55 114.5 145t34.5 184q0 188 -95 295t-288 111q-29 0 -55.5 1t-54.5 1h-713v-244zM162 0h291v231h-291v-231z" />
<glyph unicode="@" horiz-adv-x="1501" d="M68 670q0 -106 30.5 -208t88 -189t140.5 -153.5t185 -101.5q70 -23 142.5 -33t146.5 -10q100 0 206.5 15.5t200.5 46.5l-41 164q-92 -31 -182 -46.5t-188 -15.5q-115 0 -216.5 29t-183.5 115q-76 78 -113.5 178t-37.5 207q0 117 42 218t115.5 177t175 119t218.5 43 q98 0 185 -30t151.5 -86t102.5 -138t38 -185q0 -37 -7 -79.5t-21.5 -84.5t-36 -79t-52.5 -60q-10 -8 -24.5 -13t-26.5 -5q-29 0 -37 21.5t-8 43.5q0 23 4 44.5t8 43.5l76 388l-182 2l-15 -78q-33 49 -87 73.5t-111 24.5q-80 0 -145.5 -37t-112.5 -95t-74 -131t-27 -147 q0 -63 20.5 -121.5t58.5 -102.5t91 -70.5t119 -26.5q74 0 142.5 34t111.5 95q16 -53 61 -82t99 -29q55 0 102 25t85 63.5t66.5 87t47.5 95.5q35 98 35 200q0 137 -51.5 248t-139.5 190t-205.5 122t-249.5 43q-152 0 -282.5 -55.5t-228 -153t-153.5 -228.5t-56 -282zM604 627 q0 37 12.5 73.5t35 67.5t54 50.5t72.5 19.5q59 0 94 -42.5t35 -99.5q0 -37 -12 -74.5t-34.5 -68.5t-55.5 -50.5t-72 -19.5q-61 0 -95 42t-34 102z" />
<glyph unicode="A" horiz-adv-x="1480" d="M8 0h340l131 317h520l131 -317h343l-566 1366h-334zM545 559l194 479l195 -479h-389z" />
<glyph unicode="B" horiz-adv-x="1431" d="M139 0h756q45 0 94 2t95 10t89.5 26.5t77.5 51.5q57 53 80 124t23 146q0 111 -47 193t-150 129q47 18 84 54t62.5 80t39 93.5t13.5 98.5q0 129 -74 226t-203 120q-84 12 -168 12h-772v-1366zM430 244v317h401q39 0 76 -5t64.5 -21.5t45 -46t17.5 -76.5q0 -39 -16.5 -75 t-46.5 -61q-35 -27 -70 -29.5t-76 -2.5h-395zM430 805v317h401q39 0 76 -5t64.5 -21.5t45 -46t17.5 -76.5q0 -39 -16.5 -75t-46.5 -60q-35 -27 -70 -30t-76 -3h-395z" />
<glyph unicode="C" horiz-adv-x="1243" d="M66 678q0 -96 15 -195.5t55 -187.5t105.5 -155.5t168.5 -102.5q39 -14 73.5 -21.5t68.5 -10.5t69.5 -4t78.5 -1h478v244h-420q-43 0 -88 5t-86 18.5t-76 39t-57 68.5q-18 33 -30.5 75t-20 87t-10.5 89t-3 81q0 98 16.5 174.5t56.5 131t109.5 82t178.5 27.5h430v244h-463 q-59 0 -123 -6t-125 -21.5t-117.5 -43t-99.5 -72.5q-106 -111 -145 -254.5t-39 -290.5z" />
<glyph unicode="D" horiz-adv-x="1468" d="M139 0h580h102q53 0 104.5 5t101.5 17.5t97 34.5q63 31 112.5 77t80.5 112q23 45 39 100t26.5 112.5t15.5 115t5 106.5q0 102 -22.5 221t-69.5 211q-43 82 -109.5 132t-145.5 78t-166 36t-171 8h-580v-1366zM430 244v878h289q86 0 161.5 -21.5t125.5 -99.5 q41 -66 58 -153.5t17 -165.5q0 -45 -7 -103.5t-23.5 -114.5t-45 -104.5t-73.5 -72.5q-43 -23 -103.5 -33t-109.5 -10h-289z" />
<glyph unicode="E" horiz-adv-x="1253" d="M66 694q0 -92 17 -191.5t56 -189.5t103.5 -160.5t160.5 -105.5q86 -31 188.5 -39t192.5 -8h379v244h-366q-92 0 -163 12t-121 47t-80 96.5t-38 159.5h768v242h-768q6 59 15.5 116.5t46.5 104.5q41 53 98 76q45 16 113.5 20t115.5 4h379v244h-491q-80 0 -162 -11.5 t-152 -54.5q-78 -49 -134 -116.5t-91 -146.5t-51 -167t-16 -176z" />
<glyph unicode="F" horiz-adv-x="1302" d="M125 0h289v565h815v242h-815v74q0 92 42 150.5t134 74.5q49 10 100 13t103 3h436v244h-473q-61 0 -126 -4t-127.5 -17.5t-119.5 -39t-107 -68.5q-53 -49 -82.5 -104.5t-45 -116t-19.5 -126t-4 -132.5v-758z" />
<glyph unicode="G" horiz-adv-x="1417" d="M66 678q0 -145 30.5 -269t99 -214.5t178 -142.5t267.5 -52h670v811h-670v-244h381v-323h-264q-43 0 -88 4t-86 18.5t-76 39t-57 67.5q-18 33 -29.5 74.5t-20 87t-11.5 89.5t-3 81q0 98 16.5 175.5t56.5 132t109.5 82t178.5 27.5h563v244h-596q-113 0 -227.5 -22.5 t-206.5 -94.5q-63 -49 -104.5 -116.5t-66 -143.5t-34.5 -155.5t-10 -155.5z" />
<glyph unicode="H" horiz-adv-x="1386" d="M139 0h291v565h528v-565h289v1366h-289v-559h-528v559h-291v-1366z" />
<glyph unicode="I" horiz-adv-x="569" d="M139 0h291v1366h-291v-1366z" />
<glyph unicode="J" horiz-adv-x="1091" d="M31 0h409q260 0 393.5 122t133.5 386v858h-291v-768q0 -47 -1 -98t-11 -99q-14 -66 -52.5 -97.5t-87.5 -45.5t-106 -14h-109h-278v-244z" />
<glyph unicode="K" horiz-adv-x="1349" d="M139 0h291v1366h-291v-1366zM440 690l496 -690h381l-543 690l572 676h-383z" />
<glyph unicode="L" horiz-adv-x="1091" d="M125 598q0 -55 2 -114.5t11 -116t29.5 -110.5t57.5 -99q39 -49 88 -80t104.5 -48.5t114 -23.5t119.5 -6h410v244h-279h-75q-41 0 -82 4t-79 16t-65 37q-47 43 -54 99.5t-9 115.5q-2 20 -3 41t-1 41v768h-289v-768z" />
<glyph unicode="M" horiz-adv-x="1822" d="M135 0h277v1026l338 -1026h299l356 1026v-1026h278v1366h-426l-356 -1067l-340 1067h-426v-1366z" />
<glyph unicode="N" horiz-adv-x="1470" d="M139 0h279v1001l555 -1001h358v1366h-276v-1018l-543 1018h-373v-1366z" />
<glyph unicode="O" horiz-adv-x="1480" d="M66 676q0 -74 10 -152t35.5 -150.5t67.5 -137t106 -111.5q47 -37 105.5 -61.5t120.5 -41t125.5 -23.5t123.5 -7q332 0 492.5 174t160.5 500q0 344 -159.5 526t-514.5 182q-350 0 -511.5 -177t-161.5 -521zM387 686q0 94 14.5 178t53.5 146.5t108.5 98.5t177.5 36 q106 0 175 -36t109 -98.5t54.5 -145.5t14.5 -177t-14.5 -178t-52.5 -148.5t-106.5 -102.5t-177.5 -38q-111 0 -179 37t-108 100.5t-54.5 147.5t-14.5 180z" />
<glyph unicode="P" horiz-adv-x="1404" d="M139 0h291v477h467q74 0 138.5 8.5t129.5 49.5q98 61 145.5 167.5t47.5 219.5t-52.5 220t-150.5 167q-76 45 -162 51t-172 6h-682v-1366zM430 721v401h401q35 0 76 -4t70 -28q35 -29 48 -71t13 -87q0 -31 -5 -62.5t-17 -59.5t-33.5 -49.5t-54.5 -29.5q-25 -6 -51.5 -8 t-51.5 -2h-395z" />
<glyph unicode="Q" horiz-adv-x="1550" d="M66 678q0 -76 10 -152.5t35.5 -149.5t67.5 -136.5t106 -112.5q100 -78 224 -102.5t247 -24.5h739v244h-233q29 35 51 67.5t41 73.5q31 68 46 152t15 157q0 98 -24.5 212t-71.5 200q-41 76 -106.5 128t-143.5 83t-163 44t-167 13q-350 0 -511.5 -176t-161.5 -520zM387 692 q0 94 15.5 176t55.5 143.5t108.5 97.5t174.5 36q100 0 169 -37t109 -98.5t57.5 -143.5t17.5 -170q0 -92 -13.5 -177t-52.5 -149.5t-106.5 -102.5t-176.5 -38t-178 37t-109 99.5t-55.5 146.5t-15.5 180z" />
<glyph unicode="R" horiz-adv-x="1464" d="M139 0h291v518h234q94 0 159.5 -15.5t108.5 -52t66.5 -99t33.5 -156.5q6 -49 10.5 -98.5t20.5 -96.5h326q-18 57 -25 111q-8 72 -11 143.5t-32 138.5q-18 45 -36.5 75t-43 51.5t-56.5 36.5t-77 32q141 45 200.5 150.5t59.5 246.5q0 123 -67.5 219t-188.5 131 q-72 20 -150.5 25.5t-154.5 5.5h-668v-1366zM430 762v360h408q45 0 84 -7t66.5 -25.5t44 -52.5t16.5 -87q0 -109 -55.5 -148.5t-155.5 -39.5h-408z" />
<glyph unicode="S" horiz-adv-x="1423" d="M70 963q0 -53 14 -107.5t41 -101.5t66.5 -85t93.5 -59q57 -23 126.5 -30t129.5 -7h252q47 0 100 -8t88 -45q49 -49 49 -119q0 -59 -26.5 -90.5t-66.5 -46t-88 -17.5t-91 -3h-623v-244h686q61 0 123 1t118 12.5t107.5 38t94.5 79.5q47 57 68.5 128.5t21.5 143.5 q0 53 -10.5 106.5t-33 101.5t-57 88t-86.5 65q-74 37 -150.5 44t-156.5 7h-219q-41 0 -85 3t-81 18.5t-60.5 47t-23.5 87.5q0 63 25.5 95t65.5 44t87 12h97h610v244h-676q-51 0 -104.5 -1t-104.5 -9t-99 -26.5t-89 -53.5q-63 -55 -98 -142t-35 -171z" />
<glyph unicode="T" horiz-adv-x="1198" d="M10 1122h436v-1122h289v1122h453v244h-1178v-244z" />
<glyph unicode="U" horiz-adv-x="1439" d="M125 541q0 -47 2 -93.5t10 -90.5t24.5 -87t45.5 -82q45 -61 104.5 -100t126 -60.5t139 -29.5t144.5 -8t150.5 10t151.5 36.5t133.5 73t96.5 115.5q18 35 30.5 77t20 87t10.5 89t3 83v805h-291v-819q0 -35 -1 -72t-8 -71.5t-22.5 -66.5t-46.5 -54q-45 -33 -107.5 -48.5 t-115.5 -15.5q-39 0 -80 7t-79 24.5t-69.5 43t-50.5 62.5q-23 45 -27.5 93.5t-4.5 97.5v819h-289v-825z" />
<glyph unicode="V" horiz-adv-x="1472" d="M4 1366l576 -1366h290l598 1366h-327l-408 -1028l-401 1028h-328z" />
<glyph unicode="W" horiz-adv-x="2166" d="M27 1366l442 -1366h332l282 985l283 -985h332l442 1366h-301l-307 -1028l-287 1028h-323l-287 -1028l-307 1028h-301z" />
<glyph unicode="X" horiz-adv-x="1304" d="M10 0h346l295 469l301 -469h342l-463 690l463 676h-352l-291 -451l-268 451h-356l448 -676z" />
<glyph unicode="Y" horiz-adv-x="1339" d="M6 1366l504 -768v-598h291v588l532 778h-344l-330 -535l-313 535h-340z" />
<glyph unicode="Z" horiz-adv-x="1339" d="M76 0h1188v244h-832l832 870v252h-1188v-244h862l-862 -886v-236z" />
<glyph unicode="[" horiz-adv-x="688" d="M90 -76q0 -68 10.5 -130t65.5 -109q27 -23 58.5 -35t65.5 -17.5t68.5 -6.5t69.5 -1h190v217q-18 0 -47.5 -1t-62.5 1t-61.5 8.5t-43.5 18.5q-12 10 -18 27.5t-8 36t-2 36.5v33v987q0 29 2 70t26 61q16 14 45 19.5t60 7.5t60.5 1t49.5 -1v219h-190q-68 0 -138.5 -7 t-123.5 -52q-55 -47 -65.5 -109.5t-10.5 -130.5v-1143z" />
<glyph unicode="\" d="M55 1536l621 -1706h260l-621 1706h-260z" />
<glyph unicode="]" horiz-adv-x="688" d="M70 -158v-217h190q33 0 69 1t69.5 6.5t65.5 17.5t58 35q55 47 65.5 109t10.5 130v1143q0 68 -10 130.5t-66 109.5q-55 45 -124.5 52t-137.5 7h-190v-219q18 0 49 1t62.5 -1t60 -8t43.5 -19q25 -23 26.5 -62.5t1.5 -68.5v-987q0 -29 -2 -71t-26 -62q-16 -14 -45 -20.5 t-59.5 -7.5t-60.5 0t-50 1z" />
<glyph unicode="^" d="M10 684h277l225 477l225 -477h279l-330 690h-348z" />
<glyph unicode="_" d="M0 -94v-240h1024v240h-1024z" />
<glyph unicode="`" d="M197 1368l272 -260h164l-184 260h-252z" />
<glyph unicode="a" horiz-adv-x="1218" d="M78 295q0 -92 49 -173t143 -106q53 -14 109.5 -15t112.5 -1h606v561q0 53 -3 102.5t-20 100.5q-41 129 -131 178t-217 53q-29 0 -56.5 1t-56.5 1h-462v-213h462q47 0 86 -5t67 -22.5t42 -49t14 -84.5v-17h-336q-33 0 -71.5 -1t-78.5 -6t-77 -16.5t-63 -31.5 q-59 -45 -89 -114.5t-30 -141.5zM358 301q0 47 30 69.5t73 22.5h362v-180h-317q-25 0 -51.5 2t-48 10t-35 25.5t-13.5 50.5z" />
<glyph unicode="b" horiz-adv-x="1222" d="M135 0h447q96 0 182 10t170 64q117 74 168 188.5t51 249.5q0 238 -132 361.5t-368 123.5h-243v369h-275v-1366zM410 213v571h202q137 0 199.5 -73.5t62.5 -206.5q0 -125 -65.5 -208t-196.5 -83h-202z" />
<glyph unicode="c" horiz-adv-x="1044" d="M68 500q0 -104 29.5 -194.5t99.5 -168.5q41 -47 86 -73.5t94 -41t102 -18.5t113 -4h375v213h-295q-53 0 -100.5 5t-94.5 30q-74 39 -101.5 104.5t-27.5 145.5q0 154 68.5 220t222.5 66h328v213h-375q-98 0 -195.5 -16t-175.5 -82q-86 -76 -119.5 -182.5t-33.5 -216.5z " />
<glyph unicode="d" horiz-adv-x="1212" d="M68 508q0 -150 61 -273.5t203 -189.5q70 -33 133 -39t139 -6h473v1366h-274v-369h-258q-117 0 -208 -34.5t-165 -126.5q-59 -74 -81.5 -154t-22.5 -174zM346 504q0 121 65.5 200.5t192.5 79.5h199v-571h-199q-131 0 -194.5 84t-63.5 207z" />
<glyph unicode="e" horiz-adv-x="1040" d="M68 510q0 -123 41 -231.5t141 -184.5q78 -59 156.5 -76.5t177.5 -17.5h366v213h-336q-53 0 -95 6t-73.5 25.5t-50 55.5t-22.5 93h577v213h-577q8 106 57 142t154 36h366v213h-385q-78 0 -156.5 -13t-144.5 -58q-51 -35 -88 -82t-61.5 -101.5t-35.5 -115t-11 -117.5z" />
<glyph unicode="f" horiz-adv-x="778" d="M37 784h180v-784h275v784h256v213h-256v45q0 63 28.5 87t89.5 24h138v213h-240q-160 0 -225.5 -78t-65.5 -231v-60h-180v-213z" />
<glyph unicode="g" horiz-adv-x="1226" d="M74 500q0 -109 33.5 -211.5t115.5 -177.5q76 -70 159 -90.5t183 -20.5h252q0 -45 -6 -72.5t-22.5 -43t-45 -20.5t-73.5 -5h-508v-213h545q86 0 152.5 12t112.5 45t74.5 90t38.5 150q2 16 4.5 32.5t2.5 32.5v989h-512q-92 0 -170 -16t-154 -70q-102 -72 -142 -182.5 t-40 -228.5zM352 496q0 61 11.5 114.5t39 91t73.5 60t114 22.5h227v-571h-213q-133 0 -192.5 78t-59.5 205z" />
<glyph unicode="h" horiz-adv-x="1222" d="M135 0h275v784h221q66 0 104.5 -11t58 -37.5t25.5 -67.5t6 -101v-567h275v621q0 109 -25.5 181t-77 115.5t-128 61.5t-179.5 18h-280v369h-275v-1366z" />
<glyph unicode="i" horiz-adv-x="544" d="M135 0h275v997h-275v-997zM135 1100h275v266h-275v-266z" />
<glyph unicode="j" horiz-adv-x="610" d="M-49 -147v-207h121q88 0 180 24.5t149 98.5q51 66 62.5 148.5t11.5 162.5v917h-274v-940q0 -35 -2 -83t-27 -76q-18 -20 -46 -30.5t-58.5 -14t-61.5 -2t-55 1.5zM201 1108h274v258h-274v-258z" />
<glyph unicode="k" horiz-adv-x="1114" d="M135 0h275v391h186q10 0 18.5 -1t18.5 -3t20 -2t21 -2q25 -4 40 -19.5t22 -38t9.5 -47t2.5 -45.5v-233h274v221q0 72 -6 140.5t-30.5 122t-75 86t-140.5 32.5h-76l389 395h-307l-366 -395v764h-275v-1366z" />
<glyph unicode="l" horiz-adv-x="544" d="M135 0h275v1366h-275v-1366z" />
<glyph unicode="m" horiz-adv-x="1683" d="M135 0h275v784h295v-784h274v784h145q53 0 86 -13t50.5 -37.5t22.5 -60.5t5 -81v-592h275v635q0 72 -20.5 144.5t-69.5 125.5q-31 33 -71 52.5t-83 27.5t-88 10t-88 2h-1008v-997z" />
<glyph unicode="n" horiz-adv-x="1183" d="M135 0h275v784h237q76 0 108.5 -31.5t32.5 -107.5v-645h275v612q0 199 -91 292t-290 93h-547v-997z" />
<glyph unicode="o" horiz-adv-x="1191" d="M68 508q0 -250 137 -386t387 -136q117 0 214 32.5t167.5 96t110.5 156.5t40 214q0 252 -140 389.5t-390 137.5q-115 0 -212 -35t-167 -99.5t-108.5 -158.5t-38.5 -211zM348 492q0 66 11.5 122t39 98t75.5 66.5t122 24.5q70 0 118 -23.5t76.5 -64.5t41 -96.5t12.5 -118.5 q0 -61 -11.5 -117.5t-40 -97.5t-75.5 -65.5t-117 -24.5t-118 22.5t-77.5 62t-43 94t-13.5 118.5z" />
<glyph unicode="p" horiz-adv-x="1208" d="M135 -375h275v375h241q70 0 131.5 8t124.5 43q121 66 177.5 182.5t56.5 249.5q0 123 -40 237t-138 191q-41 31 -82 48.5t-84 25.5t-88 10t-95 2h-479v-1372zM410 213v571h188q133 0 197.5 -75.5t64.5 -204.5q0 -143 -68.5 -217t-213.5 -74h-168z" />
<glyph unicode="q" horiz-adv-x="1220" d="M68 485q0 -111 33.5 -200.5t96 -152t151.5 -97.5t200 -35h262v-375h274v1372h-491q-96 0 -182 -11t-164 -75q-98 -78 -139 -191.5t-41 -234.5zM350 500q0 129 63.5 206.5t198.5 77.5h199v-571h-188q-139 0 -206 76t-67 211z" />
<glyph unicode="r" horiz-adv-x="958" d="M135 0h275v784h79q68 0 104 -15t52.5 -46t18.5 -75t2 -101h264v96q0 37 -2 75t-10.5 73.5t-24.5 68.5t-45 60q-63 57 -144 67t-163 10h-406v-997z" />
<glyph unicode="s" horiz-adv-x="1124" d="M125 532q47 -79 139 -114q35 -12 80 -17.5t93 -6.5h47.5h45.5q45 1 80 1q29 0 58.5 -1t54.5 -9t40 -28.5t15 -59.5q0 -53 -31.5 -65.5t-76.5 -16.5q-23 -2 -45 -2h-43h-488v-213h565q43 0 89.5 1t89.5 11q51 10 89 41t64.5 73t39.5 91t13 98q0 78 -27.5 132.5t-74.5 88 t-109.5 49t-132.5 15.5h-161q-27 0 -58.5 1t-58.5 9t-44.5 27.5t-17.5 58.5q0 59 34 72.5t81 13.5q10 0 19.5 1t19.5 1h485v213h-585q-84 0 -148.5 -14t-120.5 -82q-67 -83 -67 -191q0 -99 47 -178z" />
<glyph unicode="t" horiz-adv-x="788" d="M33 784h174v-409q0 -51 4 -101.5t20 -99.5q39 -102 121 -138t185 -36h198v213q-25 0 -57 -2q-12 -1 -26 -1l-40 2q-32 3 -61 14.5t-47 35.5q-20 29 -21.5 78t-1.5 82v362h254v213h-254v369h-274v-369h-174v-213z" />
<glyph unicode="u" horiz-adv-x="1196" d="M121 383q0 -174 82 -278.5t266 -104.5h592v997h-275v-784h-258q-66 0 -99.5 40t-33.5 103v641h-274v-614z" />
<glyph unicode="v" horiz-adv-x="1148" d="M14 997l398 -997h295l430 997h-291l-279 -686l-254 686h-299z" />
<glyph unicode="w" horiz-adv-x="1683" d="M121 362q0 -72 20.5 -144.5t69.5 -125.5q31 -35 71 -53.5t83 -26.5t88 -10t88 -2h1007v997h-274v-784h-295v784h-274v-784h-146q-41 0 -82 12.5t-63 53.5q-16 31 -17.5 61.5t-1.5 65.5v591h-274v-635z" />
<glyph unicode="x" horiz-adv-x="1075" d="M8 0h322l211 285l204 -285h322l-373 494l373 503h-322l-204 -295l-211 295h-305l358 -503z" />
<glyph unicode="y" horiz-adv-x="1175" d="M121 -141v-213h489q45 0 91.5 3t89.5 13t81.5 29.5t73.5 54.5q57 57 75.5 126.5t18.5 147.5v977h-274v-784h-227q-47 0 -81 17.5t-48 66.5q-10 41 -12.5 85t-2.5 85v530h-274v-575q0 -49 2 -99.5t18 -97.5q35 -111 117 -164t195 -59q62 -3 125 -3h32q78 1 156 1 q-2 -10 -3 -18.5t-1 -18.5q-4 -43 -15.5 -65.5t-58.5 -32.5q-41 -6 -78 -6h-489z" />
<glyph unicode="z" horiz-adv-x="1079" d="M63 0h941v213h-576l576 578v206h-941v-213h576l-576 -577v-207z" />
<glyph unicode="{" horiz-adv-x="706" d="M82 399q35 -8 54.5 -25.5t29.5 -42t12 -54t2 -60.5v-297q0 -92 23.5 -149.5t68.5 -89t109.5 -44t148.5 -12.5q27 0 52.5 1t52.5 3v219h-39q-39 0 -69.5 2.5t-51 13.5t-32 34.5t-11.5 68.5v275q0 88 -22.5 148.5t-100.5 109.5q35 23 58.5 44t40.5 60q14 35 19 74t5 78v274 q0 45 11.5 69.5t32 35t51 12.5t71.5 2h37v221q-29 2 -57.5 3t-57.5 1q-82 0 -145.5 -13t-106.5 -46t-65.5 -90.5t-22.5 -145.5v-297q0 -31 -2 -60.5t-11 -54t-28.5 -43t-56.5 -26.5v-199z" />
<glyph unicode="|" d="M379 -512h266v2048h-266v-2048z" />
<glyph unicode="}" horiz-adv-x="706" d="M72 -152v-219q27 -2 52.5 -3t51.5 -1q82 0 147.5 12.5t110.5 44t68.5 89t23.5 149.5v297q0 31 2 60.5t12.5 54t30 42t54.5 25.5v199q-37 8 -56.5 26.5t-29 43t-11.5 54.5t-2 60v297q0 88 -22.5 145.5t-65.5 90.5t-106.5 46t-145.5 13q-29 0 -57.5 -1t-56.5 -3v-221h37 q39 0 70.5 -2t52 -12.5t31.5 -35t11 -69.5v-274q0 -47 4.5 -83t17.5 -65.5t37.5 -55.5t63.5 -52q-39 -25 -62.5 -52.5t-36.5 -58.5t-18.5 -66.5t-5.5 -80.5v-275q0 -45 -11 -69.5t-32.5 -34.5t-52.5 -12.5t-69 -2.5h-37z" />
<glyph unicode="~" horiz-adv-x="1366" d="M184 1243l146 -96q27 51 56.5 88t94.5 37q39 0 86 -16.5t97.5 -35t99.5 -35t92 -16.5q66 0 116 24t88 61.5t67.5 87t54.5 102.5l-152 88q-14 -25 -27.5 -43.5t-30 -32.5t-37 -21.5t-50.5 -7.5q-47 0 -94.5 15.5t-96.5 35t-99 35t-99 15.5q-70 0 -118 -23.5t-84 -63.5 t-60.5 -91.5t-49.5 -106.5z" />
<glyph unicode="&#xa1;" horiz-adv-x="561" d="M135 -375h291v1030h-291v-1030zM135 758h291v231h-291v-231z" />
<glyph unicode="&#xa2;" horiz-adv-x="1474" d="M256 637q0 -104 29.5 -194.5t99.5 -168.5q39 -45 84 -71.5t93 -41t101.5 -19.5t110.5 -5h10v-200h154v200h217v213h-217v570h217v213h-217v200h-154v-200q-98 0 -197.5 -16.5t-176.5 -82.5q-86 -74 -120 -180t-34 -217zM537 635q0 68 20.5 137.5t81.5 108.5 q35 23 69.5 28.5t75.5 10.5v-568q-127 10 -187 85t-60 198z" />
<glyph unicode="&#xa3;" horiz-adv-x="1474" d="M162 0h1151v242h-750v348h451v170h-451q0 31 -1 77t4 94t18.5 90t42.5 64q20 16 46.5 23.5t55.5 10.5t57 3h54h385v244h-475q-41 0 -80 -3t-80 -13q-80 -16 -151.5 -67.5t-110.5 -125.5q-23 -41 -34 -91t-15.5 -102.5t-5.5 -105.5t-1 -98h-110v-170h110v-348h-110v-242z " />
<glyph unicode="&#xa4;" horiz-adv-x="1366" d="M39 1268l215 -213q-45 -66 -68.5 -133.5t-23.5 -147.5q0 -78 23.5 -147.5t66.5 -134.5l-211 -211l143 -144l211 209q70 -43 136.5 -66.5t150.5 -23.5q82 0 152.5 23.5t138.5 68.5l211 -211l141 146l-211 211q45 68 67.5 133t22.5 147q0 84 -24.5 149.5t-69.5 135.5 l209 209l-143 143l-211 -209q-68 45 -133.5 66.5t-147.5 21.5q-84 0 -150.5 -22.5t-136.5 -67.5l-213 213zM406 772q0 57 21.5 108.5t59 89.5t88 60.5t109.5 22.5q57 0 108.5 -22.5t88.5 -60.5t58.5 -89.5t21.5 -108.5t-21.5 -108.5t-59.5 -89t-88.5 -59t-107.5 -21.5 t-108.5 21.5t-89 59t-59 89t-21.5 108.5z" />
<glyph unicode="&#xa5;" horiz-adv-x="1474" d="M100 1366l439 -704h-242v-164h281v-109h-281v-164h281v-225h290v225h281v164h-281v109h281v164h-231l456 704h-344l-303 -535l-287 535h-340z" />
<glyph unicode="&#xa6;" d="M352 313v-655h318v655h-318zM352 643h318v723h-318v-723z" />
<glyph unicode="&#xa7;" horiz-adv-x="1474" d="M174 522q0 -98 48 -186t140 -129q59 -27 108.5 -30t115.5 -3h223q37 0 74 -5t66.5 -20.5t48 -43t18.5 -72.5q0 -47 -27.5 -81t-73.5 -44q-33 -8 -68.5 -9t-68.5 -1h-547v-215h629q66 0 134.5 3t129.5 31q43 20 77 53t55.5 75t32.5 88.5t11 93.5q0 70 -20 138t-72 120 q55 53 73.5 108.5t18.5 130.5q0 45 -8 94.5t-28.5 93.5t-52 78.5t-78.5 53.5q-43 16 -104.5 23t-127 8.5t-127 0t-104.5 -1.5q-37 0 -75 3.5t-69.5 16.5t-51 41t-19.5 77q0 57 21.5 85.5t56 41t77.5 12.5h86h537v215h-623q-43 0 -86 -1t-84 -9t-79.5 -23.5t-71.5 -46.5 q-53 -49 -84 -128t-31 -150q0 -70 22.5 -131.5t75.5 -108.5q-47 -53 -72.5 -113.5t-25.5 -132.5zM457 526q0 49 17.5 77t47 41t66.5 15.5t76 2.5h147q37 0 75 -5.5t66.5 -22t47 -45t18.5 -73.5q0 -49 -22.5 -75.5t-56.5 -38t-74 -13.5t-74 -2h-132q-37 0 -72.5 4t-65 19.5 t-47 42t-17.5 73.5z" />
<glyph unicode="&#xa8;" d="M213 1108h213v217h-213v-217zM600 1108h211v217h-211v-217z" />
<glyph unicode="&#xa9;" horiz-adv-x="1490" d="M55 682q0 -143 54.5 -269t147.5 -219.5t219 -147.5t269 -54t268.5 54t219.5 147.5t148.5 219.5t54.5 269t-54.5 269t-147.5 220.5t-219 148.5t-270 54q-143 0 -269 -54t-219 -148.5t-147.5 -220.5t-54.5 -269zM166 682q0 121 45 228.5t123 187.5t184.5 127t226.5 47 q121 0 226.5 -47t184.5 -127t124 -187.5t45 -228.5t-45 -227.5t-124 -186.5t-184.5 -127t-226.5 -47t-227 47t-184 127t-123 186.5t-45 227.5zM334 680q0 -90 20.5 -165t65.5 -128t112.5 -84t163.5 -31h361v148h-273q-74 0 -120 17.5t-73.5 52t-37.5 87t-10 119.5 q0 129 51 189.5t184 60.5h279v146h-301q-76 0 -161 -16.5t-142 -69.5q-68 -63 -93.5 -148.5t-25.5 -177.5z" />
<glyph unicode="&#xaa;" horiz-adv-x="983" d="M150 547h684v112h-684v-112zM164 944q0 -63 36 -111.5t99 -60.5q33 -6 65.5 -7t65.5 -1h389v338q0 55 -8 104t-49 92q-41 41 -84 51.5t-98 14.5q-14 0 -28.5 1t-29.5 1h-313v-139h299q51 0 88 -12.5t37 -73.5v-6h-205q-41 0 -96.5 -4.5t-89.5 -28.5q-39 -27 -58.5 -69 t-19.5 -89zM354 948q0 29 18.5 38t43.5 9h217v-92h-193q-27 0 -56.5 5t-29.5 40z" />
<glyph unicode="&#xab;" horiz-adv-x="821" d="M86 367l272 -215v243l-143 97l143 100v244l-272 -222v-247zM446 367l273 -215v243l-144 97l144 100v244l-273 -222v-247z" />
<glyph unicode="&#xac;" d="M68 307h622v-307h266v547h-888v-240z" />
<glyph unicode="&#xad;" horiz-adv-x="477" d="M0 406h477v245h-477v-245z" />
<glyph unicode="&#xae;" d="M102 1153q0 -84 33 -158.5t88.5 -130t130 -88.5t158.5 -33t158.5 33t130 88.5t88.5 130t33 158.5q0 86 -32 161t-87 130t-130 87t-161 32t-161 -32t-130 -87t-87 -130t-32 -161zM156 1153q0 74 27.5 139.5t75.5 114.5t113.5 77.5t139.5 28.5t139.5 -28.5t113.5 -77.5 t75.5 -114.5t27.5 -139.5t-27.5 -139.5t-75.5 -113.5t-113.5 -76.5t-139.5 -28.5t-138.5 28.5t-113.5 76.5t-76.5 113.5t-27.5 139.5zM328 942h90v162h74q59 0 84.5 -21.5t29.5 -81.5q2 -16 3 -30.5t5 -28.5h101q-10 27 -11.5 54.5t-5.5 51t-18 44t-51 32.5q45 16 62.5 47 t17.5 76q0 39 -15.5 62.5t-40 36t-56.5 16.5t-62 4h-207v-424zM418 1178v112h127q29 0 47 -10t18 -43q0 -35 -16 -47t-49 -12h-127z" />
<glyph unicode="&#xaf;" d="M166 1180h694v120h-694v-120z" />
<glyph unicode="&#xb0;" d="M197 1042q0 -66 24.5 -123t67.5 -99t100 -66.5t123 -24.5q63 0 120.5 24.5t100.5 66.5t68.5 99t25.5 123q0 63 -25.5 121t-68.5 99t-100.5 65.5t-120.5 24.5t-120.5 -24.5t-100.5 -65.5t-68.5 -98.5t-25.5 -121.5zM354 1042q0 66 47.5 110t110.5 44q66 0 112 -45t46 -111 t-47.5 -109.5t-110.5 -43.5q-66 0 -112 45t-46 110z" />
<glyph unicode="&#xb1;" d="M68 102h888v246h-888v-246zM68 731h311v-315h266v315h311v246h-311v313h-266v-313h-311v-246z" />
<glyph unicode="&#xb2;" horiz-adv-x="970" d="M104 547h758v155h-561v66q0 41 11.5 62.5t33 31.5t50 12.5t63.5 2.5h151q76 0 137.5 21.5t99.5 72.5t38 153q0 53 -18.5 101.5t-59.5 83.5q-47 41 -114.5 49t-125.5 8h-448v-156h409q25 0 50.5 -3t45 -12t33 -27.5t13.5 -49.5q0 -29 -13.5 -46t-34 -26.5t-46 -11.5 t-48.5 -2h-139q-55 0 -110.5 -7t-98.5 -48q-45 -43 -60.5 -96.5t-15.5 -112.5v-221z" />
<glyph unicode="&#xb3;" horiz-adv-x="970" d="M125 547h385q61 0 122.5 4t117.5 39q47 29 71.5 75t24.5 101q0 125 -109 195q109 61 109 180q0 63 -31 116.5t-88 81.5q-45 23 -96 25t-99 2h-407v-156h377q25 0 47 -2t40.5 -10t30 -26.5t11.5 -49.5t-11.5 -48t-29 -24.5t-41 -9.5t-47.5 -2h-295v-157h295q25 0 48 -2 t41.5 -11.5t29 -27t10.5 -49.5q0 -59 -40 -74t-89 -15h-377v-155z" />
<glyph unicode="&#xb4;" d="M397 1108h160l268 260h-252z" />
<glyph unicode="&#xb5;" d="M55 -354h264v458q35 -59 80 -91.5t115 -32.5q74 0 119 36.5t78 98.5v-115h262v983h-262v-512q0 -70 -12.5 -134.5t-71.5 -111.5q-49 -37 -107 -37q-49 0 -92 24t-71.5 64.5t-33 90t-4.5 96.5v520h-264v-1337z" />
<glyph unicode="&#xb6;" horiz-adv-x="1474" d="M127 920q0 -55 12.5 -115t37 -114t63.5 -99t92 -70q59 -29 122.5 -36t129.5 -9v-665h241v909h-166q-111 0 -163 48t-52 159q0 121 60.5 159.5t169.5 38.5h336v-1314h241v1314h123v240h-737q-76 0 -158 -8t-149 -49q-49 -29 -87 -73t-63.5 -95t-39 -108.5t-13.5 -112.5z " />
<glyph unicode="&#xb7;" horiz-adv-x="262" d="M0 543h262v280h-262v-280z" />
<glyph unicode="&#xb8;" d="M365 -287v-100h159q39 0 75 5t62.5 20.5t43 44t16.5 75.5q0 45 -20.5 85t-67.5 55q-29 10 -58 10h-57v123h-106v-205h88q35 0 51 -9.5t16 -45.5q0 -33 -15 -45.5t-46 -12.5h-141z" />
<glyph unicode="&#xb9;" horiz-adv-x="970" d="M387 547h197v819h-197v-819z" />
<glyph unicode="&#xba;" horiz-adv-x="983" d="M150 547h684v112h-684v-112zM152 1069q0 -158 93 -236.5t244 -78.5q72 0 134.5 18.5t108.5 56t72.5 95t26.5 133.5q0 158 -95 237.5t-247 79.5q-70 0 -131 -19.5t-107 -58.5t-72.5 -96t-26.5 -131zM342 1061q0 78 32 127t118 49q82 0 115.5 -48t33.5 -124t-33 -124 t-114 -48q-82 0 -117 45t-35 123z" />
<glyph unicode="&#xbb;" horiz-adv-x="821" d="M102 152l273 215v247l-273 222v-244l144 -100l-144 -97v-243zM463 152l272 215v247l-272 222v-244l145 -100l-145 -97v-243z" />
<glyph unicode="&#xbc;" horiz-adv-x="2267" d="M469 547h197v819h-197v-819zM645 -8h197l766 1382h-197zM1276 139h545v-139h196v139h113v156h-113v524h-252l-489 -500v-180zM1505 295l316 321v-321h-316z" />
<glyph unicode="&#xbd;" horiz-adv-x="2267" d="M469 547h197v819h-197v-819zM645 -8h197l766 1382h-197zM1427 0h758v156h-561v65q0 41 11.5 62.5t33 32t50 12.5t63.5 2h151q76 0 137.5 21.5t99.5 73t38 153.5q0 53 -18.5 101t-59.5 83q-47 41 -114.5 49t-125.5 8h-448v-155h409q25 0 50.5 -3.5t45 -12.5t33 -27.5 t13.5 -49.5q0 -29 -13.5 -46t-34 -26.5t-46 -11.5t-48.5 -2h-139q-55 0 -110.5 -7t-98.5 -48q-45 -43 -60.5 -96t-15.5 -113v-221z" />
<glyph unicode="&#xbe;" horiz-adv-x="2267" d="M125 547h385q61 0 122.5 4t117.5 39q47 29 71.5 75t24.5 101q0 125 -109 195q109 61 109 180q0 63 -31 116.5t-88 81.5q-45 23 -96 25t-99 2h-407v-156h377q25 0 47 -2t40.5 -10t30 -26.5t11.5 -49.5t-11.5 -48t-29 -24.5t-41 -9.5t-47.5 -2h-295v-157h295q25 0 48 -2 t41.5 -11.5t29 -27t10.5 -49.5q0 -59 -40 -74t-89 -15h-377v-155zM645 -8h197l766 1382h-197zM1264 139h542v-139h197v139h113v156h-113v524h-250l-489 -500v-180zM1491 295l315 321v-321h-315z" />
<glyph unicode="&#xbf;" horiz-adv-x="1394" d="M68 31q0 -193 96 -296.5t289 -109.5h32h789v242h-612h-97q-49 0 -89 12t-64.5 44t-24.5 97q0 53 21.5 95.5t78.5 54.5q72 16 150 14t149 -2q104 0 187.5 14.5t140.5 55.5t88 114.5t31 192.5v98h-289v-63q0 -33 -6 -63.5t-23.5 -55t-54.5 -35.5q-20 -4 -41.5 -6t-42 -4 t-40 -4t-40.5 -2q-49 0 -113.5 2t-131 -2t-128 -17.5t-106.5 -44.5q-82 -55 -115.5 -146t-33.5 -185zM944 758h289v231h-289v-231z" />
<glyph unicode="&#xc0;" horiz-adv-x="1480" d="M8 0h340l131 317h520l131 -317h343l-566 1366h-334zM424 1710l262 -242h174l-174 242h-262zM545 559l194 479l195 -479h-389z" />
<glyph unicode="&#xc1;" horiz-adv-x="1480" d="M8 0h340l131 317h520l131 -317h343l-566 1366h-334zM545 559l194 479l195 -479h-389zM621 1468h172l264 242h-264z" />
<glyph unicode="&#xc2;" horiz-adv-x="1480" d="M8 0h340l131 317h520l131 -317h343l-566 1366h-334zM418 1468h194l127 140l119 -140h205l-215 244h-215zM545 559l194 479l195 -479h-389z" />
<glyph unicode="&#xc3;" horiz-adv-x="1480" d="M8 0h340l131 317h520l131 -317h343l-566 1366h-334zM408 1479h124q6 33 20.5 59.5t53.5 26.5q31 0 63.5 -12.5t68.5 -28t74 -27.5t75 -12q49 0 81.5 20.5t54 54t33 73.5t17.5 81h-127q-6 -33 -20.5 -58.5t-53.5 -25.5q-29 0 -57.5 12.5t-61 28t-70.5 28.5t-81 13 q-53 0 -87 -19.5t-56.5 -52t-33.5 -74.5t-17 -87zM545 559l194 479l195 -479h-389z" />
<glyph unicode="&#xc4;" horiz-adv-x="1480" d="M8 0h340l131 317h520l131 -317h343l-566 1366h-334zM430 1468h219v215h-219v-215zM545 559l194 479l195 -479h-389zM834 1468h217v215h-217v-215z" />
<glyph unicode="&#xc5;" horiz-adv-x="1480" d="M8 0h340l131 317h520l131 -317h343l-566 1366h-334zM530 1679q0 -43 16.5 -80.5t44 -67.5t66.5 -46.5t82 -16.5t82 16.5t68 45.5t45 67.5t16 81.5t-16 82t-46 66.5t-68 44t-81 16.5t-80.5 -16.5t-66.5 -45t-45.5 -66.5t-16.5 -81zM545 559l194 479l195 -479h-389z M645 1679q0 39 27.5 67t66.5 28t67 -28t28 -67t-28 -66.5t-67 -27.5t-66.5 27.5t-27.5 66.5z" />
<glyph unicode="&#xc6;" horiz-adv-x="2111" d="M8 0h340l131 317h520l131 -317h891v244h-366q-92 0 -163 12t-122 46t-79.5 96.5t-37.5 160.5h768v242h-768l2 37q4 53 13.5 97t44.5 87q31 39 68.5 59.5t80.5 29.5t89 10t91 1h379v244h-491q-49 0 -100.5 -3t-101.5 -14.5t-96 -33t-83 -55.5q-35 -33 -71 -81.5t-56 -93.5 l-115 281h-334zM545 559l194 479l195 -479h-389z" />
<glyph unicode="&#xc7;" horiz-adv-x="1243" d="M66 678q0 -100 14 -196.5t52 -179.5t102.5 -150.5t164.5 -110.5q70 -31 144.5 -36t150.5 -5v-174h97q39 0 60 -9.5t21 -54.5q0 -39 -19 -50t-54 -11h-156v-111h174q43 0 82 5.5t68.5 22.5t46 49t16.5 85q0 55 -17.5 87t-47 49.5t-70.5 22.5t-86 5v84h369v244h-420 q-43 0 -88 5t-86 18.5t-76 39t-57 68.5q-18 33 -30.5 75t-20 86t-10.5 88t-3 83q0 98 16.5 174.5t56.5 131t109.5 82t178.5 27.5h430v244h-463q-59 0 -123 -6t-125 -21.5t-117.5 -43t-99.5 -72.5q-106 -111 -145 -254.5t-39 -290.5z" />
<glyph unicode="&#xc8;" horiz-adv-x="1253" d="M66 694q0 -92 17 -191.5t56 -189.5t103.5 -160.5t160.5 -105.5q86 -31 188.5 -39t192.5 -8h379v244h-366q-92 0 -163 12t-121 47t-80 96.5t-38 159.5h768v242h-768q6 59 15.5 116.5t46.5 104.5q41 53 98 76q45 16 113.5 20t115.5 4h379v244h-491q-80 0 -162 -11.5 t-152 -54.5q-78 -49 -134 -116.5t-91 -146.5t-51 -167t-16 -176zM393 1710l262 -242h174l-174 242h-262z" />
<glyph unicode="&#xc9;" horiz-adv-x="1253" d="M66 694q0 -92 17 -191.5t56 -189.5t103.5 -160.5t160.5 -105.5q86 -31 188.5 -39t192.5 -8h379v244h-366q-92 0 -163 12t-121 47t-80 96.5t-38 159.5h768v242h-768q6 59 15.5 116.5t46.5 104.5q41 53 98 76q45 16 113.5 20t115.5 4h379v244h-491q-80 0 -162 -11.5 t-152 -54.5q-78 -49 -134 -116.5t-91 -146.5t-51 -167t-16 -176zM590 1468h172l262 242h-262z" />
<glyph unicode="&#xca;" horiz-adv-x="1253" d="M66 694q0 -92 17 -191.5t56 -189.5t103.5 -160.5t160.5 -105.5q86 -31 188.5 -39t192.5 -8h379v244h-366q-92 0 -163 12t-121 47t-80 96.5t-38 159.5h768v242h-768q6 59 15.5 116.5t46.5 104.5q41 53 98 76q45 16 113.5 20t115.5 4h379v244h-491q-80 0 -162 -11.5 t-152 -54.5q-78 -49 -134 -116.5t-91 -146.5t-51 -167t-16 -176zM385 1468h197l127 140l118 -140h205l-215 244h-215z" />
<glyph unicode="&#xcb;" horiz-adv-x="1253" d="M66 694q0 -92 17 -191.5t56 -189.5t103.5 -160.5t160.5 -105.5q86 -31 188.5 -39t192.5 -8h379v244h-366q-92 0 -163 12t-121 47t-80 96.5t-38 159.5h768v242h-768q6 59 15.5 116.5t46.5 104.5q41 53 98 76q45 16 113.5 20t115.5 4h379v244h-491q-80 0 -162 -11.5 t-152 -54.5q-78 -49 -134 -116.5t-91 -146.5t-51 -167t-16 -176zM426 1468h219v215h-219v-215zM829 1468h218v215h-218v-215z" />
<glyph unicode="&#xcc;" horiz-adv-x="569" d="M-4 1710l262 -242h174l-174 242h-262zM139 0h291v1366h-291v-1366z" />
<glyph unicode="&#xcd;" horiz-adv-x="569" d="M137 1468h172l264 242h-264zM139 0h291v1366h-291v-1366z" />
<glyph unicode="&#xce;" horiz-adv-x="569" d="M-6 1468h176l115 140l106 -140h184l-192 244h-195zM139 0h291v1366h-291v-1366z" />
<glyph unicode="&#xcf;" horiz-adv-x="569" d="M25 1468h219v215h-219v-215zM139 0h291v1366h-291v-1366zM326 1468h219v215h-219v-215z" />
<glyph unicode="&#xd0;" horiz-adv-x="1468" d="M8 557h131v-557h580q82 0 170 3t166 28q115 37 183.5 105.5t107.5 180.5q29 82 43 179.5t14 183.5q0 57 -7 124.5t-23.5 135.5t-42 129t-62.5 109q-51 61 -114.5 99t-135.5 57.5t-147.5 25.5t-151.5 6h-580v-565h-131v-244zM430 244v313h305v244h-305v321h289 q63 0 125.5 -10t113.5 -53q37 -31 60.5 -77t38 -98.5t20.5 -104.5t6 -97q0 -41 -5 -88t-16 -94t-28.5 -91t-44.5 -75q-25 -29 -56.5 -46.5t-67.5 -27.5t-73.5 -13t-72.5 -3h-289z" />
<glyph unicode="&#xd1;" horiz-adv-x="1470" d="M139 0h279v1001l555 -1001h358v1366h-276v-1018l-543 1018h-373v-1366zM403 1479h125q4 33 18.5 59.5t53.5 26.5q31 0 65.5 -12.5t69.5 -28t73 -27.5t75 -12q49 0 81.5 20.5t54 54t33 73.5t17.5 81h-127q-6 -33 -20.5 -58.5t-53.5 -25.5q-29 0 -58.5 12.5t-61 28 t-68.5 28.5t-82 13q-53 0 -87 -19.5t-56.5 -52t-33.5 -74.5t-18 -87z" />
<glyph unicode="&#xd2;" horiz-adv-x="1480" d="M66 676q0 -74 10 -152t35.5 -150.5t67.5 -137t106 -111.5q47 -37 105.5 -61.5t120.5 -41t125.5 -23.5t123.5 -7q332 0 492.5 174t160.5 500q0 344 -159.5 526t-514.5 182q-350 0 -511.5 -177t-161.5 -521zM387 686q0 94 14.5 178t53.5 146.5t108.5 98.5t177.5 36 q106 0 175 -36t109 -98.5t54.5 -145.5t14.5 -177t-14.5 -178t-52.5 -148.5t-106.5 -102.5t-177.5 -38q-111 0 -179 37t-108 100.5t-54.5 147.5t-14.5 180zM424 1710l262 -242h174l-174 242h-262z" />
<glyph unicode="&#xd3;" horiz-adv-x="1480" d="M66 676q0 -74 10 -152t35.5 -150.5t67.5 -137t106 -111.5q47 -37 105.5 -61.5t120.5 -41t125.5 -23.5t123.5 -7q332 0 492.5 174t160.5 500q0 344 -159.5 526t-514.5 182q-350 0 -511.5 -177t-161.5 -521zM387 686q0 94 14.5 178t53.5 146.5t108.5 98.5t177.5 36 q106 0 175 -36t109 -98.5t54.5 -145.5t14.5 -177t-14.5 -178t-52.5 -148.5t-106.5 -102.5t-177.5 -38q-111 0 -179 37t-108 100.5t-54.5 147.5t-14.5 180zM621 1468h172l264 242h-264z" />
<glyph unicode="&#xd4;" horiz-adv-x="1480" d="M66 676q0 -74 10 -152t35.5 -150.5t67.5 -137t106 -111.5q47 -37 105.5 -61.5t120.5 -41t125.5 -23.5t123.5 -7q332 0 492.5 174t160.5 500q0 344 -159.5 526t-514.5 182q-350 0 -511.5 -177t-161.5 -521zM387 686q0 94 14.5 178t53.5 146.5t108.5 98.5t177.5 36 q106 0 175 -36t109 -98.5t54.5 -145.5t14.5 -177t-14.5 -178t-52.5 -148.5t-106.5 -102.5t-177.5 -38q-111 0 -179 37t-108 100.5t-54.5 147.5t-14.5 180zM418 1468h194l127 140l119 -140h205l-215 244h-215z" />
<glyph unicode="&#xd5;" horiz-adv-x="1480" d="M66 676q0 -74 10 -152t35.5 -150.5t67.5 -137t106 -111.5q47 -37 105.5 -61.5t120.5 -41t125.5 -23.5t123.5 -7q332 0 492.5 174t160.5 500q0 344 -159.5 526t-514.5 182q-350 0 -511.5 -177t-161.5 -521zM387 686q0 94 14.5 178t53.5 146.5t108.5 98.5t177.5 36 q106 0 175 -36t109 -98.5t54.5 -145.5t14.5 -177t-14.5 -178t-52.5 -148.5t-106.5 -102.5t-177.5 -38q-111 0 -179 37t-108 100.5t-54.5 147.5t-14.5 180zM408 1479h124q4 33 19.5 59.5t52.5 26.5q31 0 66 -12.5t69.5 -28t72.5 -27.5t75 -12q49 0 81.5 20.5t54 54t33 73.5 t17.5 81h-127q-6 -33 -20.5 -58.5t-53.5 -25.5q-29 0 -57.5 12.5t-61 28t-70.5 28.5t-81 13q-53 0 -87 -19.5t-56.5 -52t-33.5 -74.5t-17 -87z" />
<glyph unicode="&#xd6;" horiz-adv-x="1480" d="M66 676q0 -74 10 -152t35.5 -150.5t67.5 -137t106 -111.5q47 -37 105.5 -61.5t120.5 -41t125.5 -23.5t123.5 -7q332 0 492.5 174t160.5 500q0 344 -159.5 526t-514.5 182q-350 0 -511.5 -177t-161.5 -521zM387 686q0 94 14.5 178t53.5 146.5t108.5 98.5t177.5 36 q106 0 175 -36t109 -98.5t54.5 -145.5t14.5 -177t-14.5 -178t-52.5 -148.5t-106.5 -102.5t-177.5 -38q-111 0 -179 37t-108 100.5t-54.5 147.5t-14.5 180zM430 1468h219v215h-219v-215zM834 1468h217v215h-217v-215z" />
<glyph unicode="&#xd7;" horiz-adv-x="1474" d="M268 385l158 -158l311 312l312 -312l159 158l-311 311l311 312l-159 159l-312 -313l-311 313l-158 -159l312 -312z" />
<glyph unicode="&#xd8;" horiz-adv-x="1480" d="M66 674q0 -145 39.5 -282.5t148.5 -241.5l-125 -179h221l60 84q170 -63 352 -63q332 0 491.5 177t159.5 501q0 68 -7 140.5t-26.5 143t-51.5 135t-81 115.5l133 191h-221l-61 -88q-86 35 -176.5 51t-182.5 16q-352 0 -512.5 -178t-160.5 -522zM387 676q0 47 3 101 t15.5 107.5t35 101.5t61.5 81q49 41 110.5 59.5t126.5 18.5q51 0 100.5 -10t94.5 -35l-496 -711q-33 72 -42 140.5t-9 146.5zM567 256l486 696q27 -68 34 -131t7 -135q0 -90 -14.5 -174t-52.5 -148.5t-104.5 -103.5t-172.5 -39q-43 0 -93.5 7.5t-89.5 27.5z" />
<glyph unicode="&#xd9;" horiz-adv-x="1439" d="M125 541q0 -47 2 -93.5t10 -90.5t24.5 -87t45.5 -82q45 -61 104.5 -100t126 -60.5t139 -29.5t144.5 -8t150.5 10t151.5 36.5t133.5 73t96.5 115.5q18 35 30.5 77t20 87t10.5 89t3 83v805h-291v-819q0 -35 -1 -72t-8 -71.5t-22.5 -66.5t-46.5 -54q-45 -33 -107.5 -48.5 t-115.5 -15.5q-39 0 -80 7t-79 24.5t-69.5 43t-50.5 62.5q-23 45 -27.5 93.5t-4.5 97.5v819h-289v-825zM403 1710l263 -242h174l-174 242h-263z" />
<glyph unicode="&#xda;" horiz-adv-x="1439" d="M125 541q0 -47 2 -93.5t10 -90.5t24.5 -87t45.5 -82q45 -61 104.5 -100t126 -60.5t139 -29.5t144.5 -8t150.5 10t151.5 36.5t133.5 73t96.5 115.5q18 35 30.5 77t20 87t10.5 89t3 83v805h-291v-819q0 -35 -1 -72t-8 -71.5t-22.5 -66.5t-46.5 -54q-45 -33 -107.5 -48.5 t-115.5 -15.5q-39 0 -80 7t-79 24.5t-69.5 43t-50.5 62.5q-23 45 -27.5 93.5t-4.5 97.5v819h-289v-825zM600 1468h172l264 242h-264z" />
<glyph unicode="&#xdb;" horiz-adv-x="1439" d="M125 541q0 -47 2 -93.5t10 -90.5t24.5 -87t45.5 -82q45 -61 104.5 -100t126 -60.5t139 -29.5t144.5 -8t150.5 10t151.5 36.5t133.5 73t96.5 115.5q18 35 30.5 77t20 87t10.5 89t3 83v805h-291v-819q0 -35 -1 -72t-8 -71.5t-22.5 -66.5t-46.5 -54q-45 -33 -107.5 -48.5 t-115.5 -15.5q-39 0 -80 7t-79 24.5t-69.5 43t-50.5 62.5q-23 45 -27.5 93.5t-4.5 97.5v819h-289v-825zM397 1468h197l125 140l119 -140h204l-215 244h-215z" />
<glyph unicode="&#xdc;" horiz-adv-x="1439" d="M125 541q0 -47 2 -93.5t10 -90.5t24.5 -87t45.5 -82q45 -61 104.5 -100t126 -60.5t139 -29.5t144.5 -8t150.5 10t151.5 36.5t133.5 73t96.5 115.5q18 35 30.5 77t20 87t10.5 89t3 83v805h-291v-819q0 -35 -1 -72t-8 -71.5t-22.5 -66.5t-46.5 -54q-45 -33 -107.5 -48.5 t-115.5 -15.5q-39 0 -80 7t-79 24.5t-69.5 43t-50.5 62.5q-23 45 -27.5 93.5t-4.5 97.5v819h-289v-825zM410 1468h219v215h-219v-215zM813 1468h217v215h-217v-215z" />
<glyph unicode="&#xdd;" horiz-adv-x="1339" d="M6 1366l506 -768v-598h291v588l532 778h-344l-329 -532l-314 532h-342zM551 1468h172l264 242h-264z" />
<glyph unicode="&#xde;" horiz-adv-x="1404" d="M139 0h291v258h467q92 0 165 14.5t144 73.5q78 66 115 162t37 194q0 184 -121 322q-41 47 -88 71.5t-98.5 36t-107.5 13.5t-114 2h-399v219h-291v-1366zM430 502v401h399q25 0 54.5 -2t52.5 -10q57 -20 79.5 -71.5t22.5 -106.5q0 -113 -49 -162t-160 -49h-399z" />
<glyph unicode="&#xdf;" horiz-adv-x="1234" d="M135 0h275v725h165q39 0 78 -1t76 -11q43 -12 72.5 -37t48 -58.5t26 -72.5t7.5 -80q0 -33 -5.5 -68t-18.5 -67.5t-35.5 -58t-55.5 -40.5q-25 -10 -63.5 -14t-80.5 -5t-82 0t-65 1v-213h207q229 0 353 123t124 352q0 70 -15.5 136.5t-49 120.5t-88 91t-129.5 47 q53 43 79.5 92.5t26.5 118.5q0 80 -37 135.5t-95 90t-129 51t-138 16.5q-82 0 -167 -20.5t-151 -69.5q-82 -59 -107.5 -140t-25.5 -179v-965zM410 938v47q0 57 11 92t35.5 53.5t63.5 23.5t92 5q66 0 110 -26.5t44 -98.5q0 -35 -12.5 -54t-34 -28.5t-49 -11.5t-56.5 -2h-204z " />
<glyph unicode="&#xe0;" horiz-adv-x="1218" d="M78 295q0 -92 49 -173t143 -106q53 -14 109.5 -15t112.5 -1h606v561q0 53 -3 102.5t-20 100.5q-41 129 -131 178t-217 53q-29 0 -56.5 1t-56.5 1h-462v-213h462q47 0 86 -5t67 -22.5t42 -49t14 -84.5v-17h-336q-33 0 -71.5 -1t-78.5 -6t-77 -16.5t-63 -31.5 q-59 -45 -89 -114.5t-30 -141.5zM252 1368l272 -260h166l-184 260h-254zM358 301q0 47 30 69.5t73 22.5h362v-180h-317q-25 0 -51.5 2t-48 10t-35 25.5t-13.5 50.5z" />
<glyph unicode="&#xe1;" horiz-adv-x="1218" d="M78 295q0 -92 49 -173t143 -106q53 -14 109.5 -15t112.5 -1h606v561q0 53 -3 102.5t-20 100.5q-41 129 -131 178t-217 53q-29 0 -56.5 1t-56.5 1h-462v-213h462q47 0 86 -5t67 -22.5t42 -49t14 -84.5v-17h-336q-33 0 -71.5 -1t-78.5 -6t-77 -16.5t-63 -31.5 q-59 -45 -89 -114.5t-30 -141.5zM358 301q0 47 30 69.5t73 22.5h362v-180h-317q-25 0 -51.5 2t-48 10t-35 25.5t-13.5 50.5zM455 1108h159l269 260h-252z" />
<glyph unicode="&#xe2;" horiz-adv-x="1218" d="M78 295q0 -92 49 -173t143 -106q53 -14 109.5 -15t112.5 -1h606v561q0 53 -3 102.5t-20 100.5q-41 129 -131 178t-217 53q-29 0 -56.5 1t-56.5 1h-462v-213h462q47 0 86 -5t67 -22.5t42 -49t14 -84.5v-17h-336q-33 0 -71.5 -1t-78.5 -6t-77 -16.5t-63 -31.5 q-59 -45 -89 -114.5t-30 -141.5zM256 1108h178l135 164l125 -164h187l-207 260h-209zM358 301q0 47 30 69.5t73 22.5h362v-180h-317q-25 0 -51.5 2t-48 10t-35 25.5t-13.5 50.5z" />
<glyph unicode="&#xe3;" horiz-adv-x="1218" d="M78 295q0 -92 49 -173t143 -106q53 -14 109.5 -15t112.5 -1h606v561q0 53 -3 102.5t-20 100.5q-41 129 -131 178t-217 53q-29 0 -56.5 1t-56.5 1h-462v-213h462q47 0 86 -5t67 -22.5t42 -49t14 -84.5v-17h-336q-33 0 -71.5 -1t-78.5 -6t-77 -16.5t-63 -31.5 q-59 -45 -89 -114.5t-30 -141.5zM246 1126h102q8 31 25.5 58.5t54.5 27.5q31 0 65.5 -12t70.5 -25.5t72 -25.5t73 -12q45 0 77.5 18.5t54 49t34 68.5t18.5 77h-105q-8 -31 -24 -57.5t-53 -26.5q-31 0 -63 12t-64.5 27.5t-67.5 29t-70 13.5q-47 0 -81.5 -19.5t-58 -50.5 t-39 -71t-21.5 -81zM358 301q0 47 30 69.5t73 22.5h362v-180h-317q-25 0 -51.5 2t-48 10t-35 25.5t-13.5 50.5z" />
<glyph unicode="&#xe4;" horiz-adv-x="1218" d="M78 295q0 -92 49 -173t143 -106q53 -14 109.5 -15t112.5 -1h606v561q0 53 -3 102.5t-20 100.5q-41 129 -131 178t-217 53q-29 0 -56.5 1t-56.5 1h-462v-213h462q47 0 86 -5t67 -22.5t42 -49t14 -84.5v-17h-336q-33 0 -71.5 -1t-78.5 -6t-77 -16.5t-63 -31.5 q-59 -45 -89 -114.5t-30 -141.5zM270 1108h211v217h-211v-217zM358 301q0 47 30 69.5t73 22.5h362v-180h-317q-25 0 -51.5 2t-48 10t-35 25.5t-13.5 50.5zM655 1108h213v217h-213v-217z" />
<glyph unicode="&#xe5;" horiz-adv-x="1218" d="M78 295q0 -92 49 -173t143 -106q53 -14 109.5 -15t112.5 -1h606v561q0 53 -3 102.5t-20 100.5q-41 129 -131 178t-217 53q-29 0 -56.5 1t-56.5 1h-462v-213h462q47 0 86 -5t67 -22.5t42 -49t14 -84.5v-17h-336q-33 0 -71.5 -1t-78.5 -6t-77 -16.5t-63 -31.5 q-59 -45 -89 -114.5t-30 -141.5zM358 301q0 47 30 69.5t73 22.5h362v-180h-317q-25 0 -51.5 2t-48 10t-35 25.5t-13.5 50.5zM362 1313q0 -43 16.5 -81t45.5 -65.5t65.5 -43t79.5 -15.5q86 0 145.5 59.5t59.5 145.5q0 43 -16.5 80t-44 65.5t-64.5 45t-80 16.5t-80.5 -16.5 t-65.5 -44t-44.5 -65.5t-16.5 -81zM471 1313q0 41 28.5 69.5t69.5 28.5t69 -28.5t28 -69.5t-28 -68.5t-69 -27.5t-69.5 27.5t-28.5 68.5z" />
<glyph unicode="&#xe6;" horiz-adv-x="1767" d="M78 295q0 -92 49 -172t143 -107q53 -14 109.5 -15t109.5 -1h1188v213h-336q-53 0 -95 6t-72.5 25.5t-50 55.5t-23.5 93h577v213h-577q8 106 58 142t155 36h364v213h-385q-90 0 -164.5 -14t-150.5 -65q-25 23 -46.5 38t-56.5 23q-57 14 -115.5 16t-115.5 2h-491v-213h462 q47 0 86 -5t67 -22.5t42 -49t14 -84.5v-17h-336q-33 0 -71.5 -1t-78.5 -6t-77 -16.5t-63 -31.5q-59 -45 -89 -114.5t-30 -141.5zM358 301q0 47 30 69.5t73 22.5h362v-180h-317q-25 0 -51.5 2t-48 10t-35 25.5t-13.5 50.5z" />
<glyph unicode="&#xe7;" horiz-adv-x="1044" d="M68 500q0 -104 29.5 -194.5t99.5 -168.5q41 -47 84 -73.5t90 -41t99 -18.5t112 -4v-174h86q35 0 51 -9.5t16 -45.5q0 -33 -14 -45.5t-45 -12.5h-141v-100h157q39 0 75 5t62.5 20.5t43 44t16.5 75.5t-20.5 85t-67.5 55q-29 10 -58 10h-57v92h281v213h-295q-53 0 -100.5 5 t-94.5 30q-74 39 -101.5 105.5t-27.5 144.5q0 154 68.5 220t222.5 66h328v213h-375q-98 0 -195.5 -16t-175.5 -82q-86 -76 -119.5 -182.5t-33.5 -216.5z" />
<glyph unicode="&#xe8;" horiz-adv-x="1040" d="M68 510q0 -123 41 -231.5t141 -184.5q78 -59 156.5 -76.5t177.5 -17.5h366v213h-336q-53 0 -95 6t-73.5 25.5t-50 55.5t-22.5 93h577v213h-577q8 106 57 142t154 36h366v213h-385q-78 0 -156.5 -13t-144.5 -58q-51 -35 -88 -82t-61.5 -101.5t-35.5 -115t-11 -117.5z M258 1368l272 -260h164l-182 260h-254z" />
<glyph unicode="&#xe9;" horiz-adv-x="1040" d="M68 510q0 -123 41 -231.5t141 -184.5q78 -59 156.5 -76.5t177.5 -17.5h366v213h-336q-53 0 -95 6t-73.5 25.5t-50 55.5t-22.5 93h577v213h-577q8 106 57 142t154 36h366v213h-385q-78 0 -156.5 -13t-144.5 -58q-51 -35 -88 -82t-61.5 -101.5t-35.5 -115t-11 -117.5z M461 1108h160l266 260h-252z" />
<glyph unicode="&#xea;" horiz-adv-x="1040" d="M68 510q0 -123 41 -231.5t141 -184.5q78 -59 156.5 -76.5t177.5 -17.5h366v213h-336q-53 0 -95 6t-73.5 25.5t-50 55.5t-22.5 93h577v213h-577q8 106 57 142t154 36h366v213h-385q-78 0 -156.5 -13t-144.5 -58q-51 -35 -88 -82t-61.5 -101.5t-35.5 -115t-11 -117.5z M262 1108h178l135 164l125 -164h187l-207 260h-209z" />
<glyph unicode="&#xeb;" horiz-adv-x="1040" d="M68 510q0 -123 41 -231.5t141 -184.5q78 -59 156.5 -76.5t177.5 -17.5h366v213h-336q-53 0 -95 6t-73.5 25.5t-50 55.5t-22.5 93h577v213h-577q8 106 57 142t154 36h366v213h-385q-78 0 -156.5 -13t-144.5 -58q-51 -35 -88 -82t-61.5 -101.5t-35.5 -115t-11 -117.5z M276 1108h211v217h-211v-217zM662 1108h210v217h-210v-217z" />
<glyph unicode="&#xec;" horiz-adv-x="544" d="M-16 1368l272 -260h164l-182 260h-254zM135 0h275v997h-275v-997z" />
<glyph unicode="&#xed;" horiz-adv-x="544" d="M131 1108h160l268 260h-252zM135 0h275v997h-275v-997z" />
<glyph unicode="&#xee;" horiz-adv-x="544" d="M-8 1108h160l120 164l113 -164h168l-186 260h-189zM135 0h275v997h-275v-997z" />
<glyph unicode="&#xef;" horiz-adv-x="544" d="M20 1108h211v217h-211v-217zM135 0h275v997h-275v-997zM313 1108h211v217h-211v-217z" />
<glyph unicode="&#xf0;" horiz-adv-x="1196" d="M68 502q0 -248 139 -382t387 -134q96 0 197.5 25.5t173.5 94.5q88 86 124.5 199t36.5 234q0 242 -120.5 424t-333.5 290q-6 4 -11.5 5.5t-9.5 5.5l162 108l-78 115l-239 -162q-70 25 -142.5 45.5t-146.5 32.5l-62 -162q39 -10 77 -21.5t75 -27.5l-121 -82l78 -115 l199 133q53 -27 99 -55.5t93 -64.5q-20 2 -38.5 3t-39.5 1q-113 0 -205 -38t-157.5 -105.5t-101 -162t-35.5 -204.5zM348 496q0 63 11.5 119.5t40 98.5t76.5 65.5t120 23.5q70 0 117 -23.5t75.5 -64.5t41 -96.5t12.5 -116.5t-11.5 -117.5t-40 -97.5t-75.5 -65.5t-117 -24.5 t-118 22.5t-76.5 62.5t-42 95t-13.5 119z" />
<glyph unicode="&#xf1;" horiz-adv-x="1183" d="M135 0h275v784h237q76 0 108.5 -31.5t32.5 -107.5v-645h275v612q0 199 -91 292t-290 93h-547v-997zM229 1126h103q8 31 24.5 58.5t53.5 27.5q33 0 67.5 -12t69.5 -25.5t71.5 -25.5t73.5 -12q45 0 77 19.5t53.5 50t35 68.5t19.5 75h-105q-10 -31 -26.5 -57.5t-53.5 -26.5 q-31 0 -62.5 12t-64.5 27.5t-67.5 29t-69.5 13.5q-47 0 -82 -19.5t-58.5 -50.5t-37.5 -71t-21 -81z" />
<glyph unicode="&#xf2;" horiz-adv-x="1191" d="M68 508q0 -250 137 -386t387 -136q117 0 214 32.5t167.5 96t110.5 156.5t40 214q0 252 -140 389.5t-390 137.5q-115 0 -212 -35t-167 -99.5t-108.5 -158.5t-38.5 -211zM281 1368l272 -260h164l-182 260h-254zM348 492q0 66 11.5 122t39 98t75.5 66.5t122 24.5 q70 0 118 -23.5t76.5 -64.5t41 -96.5t12.5 -118.5q0 -61 -11.5 -117.5t-40 -97.5t-75.5 -65.5t-117 -24.5t-118 22.5t-77.5 62t-43 94t-13.5 118.5z" />
<glyph unicode="&#xf3;" horiz-adv-x="1191" d="M68 508q0 -250 137 -386t387 -136q117 0 214 32.5t167.5 96t110.5 156.5t40 214q0 252 -140 389.5t-390 137.5q-115 0 -212 -35t-167 -99.5t-108.5 -158.5t-38.5 -211zM348 492q0 66 11.5 122t39 98t75.5 66.5t122 24.5q70 0 118 -23.5t76.5 -64.5t41 -96.5t12.5 -118.5 q0 -61 -11.5 -117.5t-40 -97.5t-75.5 -65.5t-117 -24.5t-118 22.5t-77.5 62t-43 94t-13.5 118.5zM481 1108h160l268 260h-252z" />
<glyph unicode="&#xf4;" horiz-adv-x="1191" d="M68 508q0 -250 137 -386t387 -136q117 0 214 32.5t167.5 96t110.5 156.5t40 214q0 252 -140 389.5t-390 137.5q-115 0 -212 -35t-167 -99.5t-108.5 -158.5t-38.5 -211zM285 1108h176l135 164l127 -164h186l-209 260h-208zM348 492q0 66 11.5 122t39 98t75.5 66.5 t122 24.5q70 0 118 -23.5t76.5 -64.5t41 -96.5t12.5 -118.5q0 -61 -11.5 -117.5t-40 -97.5t-75.5 -65.5t-117 -24.5t-118 22.5t-77.5 62t-43 94t-13.5 118.5z" />
<glyph unicode="&#xf5;" horiz-adv-x="1191" d="M68 508q0 -250 137 -386t387 -136q117 0 214 32.5t167.5 96t110.5 156.5t40 214q0 252 -140 389.5t-390 137.5q-115 0 -212 -35t-167 -99.5t-108.5 -158.5t-38.5 -211zM272 1126h103q8 31 25.5 58.5t54.5 27.5q33 0 67.5 -12t69.5 -25.5t70.5 -25.5t72.5 -12 q45 0 78 18.5t54.5 49t35 68.5t19.5 77h-107q-8 -31 -24.5 -57.5t-53.5 -26.5q-31 0 -63.5 12t-65.5 27.5t-66.5 29t-68.5 13.5q-47 0 -82 -19.5t-58.5 -50.5t-38.5 -71t-22 -81zM348 492q0 66 11.5 122t39 98t75.5 66.5t122 24.5q70 0 118 -23.5t76.5 -64.5t41 -96.5 t12.5 -118.5q0 -61 -11.5 -117.5t-40 -97.5t-75.5 -65.5t-117 -24.5t-118 22.5t-77.5 62t-43 94t-13.5 118.5z" />
<glyph unicode="&#xf6;" horiz-adv-x="1191" d="M68 508q0 -250 137 -386t387 -136q117 0 214 32.5t167.5 96t110.5 156.5t40 214q0 252 -140 389.5t-390 137.5q-115 0 -212 -35t-167 -99.5t-108.5 -158.5t-38.5 -211zM297 1108h213v217h-213v-217zM348 492q0 66 11.5 122t39 98t75.5 66.5t122 24.5q70 0 118 -23.5 t76.5 -64.5t41 -96.5t12.5 -118.5q0 -61 -11.5 -117.5t-40 -97.5t-75.5 -65.5t-117 -24.5t-118 22.5t-77.5 62t-43 94t-13.5 118.5zM684 1108h211v217h-211v-217z" />
<glyph unicode="&#xf7;" d="M68 573h888v246h-888v-246zM358 348q0 -63 45.5 -108t108.5 -45t107.5 45t44.5 108t-44.5 107.5t-107.5 44.5t-108.5 -44t-45.5 -108zM358 1044q0 -63 45.5 -108t108.5 -45t107.5 45t44.5 108t-44.5 107.5t-107.5 44.5t-108.5 -44t-45.5 -108z" />
<glyph unicode="&#xf8;" horiz-adv-x="1191" d="M68 502q0 -106 31.5 -210t113.5 -177l-102 -148h196l43 62q57 -23 118.5 -33t123.5 -10q117 0 215 32.5t169 96t109.5 157.5t38.5 215q0 117 -34.5 213.5t-114.5 182.5l102 145h-196l-41 -59q-57 23 -122 33t-126 10q-117 0 -213 -36t-166 -101.5t-107.5 -159.5 t-37.5 -213zM350 492q0 61 10.5 117.5t38 99.5t73.5 68.5t118 25.5q57 -1 106 -19l-319 -456q-18 41 -22.5 79.5t-4.5 84.5zM492 213l321 459q20 -43 25.5 -85t5.5 -89q0 -63 -12.5 -118.5t-40 -96.5t-75.5 -64.5t-118 -23.5q-55 0 -106 18z" />
<glyph unicode="&#xf9;" horiz-adv-x="1196" d="M121 383q0 -174 82 -278.5t266 -104.5h592v997h-275v-784h-258q-66 0 -99.5 40t-33.5 103v641h-274v-614zM281 1368l274 -260h164l-184 260h-254z" />
<glyph unicode="&#xfa;" horiz-adv-x="1196" d="M121 383q0 -174 82 -278.5t266 -104.5h592v997h-275v-784h-258q-66 0 -99.5 40t-33.5 103v641h-274v-614zM483 1108h160l268 260h-252z" />
<glyph unicode="&#xfb;" horiz-adv-x="1196" d="M121 383q0 -174 82 -278.5t266 -104.5h592v997h-275v-784h-258q-66 0 -99.5 40t-33.5 103v641h-274v-614zM285 1108h178l135 164l125 -164h186l-207 260h-208z" />
<glyph unicode="&#xfc;" horiz-adv-x="1196" d="M121 383q0 -174 82 -278.5t266 -104.5h592v997h-275v-784h-258q-66 0 -99.5 40t-33.5 103v641h-274v-614zM299 1108h213v217h-213v-217zM684 1108h213v217h-213v-217z" />
<glyph unicode="&#xfd;" horiz-adv-x="1175" d="M121 -141v-213h489q98 0 178 17.5t135.5 60.5t85 115t29.5 181v977h-274v-784h-225q-23 0 -46.5 3t-41.5 17q-23 14 -34 44t-16.5 65t-5.5 68v57v530h-274v-557q0 -47 1 -92t9 -87t26.5 -82t53.5 -77q66 -70 142.5 -86t166.5 -16h244l-2 -37q-2 -31 -9.5 -54.5 t-39.5 -35.5q-18 -8 -50 -11t-53 -3h-489zM473 1108h160l268 258h-252z" />
<glyph unicode="&#xfe;" horiz-adv-x="1208" d="M135 -375h275v375h241q104 0 193.5 25.5t165.5 103.5q70 72 100.5 164t30.5 190q0 123 -40 237t-138 191q-80 63 -165 74.5t-184 11.5h-204v369h-275v-1741zM410 213v571h188q133 0 197.5 -75.5t64.5 -204.5q0 -143 -68.5 -217t-213.5 -74h-168z" />
<glyph unicode="&#xff;" horiz-adv-x="1175" d="M121 -141v-213h489q45 0 91.5 3t89.5 13t81.5 29.5t73.5 54.5q57 57 75.5 126.5t18.5 147.5v977h-274v-784h-227q-47 0 -81 17.5t-48 66.5q-10 41 -12.5 85t-2.5 85v530h-274v-575q0 -49 2 -99.5t18 -97.5q35 -111 117 -164t195 -59q78 -4 156.5 -3t156.5 1 q-2 -10 -3 -18.5t-1 -18.5q-4 -43 -15.5 -65.5t-58.5 -32.5q-41 -6 -78 -6h-489zM289 1108h211v217h-211v-217zM674 1108h213v217h-213v-217z" />
<glyph unicode="&#x152;" horiz-adv-x="2277" d="M66 676q0 -74 11 -152t36.5 -151.5t67.5 -137t104 -110.5q47 -37 105.5 -61.5t120.5 -41t125.5 -23.5t123.5 -7q66 0 134.5 9t134 29.5t123.5 54.5t105 85q57 -61 120 -96t132.5 -51.5t144.5 -19.5t154 -3h379v244h-366q-92 0 -163 12t-121 47t-80 96.5t-38 159.5h768 v242h-768q6 59 15.5 116.5t46.5 104.5q41 53 98 76q20 8 51 13t62.5 7t62.5 3t53 1h379v244h-491q-70 0 -129.5 -7t-112.5 -25.5t-101 -52.5t-96 -87q-47 51 -108.5 86t-131 55.5t-141 29.5t-137.5 9q-350 0 -511.5 -177t-161.5 -521zM387 686q0 94 14.5 178t53.5 146.5 t108.5 98.5t177.5 36q106 0 175 -36t109 -98.5t54.5 -145.5t14.5 -177t-14.5 -178t-52.5 -148.5t-106.5 -102.5t-177.5 -38q-111 0 -179 37t-108 100.5t-54.5 147.5t-14.5 180z" />
<glyph unicode="&#x153;" horiz-adv-x="1837" d="M68 502q0 -248 139 -382t385 -134q111 0 219.5 33.5t185.5 117.5q43 -43 86 -69.5t89.5 -42t97.5 -20.5t110 -5h367v213h-336q-53 0 -95 6t-74 25.5t-50 55.5t-23 93h578v213h-578q8 106 57.5 142t153.5 36h367v213h-385q-109 0 -202 -24.5t-169 -108.5 q-76 84 -183.5 116t-215.5 32q-117 0 -213 -36t-166 -101.5t-107.5 -159.5t-37.5 -213zM348 492q0 63 11.5 119.5t40 99.5t76.5 67.5t120 24.5q70 0 118 -23.5t76.5 -64.5t41 -96.5t12.5 -118.5t-12.5 -118.5t-41 -97.5t-75.5 -65.5t-119 -23.5q-70 0 -117 22.5t-76.5 62 t-42 94t-12.5 118.5z" />
<glyph unicode="&#x178;" horiz-adv-x="1339" d="M6 1366l504 -768v-598h291v588l532 778h-344l-330 -535l-313 535h-340zM358 1468h220v215h-220v-215zM762 1468h219v215h-219v-215z" />
<glyph unicode="&#x2c6;" d="M199 1108h178l135 164l127 -164h186l-209 260h-208z" />
<glyph unicode="&#x2dc;" d="M188 1126h103q8 31 25.5 58.5t54.5 27.5q33 0 67.5 -12t69.5 -25.5t70.5 -25.5t72.5 -12q45 0 78 18.5t54.5 49t34 68.5t18.5 77h-105q-8 -31 -24.5 -57.5t-53.5 -26.5q-31 0 -62.5 12t-64 27.5t-66.5 29t-71 13.5q-47 0 -82 -19.5t-58.5 -50.5t-38.5 -71t-22 -81z" />
<glyph unicode="&#x2000;" horiz-adv-x="944" />
<glyph unicode="&#x2001;" horiz-adv-x="1888" />
<glyph unicode="&#x2002;" horiz-adv-x="944" />
<glyph unicode="&#x2003;" horiz-adv-x="1888" />
<glyph unicode="&#x2004;" horiz-adv-x="629" />
<glyph unicode="&#x2005;" horiz-adv-x="472" />
<glyph unicode="&#x2006;" horiz-adv-x="314" />
<glyph unicode="&#x2007;" horiz-adv-x="314" />
<glyph unicode="&#x2008;" horiz-adv-x="236" />
<glyph unicode="&#x2009;" horiz-adv-x="377" />
<glyph unicode="&#x200a;" horiz-adv-x="104" />
<glyph unicode="&#x2010;" horiz-adv-x="477" d="M0 406h477v245h-477v-245z" />
<glyph unicode="&#x2011;" horiz-adv-x="477" d="M0 406h477v245h-477v-245z" />
<glyph unicode="&#x2012;" horiz-adv-x="477" d="M0 406h477v245h-477v-245z" />
<glyph unicode="&#x2013;" d="M68 573h888v246h-888v-246z" />
<glyph unicode="&#x2014;" horiz-adv-x="1427" d="M0 446h1427v205h-1427v-205z" />
<glyph unicode="&#x2018;" horiz-adv-x="479" d="M104 819h250v266h-90l125 281h-125l-160 -309v-238z" />
<glyph unicode="&#x2019;" horiz-adv-x="479" d="M90 819h125l158 309v238h-248v-266h90z" />
<glyph unicode="&#x201a;" horiz-adv-x="479" d="M90 -281h125l158 310v237h-248v-266h90z" />
<glyph unicode="&#x201c;" horiz-adv-x="876" d="M104 819h250v266h-90l125 281h-125l-160 -309v-238zM504 819h248v266h-90l124 281h-124l-158 -309v-238z" />
<glyph unicode="&#x201d;" horiz-adv-x="876" d="M90 819h125l158 309v238h-248v-266h90zM487 819h125l160 309v238h-250v-266h90z" />
<glyph unicode="&#x201e;" horiz-adv-x="876" d="M90 -281h125l158 310v237h-248v-266h90zM487 -281h125l160 310v237h-250v-266h90z" />
<glyph unicode="&#x2022;" horiz-adv-x="1366" d="M401 696q0 -59 21.5 -110t60.5 -91t90.5 -62.5t110.5 -22.5q57 0 108.5 23.5t90.5 62.5t60.5 91t21.5 109t-21.5 109.5t-60.5 91.5t-90.5 62.5t-108.5 23.5q-59 0 -110.5 -22.5t-90.5 -62.5t-60.5 -92t-21.5 -110z" />
<glyph unicode="&#x2026;" horiz-adv-x="1376" d="M104 0h250v266h-250v-266zM563 0h250v266h-250v-266zM1022 0h248v266h-248v-266z" />
<glyph unicode="&#x202f;" horiz-adv-x="377" />
<glyph unicode="&#x2039;" horiz-adv-x="460" d="M86 367l272 -215v243l-143 97l143 100v244l-272 -222v-247z" />
<glyph unicode="&#x203a;" horiz-adv-x="460" d="M102 152l273 215v247l-273 222v-244l144 -100l-144 -97v-243z" />
<glyph unicode="&#x205f;" horiz-adv-x="472" />
<glyph unicode="&#x2122;" horiz-adv-x="1839" d="M6 1219h262v-619h187v619h270v147h-719v-147zM813 600h180v533l191 -533h188l203 535v-535h180v766h-266l-209 -573l-201 573h-266v-766z" />
<glyph unicode="&#x25fc;" horiz-adv-x="993" d="M0 0v993h993v-993h-993z" />
</font>
</defs>
</svg>
