<?xml version="1.0" standalone="no"?>
<!DOCTYPE svg PUBLIC "-//W3C//DTD SVG 1.1//EN" "http://www.w3.org/Graphics/SVG/1.1/DTD/svg11.dtd" >
<svg xmlns="http://www.w3.org/2000/svg" xmlns:xlink="http://www.w3.org/1999/xlink" version="1.1">
<metadata></metadata>
<defs>
<font id="fira_sansmedium" horiz-adv-x="1196" >
<font-face units-per-em="2048" ascent="1608" descent="-440" />
<missing-glyph horiz-adv-x="512" />
<glyph unicode="&#xfb01;" horiz-adv-x="1212" d="M20 895v188h168v115q0 158 103.5 253t314.5 95q172 0 332 -78l-80 -174q-111 52 -227 52q-102 0 -141 -36t-39 -116v-111h604v-1083h-262v895h-342v-895h-263v895h-168z" />
<glyph unicode="&#xfb02;" horiz-adv-x="1263" d="M20 895v188h168v119q0 154 101.5 249t292.5 95q114 0 243 -39l244 27v-1270q0 -44 14.5 -64t46.5 -20q33 0 60 10l57 -184q-85 -37 -186 -37q-122 0 -188 71.5t-66 205.5v1075q-99 29 -191 29q-93 0 -129 -35t-36 -115v-117h233l-31 -188h-202v-895h-263v895h-168z" />
<glyph horiz-adv-x="0" />
<glyph horiz-adv-x="682" />
<glyph unicode="&#xd;" horiz-adv-x="512" />
<glyph unicode=" "  horiz-adv-x="512" />
<glyph unicode="&#x09;" horiz-adv-x="512" />
<glyph unicode="&#xa0;" horiz-adv-x="512" />
<glyph unicode="!" horiz-adv-x="493" d="M80 135q0 69 48.5 117.5t117.5 48.5q70 0 118 -48.5t48 -117.5q0 -68 -48 -117t-118 -49q-69 0 -117.5 49t-48.5 117zM102 1415h283l-31 -915h-219z" />
<glyph unicode="&#x22;" horiz-adv-x="862" d="M109 1415h251l-34 -555h-181zM502 1415h252l-37 -555h-180z" />
<glyph unicode="#" horiz-adv-x="1103" d="M31 311v181h145l55 415h-125v183h150l37 288h219l-39 -288h256l39 288h219l-39 -288h125v-183h-147l-56 -415h127v-181h-151l-41 -311h-219l41 311h-256l-41 -311h-217l41 311h-123zM395 492h256l56 415h-256z" />
<glyph unicode="$" horiz-adv-x="1107" d="M35 164l139 153q148 -139 346 -139q112 0 182 53t70 150q0 87 -55.5 134.5t-214.5 96.5q-218 66 -315 161.5t-97 248.5q0 150 103.5 249.5t273.5 121.5v301h201v-301q193 -25 336 -162l-134 -150q-130 119 -301 119q-95 0 -153 -42.5t-58 -119.5q0 -74 56.5 -117.5 t224.5 -95.5q98 -31 165.5 -64t124.5 -82.5t85 -120t28 -163.5q0 -157 -98 -265t-276 -140v-314h-201v304q-261 17 -432 184z" />
<glyph unicode="%" horiz-adv-x="1728" d="M76 1044q0 162 99 260.5t249 98.5q152 0 251 -98.5t99 -260.5t-99 -260t-251 -98q-151 0 -249.5 98.5t-98.5 259.5zM276 1044q0 -84 34 -139t114 -55q147 0 147 194q0 195 -147 195q-42 0 -72 -16t-46 -45t-23 -61.5t-7 -72.5zM307 35l948 1431l170 -108l-950 -1432z M954 328q0 161 99.5 259.5t251.5 98.5t250 -98t98 -260t-98 -260.5t-250 -98.5t-251.5 98.5t-99.5 260.5zM1157 328q0 -84 34 -139.5t114 -55.5q147 0 147 195q0 194 -147 194q-148 0 -148 -194z" />
<glyph unicode="&#x26;" horiz-adv-x="1593" d="M141 360q0 125 70 218.5t213 185.5q-108 104 -153.5 180t-45.5 172q0 140 106.5 235t299.5 95q186 0 297.5 -90.5t111.5 -229.5q0 -63 -20.5 -118.5t-61 -102.5t-86.5 -84.5t-110 -77.5l315 -297q68 146 109 320l227 -68q-77 -232 -186 -391l239 -217l-211 -121l-178 172 q-184 -172 -450 -172q-217 0 -351.5 107t-134.5 284zM416 373q0 -96 68.5 -152.5t183.5 -56.5q150 0 270 108l-365 351q-82 -56 -119.5 -115.5t-37.5 -134.5zM479 1116q0 -61 31.5 -111.5t105.5 -121.5q87 56 129.5 110t42.5 123q0 71 -41.5 111.5t-113.5 40.5t-113 -41.5 t-41 -110.5z" />
<glyph unicode="'" horiz-adv-x="471" d="M109 1415h251l-34 -555h-181z" />
<glyph unicode="(" horiz-adv-x="663" d="M57 717q0 102 12 197t28.5 168.5t50 156t59 135t75 130.5t78 119t86.5 122l168 -113q-151 -217 -219.5 -420.5t-68.5 -494.5q0 -198 34.5 -359.5t94 -287t159.5 -269.5l-168 -112q-58 81 -86.5 122t-78 119t-75 130.5t-59 135t-50 156t-28.5 168.5t-12 197z" />
<glyph unicode=")" horiz-adv-x="663" d="M51 -199q100 145 159.5 269.5t94.5 286.5t35 360q0 290 -69 493t-220 422l166 113q57 -78 87.5 -121.5t78.5 -119.5t74.5 -130.5t59 -135.5t49 -155t28.5 -169t12 -197t-12 -197t-28.5 -169t-49 -155t-59 -135.5t-74.5 -130.5t-78.5 -119.5t-87.5 -121.5z" />
<glyph unicode="*" horiz-adv-x="909" d="M27 1120l71 217l275 -129l-37 310h237l-36 -310l272 131l74 -219l-301 -57l211 -221l-191 -140l-147 267l-146 -267l-190 138l207 225z" />
<glyph unicode="+" horiz-adv-x="1056" d="M113 575v207h303v314h225v-314h305v-207h-305v-313h-225v313h-303z" />
<glyph unicode="," horiz-adv-x="491" d="M66 -352l84 352q-70 48 -70 137q0 69 47.5 116.5t116.5 47.5q72 0 120 -47.5t48 -118.5q0 -64 -54 -184l-133 -303h-159z" />
<glyph unicode="-" horiz-adv-x="829" d="M106 537v208h619v-208h-619z" />
<glyph unicode="." horiz-adv-x="491" d="M80 135q0 69 47.5 117.5t116.5 48.5q70 0 119 -48.5t49 -117.5q0 -68 -49 -117t-119 -49q-68 0 -116 49t-48 117z" />
<glyph unicode="/" horiz-adv-x="1064" d="M180 -168l479 1831l226 -51l-477 -1833z" />
<glyph unicode="0" horiz-adv-x="1173" d="M92 688q0 346 126 530.5t368 184.5q243 0 368 -184t125 -531q0 -348 -125 -533.5t-368 -185.5q-242 0 -368 185.5t-126 533.5zM362 688q0 -283 53.5 -401.5t170.5 -118.5q78 0 126 48.5t72.5 163.5t24.5 308q0 192 -24.5 306t-72.5 162t-126 48q-117 0 -170.5 -118 t-53.5 -398z" />
<glyph unicode="1" horiz-adv-x="921" d="M47 1104l449 274h231v-1378h-258v1114l-307 -186z" />
<glyph unicode="2" horiz-adv-x="1038" d="M31 1178q175 225 446 225q208 0 328.5 -110t120.5 -277q0 -89 -26 -166.5t-95.5 -174.5t-169 -202t-268.5 -266h589l-28 -207h-858v193q133 136 208.5 214t151 162t111 132.5t66 103.5t39.5 97.5t9 92.5q0 94 -54 147.5t-144 53.5q-80 0 -139.5 -34t-124.5 -111z" />
<glyph unicode="3" horiz-adv-x="1044" d="M10 168l150 141q121 -135 282 -135q111 0 177.5 62.5t66.5 169.5q0 118 -62.5 169.5t-185.5 51.5h-108l30 186h74q99 0 160 55t61 154q0 84 -54.5 132t-147.5 48q-150 0 -277 -121l-133 146q185 176 432 176q205 0 320.5 -100t115.5 -250q0 -126 -71.5 -208.5 t-196.5 -115.5q138 -13 225.5 -98.5t87.5 -237.5q0 -183 -134.5 -303.5t-364.5 -120.5q-283 0 -447 199z" />
<glyph unicode="4" horiz-adv-x="1126" d="M68 315v181l401 909l223 -84l-352 -805h315l27 346h227v-346h166v-201h-166v-315h-256v315h-585z" />
<glyph unicode="5" horiz-adv-x="1064" d="M39 164l151 141q114 -133 277 -133q117 0 183.5 72.5t66.5 204.5q0 256 -221 256q-87 0 -179 -48h-186v721h799l-31 -194h-516v-342q102 51 209 51q176 0 285.5 -118.5t109.5 -325.5q0 -214 -141 -347t-373 -133q-257 0 -434 195z" />
<glyph unicode="6" horiz-adv-x="1126" d="M92 637q0 230 68 403t196 268t301 95q168 0 301 -88l-98 -162q-93 55 -198 55q-130 0 -209.5 -117.5t-90.5 -324.5q126 152 310 152q168 0 278.5 -118.5t110.5 -330.5q0 -218 -131.5 -359t-339.5 -141q-129 0 -226 48.5t-155.5 138t-87.5 210t-29 271.5zM365 586 q3 -223 55 -322.5t170 -99.5q102 0 154.5 81t52.5 220q0 141 -48 201.5t-141 60.5q-69 0 -132 -37.5t-111 -103.5z" />
<glyph unicode="7" horiz-adv-x="935" d="M37 1176v202h852v-184l-510 -1221l-240 78l479 1125h-581z" />
<glyph unicode="8" horiz-adv-x="1161" d="M76 367q0 236 262 348q-207 113 -207 325q0 109 61.5 193t163.5 127t226 43t225 -39.5t163 -120.5t62 -192q0 -196 -227 -312q282 -126 282 -368q0 -172 -141 -287t-371 -115q-227 0 -363 113.5t-136 284.5zM340 375q0 -98 65.5 -154.5t176.5 -56.5q113 0 176 57.5 t63 149.5q0 94 -55 148t-197 106l-63 22q-166 -88 -166 -272zM385 1036q0 -83 49.5 -130t157.5 -87l39 -14q80 50 113.5 104t33.5 129q0 84 -50.5 132.5t-145.5 48.5q-91 0 -144 -47t-53 -136z" />
<glyph unicode="9" horiz-adv-x="1114" d="M72 936q0 141 64.5 248.5t172.5 163t242 55.5q233 0 358 -145t125 -390q0 -212 -46.5 -364t-149 -259.5t-247.5 -176t-360 -119.5l-55 186q270 71 410.5 185t167.5 311q-113 -144 -295 -144q-165 0 -276 122.5t-111 326.5zM334 940q0 -134 53.5 -198t142.5 -64 q140 0 236 141q3 211 -47.5 300t-167.5 89q-102 0 -159.5 -69t-57.5 -199z" />
<glyph unicode=":" horiz-adv-x="491" d="M80 135q0 69 47.5 117.5t116.5 48.5q70 0 119 -48.5t49 -117.5q0 -68 -49 -117t-119 -49q-68 0 -116 49t-48 117zM80 864q0 68 48 117t116 49q70 0 119 -49t49 -117q0 -69 -49 -117.5t-119 -48.5q-69 0 -116.5 48.5t-47.5 117.5z" />
<glyph unicode=";" horiz-adv-x="491" d="M66 -352l84 352q-70 48 -70 137q0 69 47.5 116.5t116.5 47.5q72 0 120 -47.5t48 -118.5q0 -64 -54 -184l-133 -303h-159zM80 864q0 68 48 117t116 49q70 0 119 -49t49 -117q0 -69 -49 -117.5t-119 -48.5q-69 0 -116.5 48.5t-47.5 117.5z" />
<glyph unicode="&#x3c;" horiz-adv-x="1044" d="M86 559v244l788 354l87 -194l-658 -281l658 -276l-87 -199z" />
<glyph unicode="=" horiz-adv-x="1044" d="M113 367v208h821v-208h-821zM113 782v207h821v-207h-821z" />
<glyph unicode="&#x3e;" horiz-adv-x="1044" d="M86 406l655 276l-655 281l86 194l789 -354v-244l-789 -352z" />
<glyph unicode="?" horiz-adv-x="964" d="M45 1235q180 211 453 211q201 0 312.5 -96.5t111.5 -235.5q0 -67 -20.5 -120.5t-53 -89t-72.5 -65t-79.5 -56t-72 -55t-53 -69t-20.5 -90.5v-69h-244v80q0 71 19 128t48.5 93.5t66 66.5t73 53.5t66 47t48.5 55t19 70.5q0 67 -46 105t-126 38q-146 0 -260 -135zM268 135 q0 69 47.5 117.5t116.5 48.5q70 0 119 -48.5t49 -117.5q0 -68 -49 -117t-119 -49q-68 0 -116 49t-48 117z" />
<glyph unicode="@" horiz-adv-x="2088" d="M119 494q0 135 32 260t91 230t145 191t191 146t232.5 92.5t266.5 32.5q169 0 314.5 -43t250.5 -119t179.5 -178t111.5 -220.5t37 -246.5q0 -179 -49 -319.5t-147.5 -224t-231.5 -83.5q-114 0 -181 62.5t-87 148.5q-39 -91 -112 -148t-181 -57q-176 0 -270.5 125.5 t-94.5 331.5q0 256 124 400.5t339 144.5q174 0 340 -88v-516q0 -127 27.5 -177.5t87.5 -50.5q190 0 190 447q0 288 -164 450t-483 162q-221 0 -383.5 -97t-245.5 -266.5t-83 -389.5q0 -223 81 -388.5t243.5 -258.5t389.5 -93q197 0 398 72l65 -188q-225 -84 -465 -84 q-285 0 -502.5 115t-336.5 328.5t-119 496.5zM858 475q0 -146 38.5 -214t117.5 -68q123 0 178 137v491q-58 25 -117 25q-217 0 -217 -371z" />
<glyph unicode="A" horiz-adv-x="1193" d="M-10 0l440 1415h334l438 -1415h-287l-88 328h-469l-88 -328h-280zM412 532h360l-180 676z" />
<glyph unicode="B" horiz-adv-x="1255" d="M166 0v1415h371q585 0 585 -360q0 -124 -75.5 -202.5t-186.5 -102.5q53 -10 96.5 -24.5t87 -41.5t73.5 -62.5t48.5 -90.5t18.5 -123q0 -114 -43 -194.5t-125 -126.5t-185.5 -66.5t-238.5 -20.5h-426zM436 203h158q72 0 124 9t95.5 31.5t65.5 66t22 108.5q0 227 -278 227 h-187v-442zM436 834h166q113 0 178.5 50.5t65.5 147.5q0 103 -69 144t-214 41h-127v-383z" />
<glyph unicode="C" horiz-adv-x="1163" d="M88 711q0 174 47.5 314.5t130.5 232t194.5 140t241.5 48.5q133 0 230 -37t188 -113l-139 -161q-120 102 -262 102q-76 0 -137 -29t-109 -89.5t-74 -164t-26 -243.5q0 -268 94.5 -396.5t255.5 -128.5q57 0 112 19t89.5 40.5t85.5 59.5l127 -164q-72 -74 -182 -123 t-244 -49q-282 0 -452.5 194.5t-170.5 547.5z" />
<glyph unicode="D" horiz-adv-x="1327" d="M166 0v1415h348q85 0 158 -8t148.5 -28.5t136 -54t114.5 -88t90 -126.5t57 -172t21 -223q0 -166 -40 -294t-104.5 -206t-156 -127.5t-185.5 -68.5t-202 -19h-385zM436 203h133q56 0 102 9t91 30.5t79 60t60 93.5t39.5 136t13.5 183q0 104 -14 184.5t-41.5 134t-62 89.5 t-81 55t-92 26.5t-102.5 7.5h-125v-1009z" />
<glyph unicode="E" horiz-adv-x="1085" d="M166 0v1415h821l-29 -201h-522v-395h455v-201h-455v-415h559v-203h-829z" />
<glyph unicode="F" horiz-adv-x="1001" d="M166 0v1415h801l-29 -201h-502v-423h436v-201h-436v-590h-270z" />
<glyph unicode="G" horiz-adv-x="1306" d="M88 709q0 175 51.5 316.5t140.5 232.5t205 139.5t248 48.5q143 0 251.5 -42t203.5 -124l-148 -154q-73 61 -140 88t-155 27q-78 0 -143.5 -30.5t-117.5 -92t-81.5 -166.5t-29.5 -243q0 -283 83 -408t253 -125q129 0 225 55v369h-213l-29 201h508v-692 q-223 -140 -498 -140q-297 0 -455.5 189t-158.5 551z" />
<glyph unicode="H" horiz-adv-x="1376" d="M166 0v1415h270v-567h504v567h272v-1415h-272v633h-504v-633h-270z" />
<glyph unicode="I" horiz-adv-x="604" d="M166 0v1415h272v-1415h-272z" />
<glyph unicode="J" horiz-adv-x="638" d="M-6 -123q55 22 93 46.5t62 52.5t37.5 66t18 78t4.5 97v1198h272v-1208q0 -96 -21.5 -173.5t-57 -131.5t-90.5 -97t-112.5 -70t-133.5 -52z" />
<glyph unicode="K" horiz-adv-x="1255" d="M166 0v1415h270v-1415h-270zM449 756l489 659h293l-490 -641l529 -774h-322z" />
<glyph unicode="L" horiz-adv-x="1036" d="M166 0v1415h270v-1194h568l-31 -221h-807z" />
<glyph unicode="M" horiz-adv-x="1626" d="M94 0l113 1415h348l252 -991l237 991h353l110 -1415h-264l-37 592q-19 326 -19 506q0 39 1 71l-258 -1015h-256l-275 1017q4 -97 4 -202q0 -181 -12 -385l-35 -584h-262z" />
<glyph unicode="N" horiz-adv-x="1376" d="M166 0v1415h342l493 -1147q-36 234 -36 484v663h245v-1415h-350l-485 1145q37 -330 37 -567v-578h-246z" />
<glyph unicode="O" horiz-adv-x="1415" d="M88 707q0 346 167.5 542.5t453.5 196.5q287 0 452.5 -193t165.5 -544q0 -348 -166 -544t-452 -196q-288 0 -454.5 193.5t-166.5 544.5zM373 707q0 -531 336 -531q164 0 248.5 127t84.5 406q0 277 -84 403.5t-249 126.5q-164 0 -250 -127.5t-86 -404.5z" />
<glyph unicode="P" horiz-adv-x="1210" d="M166 0v1415h418q273 0 423 -113t150 -337q0 -119 -41.5 -210.5t-117 -148t-175 -84.5t-221.5 -28h-166v-494h-270zM436 696h146q144 0 218 60.5t74 208.5q0 252 -292 252h-146v-521z" />
<glyph unicode="Q" horiz-adv-x="1411" d="M88 707q0 346 167.5 542.5t453.5 196.5q287 0 452.5 -193t165.5 -544q0 -126 -24.5 -228.5t-70.5 -176.5t-103.5 -126.5t-131.5 -91.5q227 0 404 -127l-168 -219q-58 59 -108.5 98.5t-115 72.5t-142 48.5t-173.5 15.5q-279 0 -442.5 191.5t-163.5 540.5zM373 707 q0 -531 336 -531q164 0 248.5 127t84.5 406q0 277 -84 403.5t-249 126.5q-164 0 -250 -127.5t-86 -404.5z" />
<glyph unicode="R" horiz-adv-x="1251" d="M166 0v1415h422q561 0 561 -416q0 -143 -70 -234t-217 -149l371 -616h-311l-314 567h-172v-567h-270zM436 762h168q130 0 196 56.5t66 180.5q0 115 -68 167.5t-216 52.5h-146v-457z" />
<glyph unicode="S" horiz-adv-x="1146" d="M35 164l143 160q156 -146 361 -146q117 0 188.5 55.5t71.5 155.5q0 90 -58 139.5t-223 100.5q-226 70 -326 168.5t-100 257.5q0 175 135 283t346 108q150 0 260.5 -43t206.5 -131l-137 -156q-140 123 -313 123q-99 0 -159 -43.5t-60 -124.5q0 -77 57.5 -121.5 t233.5 -99.5q80 -25 139.5 -51t114.5 -63.5t89.5 -83t55 -108.5t20.5 -141q0 -194 -143.5 -314t-392.5 -120q-312 0 -510 195z" />
<glyph unicode="T" horiz-adv-x="1085" d="M25 1200v215h1050l-28 -215h-369v-1200h-272v1200h-381z" />
<glyph unicode="U" horiz-adv-x="1343" d="M145 463v952h271v-938q0 -150 62 -223.5t192 -73.5q131 0 193.5 73.5t62.5 223.5v938h272v-952q0 -221 -138 -357.5t-390 -136.5q-254 0 -389.5 134.5t-135.5 359.5z" />
<glyph unicode="V" horiz-adv-x="1155" d="M-10 1415h291l307 -1175l299 1175h276l-420 -1415h-321z" />
<glyph unicode="W" horiz-adv-x="1714" d="M35 1415h268l180 -1200l232 1200h286l228 -1200l196 1200h256l-260 -1415h-352l-215 1128l-221 -1128h-342z" />
<glyph unicode="X" horiz-adv-x="1150" d="M0 0l410 754l-377 661h301l239 -489l250 489h289l-379 -651l420 -764h-301l-283 580l-280 -580h-289z" />
<glyph unicode="Y" horiz-adv-x="1175" d="M-4 1415h299l299 -657l299 657h287l-455 -878v-537h-274v535z" />
<glyph unicode="Z" horiz-adv-x="1093" d="M47 0v207l666 993h-598v215h901v-209l-654 -985h660l-29 -221h-946z" />
<glyph unicode="[" horiz-adv-x="661" d="M98 -246v1925h490v-204h-242v-1518h242v-203h-490z" />
<glyph unicode="\" horiz-adv-x="1064" d="M180 1612l226 51l479 -1831l-228 -53z" />
<glyph unicode="]" horiz-adv-x="661" d="M74 -43h241v1520h-241v202h489v-1925h-489v203z" />
<glyph unicode="^" horiz-adv-x="1126" d="M57 1079l387 645h238l387 -645h-264l-244 439l-237 -439h-267z" />
<glyph unicode="_" horiz-adv-x="1064" d="M27 -113h1011v-211h-1011v211z" />
<glyph unicode="`" horiz-adv-x="659" d="M61 1475l107 204l430 -256l-76 -133z" />
<glyph unicode="a" horiz-adv-x="1118" d="M72 303q0 176 128 269.5t365 93.5h135v61q0 104 -47.5 146t-154.5 42q-119 0 -287 -57l-61 178q203 78 393 78q415 0 415 -373v-454q0 -63 19.5 -93.5t62.5 -46.5l-55 -174q-92 8 -150.5 45t-89.5 113q-107 -162 -323 -162q-161 0 -255.5 92t-94.5 242zM338 324 q0 -78 39.5 -121t114.5 -43q132 0 208 133v219h-108q-254 0 -254 -188z" />
<glyph unicode="b" horiz-adv-x="1220" d="M158 0v1518l262 28v-585q53 73 129 113t166 40q193 0 299 -149.5t106 -421.5q0 -257 -115.5 -415.5t-312.5 -158.5q-173 0 -286 142l-17 -111h-231zM420 291q36 -59 88.5 -92t114.5 -33q104 0 163.5 91t59.5 286q0 140 -27.5 225t-72.5 117.5t-111 32.5q-125 0 -215 -148 v-479z" />
<glyph unicode="c" horiz-adv-x="978" d="M88 532q0 262 137.5 422t368.5 160q205 0 352 -127l-119 -160q-102 80 -217 80q-243 0 -243 -370q0 -355 243 -355q59 0 107 19.5t108 64.5l121 -172q-153 -125 -350 -125q-235 0 -371.5 151.5t-136.5 411.5z" />
<glyph unicode="d" horiz-adv-x="1226" d="M98 541q0 254 119 413.5t322 159.5q151 0 268 -117v549l262 -28v-1518h-231l-19 137q-52 -78 -130.5 -123t-178.5 -45q-199 0 -305.5 154t-106.5 418zM375 543q0 -201 53.5 -288t155.5 -87q70 0 123 34t100 105v496q-46 57 -94.5 86t-110.5 29q-107 0 -167 -93t-60 -282z " />
<glyph unicode="e" horiz-adv-x="1130" d="M88 535q0 166 55.5 296t165.5 206.5t260 76.5q226 0 352 -145t126 -402q0 -5 -7 -106h-680q13 -157 82.5 -225t184.5 -68q133 0 270 96l109 -149q-180 -146 -402 -146q-248 0 -382 152.5t-134 413.5zM360 631h426v12q0 285 -211 285q-96 0 -150.5 -70.5t-64.5 -226.5z " />
<glyph unicode="f" horiz-adv-x="710" d="M12 895v188h176v119q0 153 99.5 248.5t281.5 95.5q145 0 281 -63l-76 -176q-87 41 -178 41q-78 0 -111.5 -36t-33.5 -114v-115h260l-29 -188h-231v-895h-263v895h-176z" />
<glyph unicode="g" horiz-adv-x="1099" d="M31 -106h235q0 -58 20.5 -90t78 -49t163.5 -17q150 0 211.5 37t61.5 106q0 61 -47.5 95t-137.5 34h-163q-154 0 -232 59t-78 150q0 57 33.5 110.5t93.5 90.5q-99 52 -144.5 126t-45.5 179q0 175 125 282t323 107h40q145 0 239 26q106 30 227 95l66 -209 q-105 -37 -314 -37q100 -45 148.5 -111.5t48.5 -166.5q0 -161 -118 -263t-318 -102q-74 0 -129 16q-45 -30 -45 -79q0 -76 131 -76h166q178 0 286.5 -86t108.5 -221q0 -164 -139 -255t-402 -91q-142 0 -239 22t-152 67t-78.5 105.5t-23.5 145.5zM344 729q0 -99 51.5 -156 t141.5 -57q93 0 142.5 56t49.5 159q0 205 -197 205q-88 0 -138 -56t-50 -151z" />
<glyph unicode="h" horiz-adv-x="1189" d="M158 0v1516l262 26v-588q132 160 315 160q144 0 225.5 -88t81.5 -242v-784h-262v743q0 96 -34 135.5t-99 39.5q-123 0 -227 -162v-756h-262z" />
<glyph unicode="i" horiz-adv-x="577" d="M123 1473q0 68 46.5 113.5t117.5 45.5q73 0 119.5 -45.5t46.5 -113.5q0 -67 -46.5 -112.5t-119.5 -45.5q-71 0 -117.5 45.5t-46.5 112.5zM158 0v1083h262v-1083h-262z" />
<glyph unicode="j" horiz-adv-x="575" d="M-61 -254q48 22 77.5 39.5t59 44.5t45.5 59.5t25.5 80t9.5 110.5v1003h262v-987q0 -98 -18.5 -174.5t-49.5 -130.5t-83.5 -98.5t-108 -74.5t-135.5 -62zM123 1473q0 68 46.5 113.5t117.5 45.5q73 0 119.5 -45.5t46.5 -113.5q0 -67 -46.5 -112.5t-119.5 -45.5 q-71 0 -117.5 45.5t-46.5 112.5z" />
<glyph unicode="k" horiz-adv-x="1093" d="M158 0v1518l262 28v-1546h-262zM430 592l363 491h276l-360 -477l395 -606h-301z" />
<glyph unicode="l" horiz-adv-x="604" d="M147 246v1272l263 28v-1282q0 -44 14.5 -64t46.5 -20q31 0 61 10l56 -184q-85 -37 -187 -37q-122 0 -188 71.5t-66 205.5z" />
<glyph unicode="m" horiz-adv-x="1740" d="M158 0v1083h227l21 -141q123 172 313 172q95 0 163 -47.5t99 -134.5q132 182 326 182q130 0 208 -88.5t78 -241.5v-784h-262v743q0 175 -119 175q-63 0 -109 -40.5t-95 -123.5v-754h-263v743q0 175 -118 175q-65 0 -111.5 -40.5t-95.5 -123.5v-754h-262z" />
<glyph unicode="n" horiz-adv-x="1189" d="M158 0v1083h227l21 -141q133 172 329 172q146 0 226.5 -87t80.5 -243v-784h-262v743q0 96 -33.5 135.5t-99.5 39.5q-124 0 -227 -164v-754h-262z" />
<glyph unicode="o" d="M88 543q0 258 137 414.5t375 156.5q239 0 373.5 -152.5t134.5 -418.5q0 -260 -136.5 -417t-373.5 -157q-239 0 -374.5 153t-135.5 421zM365 543q0 -193 58 -284t175 -91t175 91.5t58 283.5q0 191 -57.5 281.5t-173.5 90.5q-235 0 -235 -372z" />
<glyph unicode="p" horiz-adv-x="1220" d="M158 -446v1529h229l14 -133q62 82 144.5 123t169.5 41q106 0 184 -40t126.5 -115.5t71.5 -178.5t23 -235q0 -167 -49 -296.5t-147 -204.5t-232 -75q-171 0 -272 119v-506zM420 283q76 -113 198 -113q228 0 228 373q0 200 -52 287.5t-157 87.5q-64 0 -120 -40.5 t-97 -107.5v-487z" />
<glyph unicode="q" horiz-adv-x="1216" d="M88 541q0 255 119 414t321 159q165 0 289 -137l14 106h228v-1529l-262 28v539q-111 -152 -297 -152q-199 0 -305.5 154t-106.5 418zM365 543q0 -201 53 -288t155 -87q70 0 123.5 34t100.5 105v496q-46 57 -94.5 86t-110.5 29q-107 0 -167 -93t-60 -282z" />
<glyph unicode="r" horiz-adv-x="806" d="M158 0v1083h227l25 -213q38 116 112 179t170 63q60 0 109 -14l-45 -254q-50 12 -97 12q-95 0 -151 -68.5t-88 -209.5v-578h-262z" />
<glyph unicode="s" horiz-adv-x="974" d="M31 123l133 149q134 -108 291 -108q89 0 141.5 35t52.5 92q0 70 -46.5 103.5t-199.5 76.5q-166 45 -243.5 126t-77.5 202q0 137 115.5 226t302.5 89q221 0 385 -129l-103 -158q-137 93 -266 93q-82 0 -126 -29.5t-44 -79.5q0 -55 45.5 -86.5t181.5 -69.5 q175 -47 261 -125.5t86 -216.5q0 -82 -36.5 -148.5t-99.5 -108.5t-145 -64.5t-176 -22.5q-261 0 -432 154z" />
<glyph unicode="t" horiz-adv-x="768" d="M10 895v188h170v240l262 31v-271h252l-26 -188h-226v-565q0 -79 27.5 -114.5t87.5 -35.5q63 0 129 41l92 -170q-116 -82 -272 -82q-160 2 -243 92t-83 263v571h-170z" />
<glyph unicode="u" horiz-adv-x="1181" d="M147 305v778h263v-745q0 -93 32 -131.5t101 -38.5q126 0 219 154v761h262v-1083h-227l-15 152q-119 -183 -331 -183q-146 0 -225 89t-79 247z" />
<glyph unicode="v" horiz-adv-x="1032" d="M4 1083h285l231 -872l238 872h270l-352 -1083h-314z" />
<glyph unicode="w" horiz-adv-x="1503" d="M25 1083h262l151 -890l189 890h268l172 -890l162 890h252l-236 -1083h-327l-164 850l-168 -850h-322z" />
<glyph unicode="x" horiz-adv-x="1024" d="M-6 0l360 571l-323 512h299l184 -368l182 368h285l-313 -503l362 -580h-303l-223 430l-221 -430h-289z" />
<glyph unicode="y" horiz-adv-x="1036" d="M4 1083h279l235 -909l246 909h270l-352 -1087q-65 -201 -198 -312.5t-365 -129.5l-27 190q156 24 227 79.5t119 176.5h-90z" />
<glyph unicode="z" horiz-adv-x="919" d="M37 0v188l526 691h-481v204h780v-188l-524 -690h534l-26 -205h-809z" />
<glyph unicode="{" horiz-adv-x="661" d="M35 608v215q78 0 107.5 37t29.5 127v408q0 85 19.5 143t67 99t128.5 60t203 19v-188q-96 0 -134 -29.5t-38 -101.5v-430q0 -118 -45 -171.5t-142 -80.5q96 -25 141.5 -78t45.5 -170v-430q0 -72 38.5 -101.5t133.5 -29.5v-189q-161 0 -253.5 36.5t-128.5 104.5t-36 181 v407q0 89 -29.5 125.5t-107.5 36.5z" />
<glyph unicode="|" horiz-adv-x="794" d="M276 -213v1870h242v-1870h-242z" />
<glyph unicode="}" horiz-adv-x="661" d="M72 -94q95 0 133.5 29.5t38.5 101.5v430q0 117 45 170t141 78q-47 13 -79 30t-57.5 45t-37.5 71.5t-12 105.5v430q0 72 -38 101.5t-134 29.5v188q122 0 203 -19t128 -60t66.5 -99t19.5 -143v-408q0 -90 30 -127t110 -37v-215q-80 0 -110 -36t-30 -126v-407 q0 -85 -19.5 -142.5t-66.5 -99t-128.5 -61t-202.5 -19.5v189z" />
<glyph unicode="~" horiz-adv-x="1028" d="M51 584q115 231 307 231q58 0 110.5 -19t84 -42.5t68 -42.5t67.5 -19q48 0 76.5 26t58.5 79l154 -82q-111 -223 -301 -223q-60 0 -113.5 19.5t-85 42.5t-68 42.5t-65.5 19.5q-50 0 -79 -28t-60 -84z" />
<glyph unicode="&#xa1;" horiz-adv-x="493" d="M80 864q0 68 49 117t119 49q68 0 116 -49t48 -117q0 -69 -47.5 -117.5t-116.5 -48.5q-70 0 -119 48.5t-49 117.5zM106 -418l33 912h217l33 -912h-283z" />
<glyph unicode="&#xa2;" horiz-adv-x="978" d="M88 532q0 231 108 385t296 189v303h200v-301q138 -23 254 -121l-119 -160q-102 80 -217 80q-243 0 -243 -370q0 -355 243 -355q59 0 107 19.5t108 64.5l121 -172q-114 -94 -254 -117v-301h-203v301q-188 34 -294.5 180.5t-106.5 374.5z" />
<glyph unicode="&#xa3;" horiz-adv-x="1103" d="M68 0v195q56 18 89.5 39t51.5 53t23.5 68t5.5 96v196h-138v148h138v202q0 181 108 293.5t305 112.5q247 0 396 -189l-166 -122q-44 58 -93 83t-114 25q-87 0 -132.5 -52t-45.5 -151v-202h399v-148h-399v-188q0 -97 -27 -155t-102 -99h641l-31 -205h-909z" />
<glyph unicode="&#xa4;" horiz-adv-x="1146" d="M47 299l158 158q-70 106 -70 241q0 131 68 242l-156 162l129 129l160 -162q106 66 235 66q136 0 242 -64l160 160l129 -129l-156 -158q72 -107 72 -246q0 -138 -72 -245l156 -154l-129 -129l-160 156q-106 -64 -242 -64q-129 0 -235 66l-160 -158zM352 700 q0 -120 57 -185.5t166 -65.5q108 0 165 65.5t57 185.5q0 118 -57 184t-165 66q-109 0 -166 -65.5t-57 -184.5z" />
<glyph unicode="&#xa5;" horiz-adv-x="1134" d="M-4 1378h283l294 -590l291 590h273l-375 -663h215v-150h-279v-164h279v-147h-279v-254h-262v254h-276v147h276v164h-276v150h213z" />
<glyph unicode="&#xa6;" horiz-adv-x="794" d="M276 -213v750h242v-750h-242zM276 907v750h242v-750h-242z" />
<glyph unicode="&#xa7;" horiz-adv-x="1110" d="M123 623q0 77 44 141.5t114 109.5q-56 41 -81.5 92t-25.5 121q0 140 116 226t298 86q217 0 375 -113l-93 -156q-128 82 -272 82q-80 0 -126 -30t-46 -82q0 -60 45.5 -93.5t198.5 -82.5q165 -55 241 -124t76 -190q0 -74 -43.5 -136.5t-116.5 -108.5q59 -40 86 -90.5 t27 -120.5q0 -141 -118.5 -227.5t-311.5 -86.5q-208 0 -371 109l90 166q127 -84 275 -84q83 0 132.5 28t49.5 80q0 42 -18 67.5t-69.5 50.5t-160.5 60q-164 51 -239.5 118t-75.5 188zM360 659q0 -62 36.5 -95.5t140.5 -69.5q61 -20 147 -56q68 75 68 142q0 61 -42.5 96.5 t-168.5 79.5q-38 13 -119 43q-62 -72 -62 -140z" />
<glyph unicode="&#xa8;" horiz-adv-x="868" d="M63 1466q0 60 42 101t102 41q61 0 102 -41t41 -101t-41 -100.5t-102 -40.5q-60 0 -102 40.5t-42 100.5zM518 1466q0 60 41 101t100 41q63 0 104.5 -41t41.5 -101t-41.5 -100.5t-104.5 -40.5q-59 0 -100 40.5t-41 100.5z" />
<glyph unicode="&#xa9;" horiz-adv-x="1658" d="M160 887q0 182 90 335.5t244 241.5t337 88q137 0 260.5 -52t213 -141t142 -212t52.5 -260q0 -182 -89 -334.5t-242.5 -241t-336.5 -88.5q-137 0 -261 52.5t-214 141t-143 211.5t-53 259zM319 887q0 -221 147 -373t365 -152q143 0 260.5 70t183.5 190t66 265t-66 266 t-183.5 191.5t-260.5 70.5q-218 0 -365 -153.5t-147 -374.5zM487 889q0 184 99 290.5t250 106.5q142 0 254 -94l-89 -115q-67 56 -149 56q-76 0 -122 -59.5t-46 -184.5q0 -123 44.5 -182.5t121.5 -59.5q88 0 168 64l80 -117q-114 -102 -260 -102q-160 0 -255.5 104 t-95.5 293z" />
<glyph unicode="&#xaa;" horiz-adv-x="1024" d="M113 803q0 133 104.5 204.5t298.5 71.5h94v35q0 71 -34 98t-117 27q-100 0 -228 -43l-57 160q165 59 324 59q181 0 266.5 -72.5t85.5 -216.5v-315q0 -46 14 -67.5t47 -32.5l-51 -160q-76 6 -125 32.5t-80 82.5q-86 -119 -260 -119q-129 0 -205.5 71t-76.5 185zM123 0v209 h809v-209h-809zM360 819q0 -46 27.5 -72t79.5 -26q90 0 143 76v145h-69q-181 0 -181 -123z" />
<glyph unicode="&#xab;" horiz-adv-x="1236" d="M92 500v170l375 450l160 -108l-271 -426l271 -428l-160 -107zM610 500v170l375 450l160 -108l-271 -426l271 -428l-160 -107z" />
<glyph unicode="&#xac;" horiz-adv-x="1058" d="M113 563v209h833v-514h-223v305h-610z" />
<glyph unicode="&#xad;" horiz-adv-x="829" d="M106 537v208h619v-208h-619z" />
<glyph unicode="&#xae;" horiz-adv-x="1308" d="M111 999q0 151 71.5 277t196 198t274.5 72q232 0 388.5 -158t156.5 -389q0 -151 -71 -274.5t-196 -194.5t-278 -71q-150 0 -274.5 71t-196 195t-71.5 274zM250 999q0 -179 114.5 -299t288.5 -120q178 0 292 119.5t114 299.5q0 182 -114 304t-292 122 q-174 0 -288.5 -122.5t-114.5 -303.5zM453 727v571h165q263 0 263 -176q0 -110 -125 -157l151 -238h-153l-121 213h-47v-213h-133zM586 1047h59q100 0 100 77q0 74 -102 74h-57v-151z" />
<glyph unicode="&#xaf;" horiz-adv-x="718" d="M61 1354v186h596v-186h-596z" />
<glyph unicode="&#xb0;" horiz-adv-x="1069" d="M96 1108q0 153 105.5 245.5t244.5 92.5q67 0 130 -23t113 -65t80 -107.5t30 -144.5q0 -78 -30 -143t-80 -107t-113 -65t-130 -23q-89 0 -167.5 39t-130.5 118.5t-52 182.5zM289 1108q0 -85 44 -132.5t113 -47.5q70 0 115 47t45 131t-45 132t-115 48q-69 0 -113 -46.5 t-44 -131.5z" />
<glyph unicode="&#xb1;" horiz-adv-x="1058" d="M113 0v209h821v-209h-821zM113 678v207h305v313h223v-313h305v-207h-305v-313h-223v313h-305z" />
<glyph unicode="&#xb2;" horiz-adv-x="819" d="M92 1384q120 150 307 150q144 0 226 -72t82 -180q0 -98 -72.5 -193t-282.5 -274h373l-20 -158h-582v146q234 220 303.5 304t69.5 157q0 54 -31.5 83t-85.5 29q-50 0 -87.5 -20.5t-78.5 -67.5z" />
<glyph unicode="&#xb3;" horiz-adv-x="819" d="M84 766l115 108q78 -81 180 -81q65 0 104 31.5t39 90.5q0 64 -37.5 92.5t-111.5 28.5h-74l25 140h49q61 0 96 28t35 80q0 47 -32.5 72.5t-88.5 25.5q-91 0 -176 -73l-103 108q126 117 302 117q141 0 220 -61t79 -156q0 -78 -48 -130.5t-137 -74.5q97 -8 156 -61.5 t59 -151.5q0 -111 -92.5 -187.5t-251.5 -76.5q-192 0 -307 131z" />
<glyph unicode="&#xb4;" horiz-adv-x="659" d="M61 1423l431 256l106 -204l-463 -185z" />
<glyph unicode="&#xb5;" horiz-adv-x="1198" d="M158 -444v1527h262v-751q0 -152 129 -152q132 0 215 160v743h262v-712q0 -209 51 -371l-241 -31q-35 76 -50 187q-45 -78 -108.5 -127t-138.5 -49q-134 0 -189 94q31 -69 45.5 -131.5t14.5 -157.5v-203z" />
<glyph unicode="&#xb6;" horiz-adv-x="1562" d="M156 985q0 203 140.5 318t389.5 112h619v-1833l-232 -31v1672h-209v-1641l-231 -31v1006q-236 7 -356.5 123t-120.5 305z" />
<glyph unicode="&#xb7;" horiz-adv-x="491" d="M80 633q0 68 48 117t116 49q70 0 119 -49t49 -117t-49 -117t-119 -49q-68 0 -116 49t-48 117z" />
<glyph unicode="&#xb8;" horiz-adv-x="614" d="M61 -461l64 129q64 -33 129 -33q100 0 100 70q0 40 -44.5 59t-141.5 19l31 250h151v-139q103 -10 153 -60.5t50 -128.5q0 -102 -78 -162.5t-203 -60.5q-130 0 -211 57z" />
<glyph unicode="&#xb9;" horiz-adv-x="819" d="M104 1339l304 177h182v-859h-201v662l-194 -117z" />
<glyph unicode="&#xba;" horiz-adv-x="1024" d="M92 983q0 196 113.5 314t308.5 118q196 0 307 -114.5t111 -319.5q0 -197 -112 -315.5t-308 -118.5t-308 115.5t-112 320.5zM100 0v209h824v-209h-824zM344 983q0 -133 42 -195.5t126 -62.5q85 0 126.5 62.5t41.5 193.5q0 133 -41 194.5t-125 61.5q-86 0 -128 -61.5 t-42 -192.5z" />
<glyph unicode="&#xbb;" horiz-adv-x="1224" d="M92 158l268 428l-268 426l160 108l375 -450v-170l-375 -449zM600 158l268 428l-268 426l160 108l373 -450v-170l-373 -449z" />
<glyph unicode="&#xbc;" horiz-adv-x="1949" d="M104 1239l304 176h182v-858h-201v662l-194 -117zM477 -90l838 1636l158 -78l-838 -1636zM1196 184v138l256 555l172 -64l-217 -477h178l31 203h164v-203h102v-152h-102v-184h-195l-2 184h-387z" />
<glyph unicode="&#xbd;" horiz-adv-x="1949" d="M104 1239l304 176h182v-858h-201v662l-194 -117zM477 -90l838 1636l158 -78l-838 -1636zM1223 727q120 150 307 150q144 0 225.5 -72t81.5 -180q0 -98 -72 -193t-282 -274h372l-20 -158h-582v145q234 220 303.5 304t69.5 157q0 54 -31.5 83.5t-85.5 29.5 q-50 0 -87.5 -20.5t-78.5 -67.5z" />
<glyph unicode="&#xbe;" horiz-adv-x="1949" d="M84 666l115 108q79 -82 180 -82q65 0 104 32t39 91q0 64 -37.5 92.5t-111.5 28.5h-74l25 139h49q61 0 96 28.5t35 80.5q0 47 -32.5 72.5t-88.5 25.5q-89 0 -176 -74l-103 109q126 117 302 117q141 0 220 -61t79 -156q0 -78 -48 -130.5t-137 -74.5q97 -8 156 -61.5 t59 -151.5q0 -111 -92.5 -187.5t-251.5 -76.5q-192 0 -307 131zM477 -90l838 1636l158 -78l-838 -1636zM1196 184v138l256 555l172 -64l-217 -477h178l31 203h164v-203h102v-152h-102v-184h-195l-2 184h-387z" />
<glyph unicode="&#xbf;" horiz-adv-x="964" d="M45 -117q0 67 20.5 120.5t53 88.5t71.5 65t78.5 56t72 53.5t53 67t20.5 88.5v72h245v-82q0 -70 -19 -126t-49 -92t-66.5 -65t-73 -52.5t-66.5 -47t-49 -55t-19 -70.5q0 -67 46 -105.5t126 -38.5q146 0 261 136l172 -134q-183 -211 -455 -211q-201 0 -311.5 96.5 t-110.5 235.5zM367 864q0 68 47.5 117t117.5 49q68 0 116 -49t48 -117q0 -69 -47.5 -117.5t-116.5 -48.5q-70 0 -117.5 48.5t-47.5 117.5z" />
<glyph unicode="&#xc0;" horiz-adv-x="1193" d="M-10 0l440 1415h334l438 -1415h-287l-88 328h-469l-88 -328h-280zM313 1712l105 205l432 -240l-68 -135zM412 532h360l-180 676z" />
<glyph unicode="&#xc1;" horiz-adv-x="1193" d="M-10 0l440 1415h334l438 -1415h-287l-88 328h-469l-88 -328h-280zM330 1677l432 240l104 -205l-469 -170zM412 532h360l-180 676z" />
<glyph unicode="&#xc2;" horiz-adv-x="1193" d="M-10 0l440 1415h334l438 -1415h-287l-88 328h-469l-88 -328h-280zM231 1663l285 248h164l285 -248l-101 -113l-266 168l-266 -168zM412 532h360l-180 676z" />
<glyph unicode="&#xc3;" horiz-adv-x="1193" d="M-10 0l440 1415h334l438 -1415h-287l-88 328h-469l-88 -328h-280zM231 1651q40 96 102.5 154.5t145.5 58.5q51 0 94.5 -24t78 -47.5t63.5 -23.5q31 0 54.5 21t53.5 68l140 -70q-41 -97 -104 -154t-136 -57q-43 0 -81.5 15t-61 33t-49.5 33t-50 15q-34 0 -57.5 -21.5 t-50.5 -70.5zM412 532h360l-180 676z" />
<glyph unicode="&#xc4;" horiz-adv-x="1193" d="M-10 0l440 1415h334l438 -1415h-287l-88 328h-469l-88 -328h-280zM225 1724q0 60 42 101t102 41q61 0 102 -41t41 -101t-41 -100.5t-102 -40.5q-60 0 -102 40.5t-42 100.5zM412 532h360l-180 676zM680 1724q0 60 41 101t100 41q63 0 104.5 -41t41.5 -101t-41.5 -100.5 t-104.5 -40.5q-59 0 -100 40.5t-41 100.5z" />
<glyph unicode="&#xc5;" horiz-adv-x="1193" d="M-10 0l440 1415h334l438 -1415h-287l-88 328h-469l-88 -328h-280zM336 1759q0 104 72.5 175t189.5 71q116 0 188 -71t72 -175q0 -103 -72 -174.5t-188 -71.5q-117 0 -189.5 71.5t-72.5 174.5zM412 532h360l-180 676zM498 1759q0 -52 26.5 -79t73.5 -27q45 0 71.5 27.5 t26.5 78.5q0 52 -26.5 80.5t-71.5 28.5q-46 0 -73 -28.5t-27 -80.5z" />
<glyph unicode="&#xc6;" horiz-adv-x="1703" d="M-37 0l559 1415h1016l-31 -201h-589l90 -397h512v-201h-467l94 -413h471v-203h-694l-66 328h-491l-117 -328h-287zM438 532h379l-137 678z" />
<glyph unicode="&#xc7;" horiz-adv-x="1163" d="M88 711q0 174 47.5 314.5t130.5 232t194.5 140t241.5 48.5q133 0 230 -37t188 -113l-139 -161q-120 102 -262 102q-76 0 -137 -29t-109 -89.5t-74 -164t-26 -243.5q0 -268 94.5 -396.5t255.5 -128.5q57 0 112 19t89.5 40.5t85.5 59.5l127 -164q-143 -146 -359 -168v-79 q103 -10 153 -60.5t50 -128.5q0 -102 -78 -162.5t-203 -60.5q-130 0 -211 57l64 129q64 -33 129 -33q100 0 100 70q0 40 -44.5 59t-141.5 19l25 192q-244 30 -388.5 221.5t-144.5 514.5z" />
<glyph unicode="&#xc8;" horiz-adv-x="1085" d="M166 0v1415h821l-29 -201h-522v-395h455v-201h-455v-415h559v-203h-829zM297 1712l104 205l433 -240l-68 -135z" />
<glyph unicode="&#xc9;" horiz-adv-x="1085" d="M166 0v1415h821l-29 -201h-522v-395h455v-201h-455v-415h559v-203h-829zM313 1677l432 240l105 -205l-469 -170z" />
<glyph unicode="&#xca;" horiz-adv-x="1085" d="M166 0v1415h821l-29 -201h-522v-395h455v-201h-455v-415h559v-203h-829zM215 1663l285 248h164l284 -248l-100 -113l-266 168l-267 -168z" />
<glyph unicode="&#xcb;" horiz-adv-x="1085" d="M166 0v1415h821l-29 -201h-522v-395h455v-201h-455v-415h559v-203h-829zM211 1724q0 60 41.5 101t101.5 41q61 0 102.5 -41t41.5 -101t-41.5 -100.5t-102.5 -40.5q-60 0 -101.5 40.5t-41.5 100.5zM666 1724q0 60 41 101t100 41q63 0 104 -41t41 -101t-41 -100.5 t-104 -40.5q-59 0 -100 40.5t-41 100.5z" />
<glyph unicode="&#xcc;" horiz-adv-x="604" d="M16 1712l105 205l432 -240l-68 -135zM166 0v1415h272v-1415h-272z" />
<glyph unicode="&#xcd;" horiz-adv-x="604" d="M33 1677l432 240l104 -205l-469 -170zM166 0v1415h272v-1415h-272z" />
<glyph unicode="&#xce;" horiz-adv-x="604" d="M-66 1663l285 248h164l285 -248l-101 -113l-266 168l-266 -168zM166 0v1415h272v-1415h-272z" />
<glyph unicode="&#xcf;" horiz-adv-x="604" d="M-70 1724q0 60 42 101t102 41q61 0 102 -41t41 -101t-41 -100.5t-102 -40.5q-60 0 -102 40.5t-42 100.5zM166 0v1415h272v-1415h-272zM385 1724q0 60 41 101t100 41q63 0 104.5 -41t41.5 -101t-41.5 -100.5t-104.5 -40.5q-59 0 -100 40.5t-41 100.5z" />
<glyph unicode="&#xd0;" horiz-adv-x="1353" d="M35 635v176h158v604h348q85 0 158 -8t148.5 -28.5t136 -54t114.5 -88t90 -126.5t57 -172t21 -223q0 -166 -40 -294t-104.5 -206t-156 -127.5t-185.5 -68.5t-202 -19h-385v635h-158zM463 203h133q56 0 102 9t91 30.5t79 60t60 93.5t39.5 136t13.5 183q0 104 -14 184.5 t-41.5 134t-62 89.5t-81 55t-92 26.5t-102.5 7.5h-125v-401h297v-176h-297v-432z" />
<glyph unicode="&#xd1;" horiz-adv-x="1376" d="M166 0v1415h342l493 -1147q-36 234 -36 484v663h245v-1415h-350l-485 1145q37 -330 37 -567v-578h-246zM338 1651q40 96 102.5 154.5t145.5 58.5q51 0 94.5 -24t77.5 -47.5t63 -23.5q31 0 55.5 21t53.5 68l139 -70q-41 -97 -104 -154t-136 -57q-43 0 -81 15t-61 33 t-49.5 33t-49.5 15q-35 0 -58.5 -22t-50.5 -70z" />
<glyph unicode="&#xd2;" horiz-adv-x="1415" d="M88 707q0 346 167.5 542.5t453.5 196.5q287 0 452.5 -193t165.5 -544q0 -348 -166 -544t-452 -196q-288 0 -454.5 193.5t-166.5 544.5zM373 707q0 -531 336 -531q164 0 248.5 127t84.5 406q0 277 -84 403.5t-249 126.5q-164 0 -250 -127.5t-86 -404.5zM428 1712l104 205 l433 -240l-68 -135z" />
<glyph unicode="&#xd3;" horiz-adv-x="1415" d="M88 707q0 346 167.5 542.5t453.5 196.5q287 0 452.5 -193t165.5 -544q0 -348 -166 -544t-452 -196q-288 0 -454.5 193.5t-166.5 544.5zM373 707q0 -531 336 -531q164 0 248.5 127t84.5 406q0 277 -84 403.5t-249 126.5q-164 0 -250 -127.5t-86 -404.5zM444 1677l433 240 l104 -205l-469 -170z" />
<glyph unicode="&#xd4;" horiz-adv-x="1415" d="M88 707q0 346 167.5 542.5t453.5 196.5q287 0 452.5 -193t165.5 -544q0 -348 -166 -544t-452 -196q-288 0 -454.5 193.5t-166.5 544.5zM346 1663l285 248h164l284 -248l-100 -113l-266 168l-267 -168zM373 707q0 -531 336 -531q164 0 248.5 127t84.5 406q0 277 -84 403.5 t-249 126.5q-164 0 -250 -127.5t-86 -404.5z" />
<glyph unicode="&#xd5;" horiz-adv-x="1415" d="M88 707q0 346 167.5 542.5t453.5 196.5q287 0 452.5 -193t165.5 -544q0 -348 -166 -544t-452 -196q-288 0 -454.5 193.5t-166.5 544.5zM348 1651q40 96 102.5 154.5t145.5 58.5q51 0 94.5 -24t77.5 -47.5t63 -23.5q31 0 55.5 21t53.5 68l139 -70q-41 -98 -103.5 -154.5 t-135.5 -56.5q-43 0 -81.5 15t-61 33t-49.5 33t-50 15q-35 0 -58.5 -22t-50.5 -70zM373 707q0 -531 336 -531q164 0 248.5 127t84.5 406q0 277 -84 403.5t-249 126.5q-164 0 -250 -127.5t-86 -404.5z" />
<glyph unicode="&#xd6;" horiz-adv-x="1415" d="M88 707q0 346 167.5 542.5t453.5 196.5q287 0 452.5 -193t165.5 -544q0 -348 -166 -544t-452 -196q-288 0 -454.5 193.5t-166.5 544.5zM342 1724q0 60 41.5 101t101.5 41q61 0 102.5 -41t41.5 -101t-41.5 -100.5t-102.5 -40.5q-60 0 -101.5 40.5t-41.5 100.5zM373 707 q0 -531 336 -531q164 0 248.5 127t84.5 406q0 277 -84 403.5t-249 126.5q-164 0 -250 -127.5t-86 -404.5zM797 1724q0 60 41 101t100 41q63 0 104 -41t41 -101t-41 -100.5t-104 -40.5q-59 0 -100 40.5t-41 100.5z" />
<glyph unicode="&#xd7;" horiz-adv-x="1044" d="M129 385l246 244l-246 243l150 150l243 -246l244 246l149 -150l-245 -243l245 -244l-149 -149l-244 245l-243 -245z" />
<glyph unicode="&#xd8;" horiz-adv-x="1415" d="M88 707q0 346 167.5 542.5t453.5 196.5q65 0 114 -8l76 250l213 -58l-84 -264q143 -85 221 -252t78 -405q0 -348 -166 -544t-452 -196q-47 0 -119 11l-74 -248l-211 55l84 262q-144 86 -222.5 254t-78.5 404zM373 707q0 -339 119 -455l294 981q-38 6 -77 6 q-164 0 -250 -127.5t-86 -404.5zM629 182q37 -6 80 -6q164 0 248.5 127t84.5 406q0 347 -120 458z" />
<glyph unicode="&#xd9;" horiz-adv-x="1343" d="M145 463v952h271v-938q0 -150 62 -223.5t192 -73.5q131 0 193.5 73.5t62.5 223.5v938h272v-952q0 -221 -138 -357.5t-390 -136.5q-254 0 -389.5 134.5t-135.5 359.5zM387 1712l105 205l432 -240l-68 -135z" />
<glyph unicode="&#xda;" horiz-adv-x="1343" d="M145 463v952h271v-938q0 -150 62 -223.5t192 -73.5q131 0 193.5 73.5t62.5 223.5v938h272v-952q0 -221 -138 -357.5t-390 -136.5q-254 0 -389.5 134.5t-135.5 359.5zM403 1677l433 240l104 -205l-469 -170z" />
<glyph unicode="&#xdb;" horiz-adv-x="1343" d="M145 463v952h271v-938q0 -150 62 -223.5t192 -73.5q131 0 193.5 73.5t62.5 223.5v938h272v-952q0 -221 -138 -357.5t-390 -136.5q-254 0 -389.5 134.5t-135.5 359.5zM305 1663l285 248h164l284 -248l-100 -113l-266 168l-266 -168z" />
<glyph unicode="&#xdc;" horiz-adv-x="1343" d="M145 463v952h271v-938q0 -150 62 -223.5t192 -73.5q131 0 193.5 73.5t62.5 223.5v938h272v-952q0 -221 -138 -357.5t-390 -136.5q-254 0 -389.5 134.5t-135.5 359.5zM301 1724q0 60 41.5 101t101.5 41q61 0 102.5 -41t41.5 -101t-41.5 -100.5t-102.5 -40.5 q-60 0 -101.5 40.5t-41.5 100.5zM756 1724q0 60 41 101t100 41q63 0 104 -41t41 -101t-41 -100.5t-104 -40.5q-59 0 -100 40.5t-41 100.5z" />
<glyph unicode="&#xdd;" horiz-adv-x="1175" d="M-4 1415h299l299 -657l299 657h287l-455 -878v-537h-274v535zM324 1677l432 240l104 -205l-469 -170z" />
<glyph unicode="&#xde;" horiz-adv-x="1210" d="M166 0v1415h270v-231h148q273 0 423 -114.5t150 -342.5q0 -123 -41.5 -216.5t-117 -150.5t-175 -85.5t-221.5 -28.5h-166v-246h-270zM436 449h146q145 0 218.5 61.5t73.5 216.5q0 258 -292 258h-146v-536z" />
<glyph unicode="&#xdf;" horiz-adv-x="1228" d="M158 0v1098q0 212 116.5 330t333.5 118q185 0 292.5 -87.5t107.5 -219.5q0 -57 -22.5 -103.5t-54 -76.5t-63.5 -56.5t-54.5 -57.5t-22.5 -66q0 -32 21 -61.5t54.5 -54.5t74 -52.5t81 -62t74 -76t54.5 -102.5t21 -134q0 -167 -113 -267t-278 -100q-130 0 -227 51l78 181 q49 -27 119 -27t110.5 42.5t40.5 123.5q0 49 -19 90.5t-49.5 71t-67 57t-73 55.5t-67 59t-49.5 74.5t-19 96.5q0 48 15 87t37 63t48.5 49t48.5 46.5t37 55t15 74.5q0 64 -43 99.5t-111 35.5q-184 0 -184 -252v-1102h-262z" />
<glyph unicode="&#xe0;" horiz-adv-x="1118" d="M72 303q0 176 128 269.5t365 93.5h135v61q0 104 -47.5 146t-154.5 42q-119 0 -287 -57l-61 178q203 78 393 78q415 0 415 -373v-454q0 -63 19.5 -93.5t62.5 -46.5l-55 -174q-92 8 -150.5 45t-89.5 113q-107 -162 -323 -162q-161 0 -255.5 92t-94.5 242zM299 1475l107 204 l430 -256l-76 -133zM338 324q0 -78 39.5 -121t114.5 -43q132 0 208 133v219h-108q-254 0 -254 -188z" />
<glyph unicode="&#xe1;" horiz-adv-x="1118" d="M72 303q0 176 128 269.5t365 93.5h135v61q0 104 -47.5 146t-154.5 42q-119 0 -287 -57l-61 178q203 78 393 78q415 0 415 -373v-454q0 -63 19.5 -93.5t62.5 -46.5l-55 -174q-92 8 -150.5 45t-89.5 113q-107 -162 -323 -162q-161 0 -255.5 92t-94.5 242zM258 1423l430 256 l107 -204l-463 -185zM338 324q0 -78 39.5 -121t114.5 -43q132 0 208 133v219h-108q-254 0 -254 -188z" />
<glyph unicode="&#xe2;" horiz-adv-x="1118" d="M72 303q0 176 128 269.5t365 93.5h135v61q0 104 -47.5 146t-154.5 42q-119 0 -287 -57l-61 178q203 78 393 78q415 0 415 -373v-454q0 -63 19.5 -93.5t62.5 -46.5l-55 -174q-92 8 -150.5 45t-89.5 113q-107 -162 -323 -162q-161 0 -255.5 92t-94.5 242zM180 1397l283 258 h166l284 -258l-100 -113l-266 180l-266 -180zM338 324q0 -78 39.5 -121t114.5 -43q132 0 208 133v219h-108q-254 0 -254 -188z" />
<glyph unicode="&#xe3;" horiz-adv-x="1118" d="M72 303q0 176 128 269.5t365 93.5h135v61q0 104 -47.5 146t-154.5 42q-119 0 -287 -57l-61 178q203 78 393 78q415 0 415 -373v-454q0 -63 19.5 -93.5t62.5 -46.5l-55 -174q-92 8 -150.5 45t-89.5 113q-107 -162 -323 -162q-161 0 -255.5 92t-94.5 242zM180 1393 q40 96 102.5 154.5t145.5 58.5q51 0 94.5 -24t78 -47.5t63.5 -23.5q31 0 55 20.5t53 67.5l139 -69q-41 -98 -103.5 -154.5t-135.5 -56.5q-43 0 -81.5 15t-61 33t-49.5 33t-50 15q-34 0 -57.5 -21.5t-50.5 -70.5zM338 324q0 -78 39.5 -121t114.5 -43q132 0 208 133v219h-108 q-254 0 -254 -188z" />
<glyph unicode="&#xe4;" horiz-adv-x="1118" d="M72 303q0 176 128 269.5t365 93.5h135v61q0 104 -47.5 146t-154.5 42q-119 0 -287 -57l-61 178q203 78 393 78q415 0 415 -373v-454q0 -63 19.5 -93.5t62.5 -46.5l-55 -174q-92 8 -150.5 45t-89.5 113q-107 -162 -323 -162q-161 0 -255.5 92t-94.5 242zM174 1466 q0 60 41.5 101t101.5 41q61 0 102.5 -41t41.5 -101t-41.5 -100.5t-102.5 -40.5q-60 0 -101.5 40.5t-41.5 100.5zM338 324q0 -78 39.5 -121t114.5 -43q132 0 208 133v219h-108q-254 0 -254 -188zM629 1466q0 60 41 101t100 41q63 0 104 -41t41 -101t-41 -100.5t-104 -40.5 q-59 0 -100 40.5t-41 100.5z" />
<glyph unicode="&#xe5;" horiz-adv-x="1118" d="M72 303q0 176 128 269.5t365 93.5h135v61q0 104 -47.5 146t-154.5 42q-119 0 -287 -57l-61 178q203 78 393 78q415 0 415 -373v-454q0 -63 19.5 -93.5t62.5 -46.5l-55 -174q-92 8 -150.5 45t-89.5 113q-107 -162 -323 -162q-161 0 -255.5 92t-94.5 242zM285 1501 q0 104 72.5 175t189.5 71q116 0 188 -71t72 -175q0 -103 -72 -174.5t-188 -71.5q-117 0 -189.5 71.5t-72.5 174.5zM338 324q0 -78 39.5 -121t114.5 -43q132 0 208 133v219h-108q-254 0 -254 -188zM446 1501q0 -51 27 -78.5t74 -27.5q45 0 71.5 27.5t26.5 78.5 q0 52 -26.5 80.5t-71.5 28.5q-46 0 -73.5 -28.5t-27.5 -80.5z" />
<glyph unicode="&#xe6;" horiz-adv-x="1753" d="M72 303q0 177 129.5 270t371.5 93h138v61q0 102 -48 144t-155 42q-118 0 -289 -57l-59 180q203 78 391 78q231 0 330 -149q123 149 319 149q220 0 343.5 -145t123.5 -402q0 -63 -6 -106h-678q13 -157 81 -225t183 -68q72 0 135.5 23t135.5 73l110 -149 q-185 -146 -403 -146q-137 0 -241.5 50t-170.5 141q-72 -102 -166.5 -146.5t-218.5 -44.5q-164 0 -260 92t-96 242zM350 319q0 -77 39.5 -118t114.5 -41q70 0 126.5 38.5t108.5 118.5q-23 82 -26 183v8h-109q-254 0 -254 -189zM981 631h428v12q-3 285 -213 285 q-96 0 -149.5 -70t-65.5 -227z" />
<glyph unicode="&#xe7;" horiz-adv-x="978" d="M88 532q0 262 137.5 422t368.5 160q205 0 352 -127l-119 -160q-102 80 -217 80q-243 0 -243 -370q0 -355 243 -355q59 0 107 19.5t108 64.5l121 -172q-134 -109 -299 -123v-77q103 -10 153 -60.5t50 -128.5q0 -102 -78 -162.5t-203 -60.5q-130 0 -211 57l64 129 q64 -33 129 -33q100 0 100 70q0 40 -44.5 59t-141.5 19l24 194q-188 34 -294.5 180.5t-106.5 374.5z" />
<glyph unicode="&#xe8;" horiz-adv-x="1130" d="M88 535q0 166 55.5 296t165.5 206.5t260 76.5q226 0 352 -145t126 -402q0 -5 -7 -106h-680q13 -157 82.5 -225t184.5 -68q133 0 270 96l109 -149q-180 -146 -402 -146q-248 0 -382 152.5t-134 413.5zM328 1475l106 204l430 -256l-76 -133zM360 631h426v12q0 285 -211 285 q-96 0 -150.5 -70.5t-64.5 -226.5z" />
<glyph unicode="&#xe9;" horiz-adv-x="1130" d="M88 535q0 166 55.5 296t165.5 206.5t260 76.5q226 0 352 -145t126 -402q0 -5 -7 -106h-680q13 -157 82.5 -225t184.5 -68q133 0 270 96l109 -149q-180 -146 -402 -146q-248 0 -382 152.5t-134 413.5zM287 1423l430 256l106 -204l-463 -185zM360 631h426v12 q0 285 -211 285q-96 0 -150.5 -70.5t-64.5 -226.5z" />
<glyph unicode="&#xea;" horiz-adv-x="1130" d="M88 535q0 166 55.5 296t165.5 206.5t260 76.5q226 0 352 -145t126 -402q0 -5 -7 -106h-680q13 -157 82.5 -225t184.5 -68q133 0 270 96l109 -149q-180 -146 -402 -146q-248 0 -382 152.5t-134 413.5zM209 1397l283 258h165l285 -258l-100 -113l-267 180l-266 -180z M360 631h426v12q0 285 -211 285q-96 0 -150.5 -70.5t-64.5 -226.5z" />
<glyph unicode="&#xeb;" horiz-adv-x="1130" d="M88 535q0 166 55.5 296t165.5 206.5t260 76.5q226 0 352 -145t126 -402q0 -5 -7 -106h-680q13 -157 82.5 -225t184.5 -68q133 0 270 96l109 -149q-180 -146 -402 -146q-248 0 -382 152.5t-134 413.5zM205 1466q0 60 41.5 101t101.5 41q61 0 102.5 -41t41.5 -101 t-41.5 -100.5t-102.5 -40.5q-60 0 -101.5 40.5t-41.5 100.5zM360 631h426v12q0 285 -211 285q-96 0 -150.5 -70.5t-64.5 -226.5zM659 1466q0 60 41.5 101t100.5 41q63 0 104 -41t41 -101t-41 -100.5t-104 -40.5q-59 0 -100.5 40.5t-41.5 100.5z" />
<glyph unicode="&#xec;" horiz-adv-x="577" d="M41 1475l106 204l431 -256l-76 -133zM158 0v1083h262v-1083h-262z" />
<glyph unicode="&#xed;" horiz-adv-x="577" d="M0 1423l430 256l107 -204l-463 -185zM158 0v1083h262v-1083h-262z" />
<glyph unicode="&#xee;" horiz-adv-x="577" d="M-78 1397l283 258h166l284 -258l-100 -113l-266 180l-266 -180zM158 0v1083h262v-1083h-262z" />
<glyph unicode="&#xef;" horiz-adv-x="577" d="M-82 1466q0 60 41.5 101t101.5 41q61 0 102.5 -41t41.5 -101t-41.5 -100.5t-102.5 -40.5q-60 0 -101.5 40.5t-41.5 100.5zM158 0v1083h262v-1083h-262zM373 1466q0 60 41 101t100 41q63 0 104 -41t41 -101t-41 -100.5t-104 -40.5q-59 0 -100 40.5t-41 100.5z" />
<glyph unicode="&#xf0;" horiz-adv-x="1177" d="M88 479q0 134 49.5 246t146.5 182t224 70q170 0 285 -115q-27 111 -80 196t-146 156l-127 -122l-170 82l131 135q-99 36 -206 55l53 180q163 -28 303 -86l145 156l142 -123l-123 -123q196 -143 279 -339t83 -474q0 -170 -60 -302.5t-174.5 -208t-267.5 -75.5 q-211 0 -349 137t-138 373zM356 487q0 -159 58.5 -240t160.5 -81q114 0 175 93.5t61 275.5q0 24 -1 68t-1 65q-89 118 -240 118q-213 0 -213 -299z" />
<glyph unicode="&#xf1;" horiz-adv-x="1189" d="M158 0v1083h227l21 -141q133 172 329 172q146 0 226.5 -87t80.5 -243v-784h-262v743q0 96 -33.5 135.5t-99.5 39.5q-124 0 -227 -164v-754h-262zM240 1393q40 96 102 154.5t145 58.5q51 0 94.5 -24t78 -47.5t63.5 -23.5q31 0 55 20.5t53 67.5l140 -69q-41 -97 -104 -154 t-136 -57q-43 0 -81.5 15t-61 33t-49.5 33t-50 15q-34 0 -57.5 -21.5t-50.5 -70.5z" />
<glyph unicode="&#xf2;" d="M88 543q0 258 137 414.5t375 156.5q239 0 373.5 -152.5t134.5 -418.5q0 -260 -136.5 -417t-373.5 -157q-239 0 -374.5 153t-135.5 421zM350 1475l107 204l430 -256l-76 -133zM365 543q0 -193 58 -284t175 -91t175 91.5t58 283.5q0 191 -57.5 281.5t-173.5 90.5 q-235 0 -235 -372z" />
<glyph unicode="&#xf3;" d="M88 543q0 258 137 414.5t375 156.5q239 0 373.5 -152.5t134.5 -418.5q0 -260 -136.5 -417t-373.5 -157q-239 0 -374.5 153t-135.5 421zM309 1423l430 256l107 -204l-463 -185zM365 543q0 -193 58 -284t175 -91t175 91.5t58 283.5q0 191 -57.5 281.5t-173.5 90.5 q-235 0 -235 -372z" />
<glyph unicode="&#xf4;" d="M88 543q0 258 137 414.5t375 156.5q239 0 373.5 -152.5t134.5 -418.5q0 -260 -136.5 -417t-373.5 -157q-239 0 -374.5 153t-135.5 421zM231 1397l283 258h166l285 -258l-101 -113l-266 180l-266 -180zM365 543q0 -193 58 -284t175 -91t175 91.5t58 283.5 q0 191 -57.5 281.5t-173.5 90.5q-235 0 -235 -372z" />
<glyph unicode="&#xf5;" d="M88 543q0 258 137 414.5t375 156.5q239 0 373.5 -152.5t134.5 -418.5q0 -260 -136.5 -417t-373.5 -157q-239 0 -374.5 153t-135.5 421zM231 1393q40 96 102.5 154.5t145.5 58.5q51 0 94.5 -24t78 -47.5t63.5 -23.5q31 0 55 20.5t53 67.5l140 -69q-41 -97 -104 -154 t-136 -57q-43 0 -81.5 15t-61 33t-49.5 33t-50 15q-34 0 -57.5 -21.5t-50.5 -70.5zM365 543q0 -193 58 -284t175 -91t175 91.5t58 283.5q0 191 -57.5 281.5t-173.5 90.5q-235 0 -235 -372z" />
<glyph unicode="&#xf6;" d="M88 543q0 258 137 414.5t375 156.5q239 0 373.5 -152.5t134.5 -418.5q0 -260 -136.5 -417t-373.5 -157q-239 0 -374.5 153t-135.5 421zM227 1466q0 60 42 101t102 41q61 0 102 -41t41 -101t-41 -100.5t-102 -40.5q-60 0 -102 40.5t-42 100.5zM365 543q0 -193 58 -284 t175 -91t175 91.5t58 283.5q0 191 -57.5 281.5t-173.5 90.5q-235 0 -235 -372zM682 1466q0 60 41 101t100 41q63 0 104.5 -41t41.5 -101t-41.5 -100.5t-104.5 -40.5q-59 0 -100 40.5t-41 100.5z" />
<glyph unicode="&#xf7;" horiz-adv-x="1044" d="M113 575v209h821v-209h-821zM358 201q0 68 47.5 116t116.5 48q70 0 118 -48t48 -116q0 -70 -48 -119t-118 -49q-69 0 -116.5 49.5t-47.5 118.5zM358 1163q0 69 47.5 117.5t116.5 48.5q70 0 118 -48.5t48 -117.5q0 -68 -48 -117t-118 -49q-68 0 -116 49t-48 117z" />
<glyph unicode="&#xf8;" d="M88 543q0 258 137 414.5t375 156.5q44 0 84 -6l80 248l199 -60l-86 -254q112 -67 171.5 -195.5t59.5 -303.5q0 -260 -136.5 -417t-373.5 -157q-44 0 -84 6l-78 -247l-200 59l83 254q-111 70 -171 198.5t-60 303.5zM356 543q0 -223 68 -310l227 680q-16 2 -51 2 q-244 0 -244 -372zM547 170q16 -2 51 -2q242 0 242 375q0 225 -68 305z" />
<glyph unicode="&#xf9;" horiz-adv-x="1181" d="M147 305v778h263v-745q0 -93 32 -131.5t101 -38.5q126 0 219 154v761h262v-1083h-227l-15 152q-119 -183 -331 -183q-146 0 -225 89t-79 247zM338 1475l106 204l430 -256l-75 -133z" />
<glyph unicode="&#xfa;" horiz-adv-x="1181" d="M147 305v778h263v-745q0 -93 32 -131.5t101 -38.5q126 0 219 154v761h262v-1083h-227l-15 152q-119 -183 -331 -183q-146 0 -225 89t-79 247zM297 1423l430 256l107 -204l-463 -185z" />
<glyph unicode="&#xfb;" horiz-adv-x="1181" d="M147 305v778h263v-745q0 -93 32 -131.5t101 -38.5q126 0 219 154v761h262v-1083h-227l-15 152q-119 -183 -331 -183q-146 0 -225 89t-79 247zM219 1397l283 258h166l284 -258l-100 -113l-266 180l-267 -180z" />
<glyph unicode="&#xfc;" horiz-adv-x="1181" d="M147 305v778h263v-745q0 -93 32 -131.5t101 -38.5q126 0 219 154v761h262v-1083h-227l-15 152q-119 -183 -331 -183q-146 0 -225 89t-79 247zM215 1466q0 60 41.5 101t101.5 41q61 0 102.5 -41t41.5 -101t-41.5 -100.5t-102.5 -40.5q-60 0 -101.5 40.5t-41.5 100.5z M670 1466q0 60 41 101t100 41q63 0 104 -41t41 -101t-41 -100.5t-104 -40.5q-59 0 -100 40.5t-41 100.5z" />
<glyph unicode="&#xfd;" horiz-adv-x="1036" d="M4 1083h279l235 -909l246 909h270l-352 -1087q-65 -201 -198 -312.5t-365 -129.5l-27 190q156 24 227 79.5t119 176.5h-90zM229 1423l430 256l107 -204l-463 -185z" />
<glyph unicode="&#xfe;" horiz-adv-x="1220" d="M158 -446v1964l262 28v-577q117 145 295 145q106 0 184 -40t126.5 -115.5t71.5 -178.5t23 -235q0 -167 -49 -296.5t-147 -204.5t-232 -75q-171 0 -272 119v-500zM420 283q76 -113 198 -113q228 0 228 373q0 200 -52 287.5t-157 87.5q-64 0 -120 -40.5t-97 -107.5v-487z " />
<glyph unicode="&#xff;" horiz-adv-x="1036" d="M4 1083h279l235 -909l246 909h270l-352 -1087q-65 -201 -198 -312.5t-365 -129.5l-27 190q156 24 227 79.5t119 176.5h-90zM147 1466q0 60 42 101t102 41q61 0 102 -41t41 -101t-41 -100.5t-102 -40.5q-60 0 -102 40.5t-42 100.5zM602 1466q0 60 41 101t100 41 q63 0 104.5 -41t41.5 -101t-41.5 -100.5t-104.5 -40.5q-59 0 -100 40.5t-41 100.5z" />
<glyph unicode="&#x152;" horiz-adv-x="1861" d="M88 707q0 344 162.5 541.5t427.5 197.5q96 0 184 -31h887l-31 -201h-588q129 -153 150 -395h373v-201h-371q-22 -253 -162 -415h635v-203h-903q-82 -31 -174 -31q-267 0 -428.5 195t-161.5 543zM373 707q0 -274 84 -402.5t231 -128.5q313 0 313 533q0 530 -313 530 q-149 0 -232 -128.5t-83 -403.5z" />
<glyph unicode="&#x153;" horiz-adv-x="1873" d="M88 543q0 258 136.5 414.5t373.5 156.5q240 0 371 -182q129 182 344 182q225 0 350 -145t125 -402q0 -19 -6 -106h-678q13 -157 81 -225t183 -68q72 0 135 23t135 73l109 -149q-180 -146 -401 -146q-249 0 -379 189q-133 -189 -369 -189q-240 0 -375 153t-135 421z M365 543q0 -193 58 -284t175 -91q233 0 233 375q0 372 -233 372t-233 -372zM1102 631h428v12q-3 285 -213 285q-96 0 -149.5 -70t-65.5 -227z" />
<glyph unicode="&#x178;" horiz-adv-x="1175" d="M-4 1415h299l299 -657l299 657h287l-455 -878v-537h-274v535zM221 1724q0 60 42 101t102 41q61 0 102 -41t41 -101t-41 -100.5t-102 -40.5q-60 0 -102 40.5t-42 100.5zM676 1724q0 60 41 101t100 41q63 0 104.5 -41t41.5 -101t-41.5 -100.5t-104.5 -40.5q-59 0 -100 40.5 t-41 100.5z" />
<glyph unicode="&#x2c6;" horiz-adv-x="856" d="M61 1397l283 258h166l285 -258l-101 -113l-266 180l-266 -180z" />
<glyph unicode="&#x2dc;" horiz-adv-x="854" d="M61 1393q40 96 102.5 154.5t145.5 58.5q51 0 94.5 -24t78 -47.5t63.5 -23.5q31 0 55 20.5t53 67.5l140 -69q-41 -97 -104 -154t-136 -57q-43 0 -81.5 15t-61 33t-49.5 33t-50 15q-34 0 -57.5 -21.5t-50.5 -70.5z" />
<glyph unicode="&#x2000;" horiz-adv-x="1002" />
<glyph unicode="&#x2001;" horiz-adv-x="2005" />
<glyph unicode="&#x2002;" horiz-adv-x="1002" />
<glyph unicode="&#x2003;" horiz-adv-x="2005" />
<glyph unicode="&#x2004;" horiz-adv-x="668" />
<glyph unicode="&#x2005;" horiz-adv-x="501" />
<glyph unicode="&#x2006;" horiz-adv-x="334" />
<glyph unicode="&#x2007;" horiz-adv-x="334" />
<glyph unicode="&#x2008;" horiz-adv-x="250" />
<glyph unicode="&#x2009;" horiz-adv-x="401" />
<glyph unicode="&#x200a;" horiz-adv-x="111" />
<glyph unicode="&#x2010;" horiz-adv-x="829" d="M106 537v208h619v-208h-619z" />
<glyph unicode="&#x2011;" horiz-adv-x="829" d="M106 537v208h619v-208h-619z" />
<glyph unicode="&#x2012;" horiz-adv-x="829" d="M106 537v208h619v-208h-619z" />
<glyph unicode="&#x2013;" horiz-adv-x="1064" d="M53 537v208h959v-208h-959z" />
<glyph unicode="&#x2014;" horiz-adv-x="1624" d="M53 537v208h1518v-208h-1518z" />
<glyph unicode="&#x2018;" horiz-adv-x="483" d="M72 1120q0 59 47 158l133 278h147l-84 -313q66 -50 66 -123q0 -63 -45.5 -106t-110.5 -43t-109 43t-44 106z" />
<glyph unicode="&#x2019;" horiz-adv-x="483" d="M72 971l84 313q-66 50 -66 125q0 61 45.5 104t110.5 43t109 -43t44 -106q0 -59 -47 -158l-133 -278h-147z" />
<glyph unicode="&#x201a;" horiz-adv-x="483" d="M72 -328l84 316q-66 47 -66 123q0 62 45.5 104.5t110.5 42.5t109 -42t44 -105q0 -58 -47 -160l-133 -279h-147z" />
<glyph unicode="&#x201c;" horiz-adv-x="878" d="M72 1118q0 58 47 160l133 278h147l-84 -315q66 -47 66 -123q0 -62 -45.5 -104.5t-110.5 -42.5t-109 42t-44 105zM467 1118q0 58 47 160l133 278h148l-84 -315q65 -46 65 -123q0 -63 -45 -105t-110 -42t-109.5 42t-44.5 105z" />
<glyph unicode="&#x201d;" horiz-adv-x="878" d="M72 971l84 315q-66 47 -66 123q0 62 45.5 104.5t110.5 42.5t109 -42t44 -105q0 -58 -47 -160l-133 -278h-147zM467 971l84 315q-66 47 -66 123q0 62 45.5 104.5t110.5 42.5t109.5 -42t44.5 -105q0 -58 -47 -160l-134 -278h-147z" />
<glyph unicode="&#x201e;" horiz-adv-x="878" d="M72 -328l84 316q-66 47 -66 123q0 62 45.5 104.5t110.5 42.5t109 -42t44 -105q0 -58 -47 -160l-133 -279h-147zM467 -328l84 316q-66 47 -66 123q0 62 45.5 104.5t110.5 42.5t109.5 -42t44.5 -105q0 -58 -47 -160l-134 -279h-147z" />
<glyph unicode="&#x2022;" horiz-adv-x="688" d="M86 700q0 110 74 184t184 74t184 -75t74 -185t-74 -184t-184 -74t-184 75t-74 185z" />
<glyph unicode="&#x2026;" horiz-adv-x="1499" d="M80 135q0 69 47.5 117.5t116.5 48.5q70 0 119 -48.5t49 -117.5q0 -68 -49 -117t-119 -49q-68 0 -116 49t-48 117zM584 135q0 69 47.5 117.5t116.5 48.5q70 0 117.5 -48.5t47.5 -117.5q0 -68 -47.5 -117t-117.5 -49q-68 0 -116 49t-48 117zM1087 135q0 69 47.5 117.5 t116.5 48.5q70 0 118 -48.5t48 -117.5q0 -68 -48 -117t-118 -49q-68 0 -116 49t-48 117z" />
<glyph unicode="&#x202f;" horiz-adv-x="401" />
<glyph unicode="&#x2039;" horiz-adv-x="718" d="M92 500v170l375 450l160 -108l-271 -426l271 -428l-160 -107z" />
<glyph unicode="&#x203a;" horiz-adv-x="718" d="M92 158l268 428l-268 426l160 108l375 -450v-170l-375 -449z" />
<glyph unicode="&#x205f;" horiz-adv-x="501" />
<glyph unicode="&#x20ac;" d="M35 461l37 147h133v164h-170l37 150h143q55 226 207 353.5t358 127.5q211 0 383 -117l-96 -166q-70 44 -133 64t-143 20q-111 0 -190 -69.5t-116 -212.5h510l-39 -150h-483v-164h449l-35 -147h-406q27 -151 106 -221t214 -70q139 0 293 86v-209q-166 -78 -322 -78 q-227 0 -372 127.5t-189 364.5h-176z" />
<glyph unicode="&#x2122;" horiz-adv-x="1832" d="M66 1253v162h710l-28 -162h-236v-645h-201v645h-245zM811 608l31 807h264l158 -532l143 532h272l31 -807h-194l-13 377q-5 148 8 268h-2l-161 -561h-164l-180 557h-3q12 -130 9 -264l-13 -377h-186z" />
<glyph unicode="&#x25fc;" horiz-adv-x="1085" d="M0 0v1085h1085v-1085h-1085z" />
</font>
</defs>
</svg>
