<?xml version="1.0" standalone="no"?>
<!DOCTYPE svg PUBLIC "-//W3C//DTD SVG 1.1//EN" "http://www.w3.org/Graphics/SVG/1.1/DTD/svg11.dtd" >
<svg xmlns="http://www.w3.org/2000/svg">
<metadata></metadata>
<defs>
<font id="collegiateoutlineflfregular" horiz-adv-x="1419" >
<font-face units-per-em="2048" ascent="1638" descent="-410" />
<missing-glyph horiz-adv-x="593" />
<glyph horiz-adv-x="2048" />
<glyph horiz-adv-x="2048" />
<glyph unicode="&#xd;" horiz-adv-x="2048" />
<glyph unicode=" "  horiz-adv-x="593" />
<glyph unicode="&#x09;" horiz-adv-x="593" />
<glyph unicode="&#xa0;" horiz-adv-x="593" />
<glyph unicode="!" horiz-adv-x="591" d="M0 0h469v385h-469v-385zM0 512h469v1194h-469v-1194zM94 94v197h281v-197h-281zM94 606v1008h281v-1008h-281z" />
<glyph unicode="&#x22;" horiz-adv-x="733" d="M0 1221h272v485h-272v-485zM59 1280v367h154v-367h-154zM367 1221h274v485h-274v-485zM426 1280v367h154v-367h-154z" />
<glyph unicode="#" horiz-adv-x="1658" d="M0 649h307v-239h375v239h172v-239h375v239h307v307h-307v205h307v307h-307v238h-375v-238h-172v238h-375v-238h-307v-307h307v-205h-307v-307zM78 725v154h307v358h-307v154h307v239h221v-239h324v239h223v-239h307v-154h-307v-358h307v-154h-307v-238h-223v238h-324 v-238h-221v238h-307zM606 879h324v358h-324v-358zM682 956v205h172v-205h-172z" />
<glyph unicode="$" d="M0 383l272 -274h134v-109h223v109h51v-109h221v109h123l272 274v348l-272 273h-500l-55 55v172l55 55h250l53 -55v-170h469v264l-272 272h-123v109h-221v-109h-51v109h-223v-109h-134l-272 -272v-356l272 -275h502l53 -53v-164l-53 -55h-250l-55 55v162h-469v-256z M94 428v117h281v-111l106 -106h334l107 106v248l-107 106h-496l-225 226v264l225 225h164v127h68v-127h205v127h69v-127h154l225 -225v-125h-282v121l-107 104h-334l-106 -104v-258l106 -107h498l225 -225v-256l-225 -225h-154v-125h-69v125h-205v-125h-68v125h-164z" />
<glyph unicode="&#x26;" d="M0 383l272 -274h185v-109h385v109h182l272 274v248h-469v-82l-53 -55h-250l-55 55v78l55 55h211v344h-211l-55 55v78l55 55h250l53 -55v-119h469v285l-272 272h-182v109h-385v-109h-185l-272 -272v-397l74 -74l-74 -74v-397zM94 428v313l113 113l-113 113v311l225 225 h216v127h229v-127h215l225 -225v-143h-282v67l-107 105h-334l-106 -105v-164l106 -106h160v-158h-160l-106 -104v-164l106 -107h334l107 107v33h282v-111l-225 -225h-215v-125h-229v125h-216z" />
<glyph unicode="'" horiz-adv-x="366" d="M0 1221h272v485h-272v-485zM59 1280v367h154v-367h-154z" />
<glyph unicode="," horiz-adv-x="591" d="M0 0h160v-309l309 309v385h-469v-385zM94 94v197h281v-244l-121 -123v170h-160z" />
<glyph unicode="-" horiz-adv-x="802" d="M0 662h674v385h-674v-385zM94 756v196h486v-196h-486z" />
<glyph unicode="." horiz-adv-x="563" d="M0 0h436v436h-436v-436zM94 94v248h248v-248h-248z" />
<glyph unicode="/" horiz-adv-x="1355" d="M0 0h469l854 1706h-469zM152 94l759 1520h260l-759 -1520h-260z" />
<glyph unicode="0" horiz-adv-x="1429" d="M0 272l272 -272h752l272 272v1162l-272 272h-752l-272 -272v-1162zM94 319v1070l225 225h660l225 -225v-1070l-225 -225h-660zM375 395l106 -104h334l107 104v916l-107 106h-334l-106 -106v-916zM469 438v830l55 55h250l53 -55v-830l-53 -53h-250z" />
<glyph unicode="1" horiz-adv-x="948" d="M0 0h854v385h-172v1321h-365l-317 -317v-271h213v-733h-213v-385zM94 94v197h213v921h-213v136l264 266h232v-1323h170v-197h-666z" />
<glyph unicode="2" horiz-adv-x="1351" d="M0 0h1229v442h-541l541 541v451l-273 272h-684l-272 -272v-338h469v172l55 55h181l55 -55v-111l-760 -760v-397zM94 94v264l760 760v193l-106 106h-267l-106 -106v-121h-281v199l225 225h590l226 -225v-369l-672 -672h672v-254h-1041z" />
<glyph unicode="3" d="M0 272l272 -272h752l272 272v508l-71 74l71 74v506l-272 272h-752l-272 -272v-283h469v117l55 55h250l53 -55v-164l-53 -53h-213v-394h213l53 -55v-164l-53 -53h-250l-55 53v84h-469v-250zM94 319v109h281v-33l106 -104h334l107 104v250l-107 107h-160v204h160l107 105 v250l-107 106h-334l-106 -106v-66h-281v144l225 225h660l225 -225v-422l-112 -113l112 -113v-422l-225 -225h-660z" />
<glyph unicode="4" horiz-adv-x="1382" d="M0 512h641v-127h-102v-385h675v385h-102v127h176v385h-176v809h-418l-694 -694v-500zM94 606v365l641 643h283v-811h176v-197h-176v-315h102v-197h-487v197h102v315h-641zM375 803h360v442l-360 -358v-84zM477 879l182 182v-182h-182z" />
<glyph unicode="5" d="M0 272l272 -272h752l272 272v643l-256 256h-516l-55 54v98h827v383h-1296v-645l272 -273h502l53 -55v-295l-53 -53h-250l-55 53v140h-469v-306zM94 319v164h281v-88l106 -104h334l107 104v381l-107 107h-496l-225 225v506h1110v-197h-829v-233l106 -107h512l211 -209 v-549l-225 -225h-660z" />
<glyph unicode="6" d="M0 272l272 -272h752l272 272v480l-272 272h-555v244l55 55h250l53 -55v-113h469v279l-272 272h-752l-272 -272v-1162zM94 319v1070l225 225h660l225 -225v-140h-282v62l-107 106h-334l-106 -106v-381h604l225 -225v-386l-225 -225h-660zM375 395l106 -104h334l107 104 v234l-107 104h-334l-106 -104v-234zM469 438v148l55 55h250l53 -55v-148l-53 -53h-250z" />
<glyph unicode="7" horiz-adv-x="1357" d="M0 1221h385v102h369l-492 -1323h492l512 1378v328h-1266v-485zM94 1315v299h1077v-197l-487 -1315h-281l486 1315h-598v-102h-197z" />
<glyph unicode="8" horiz-adv-x="1449" d="M35 272l272 -272h746l274 272v473l-108 109l108 107v473l-274 272h-746l-272 -272v-473l106 -107l-106 -109v-473zM129 319v379l154 156l-154 156v379l225 225h654l225 -225v-379l-156 -156l156 -156v-379l-225 -225h-654zM432 395l107 -104h284l105 104v254l-105 105 h-284l-107 -105v-254zM432 1059l107 -107h284l105 107v252l-105 106h-284l-107 -106v-252zM526 438v168l54 56h200l56 -56v-168l-56 -53h-200zM526 1102v166l54 55h200l56 -55v-166l-56 -55h-200z" />
<glyph unicode="9" horiz-adv-x="1458" d="M0 272l272 -272h789l274 272v1162l-274 272h-789l-272 -272v-478l272 -274h594v-244l-55 -53h-287l-55 53v111h-469v-277zM94 324v133h281v-62l106 -104h373l104 104v381h-639l-225 225v388l225 225h697l225 -225v-1070l-225 -225h-692zM375 1079l106 -106h373l104 106 v232l-104 106h-373l-106 -106v-232zM469 1122v146l55 55h287l55 -55v-146l-55 -55h-287z" />
<glyph unicode=":" horiz-adv-x="591" d="M0 0h469v385h-469v-385zM0 981h469v385h-469v-385zM94 94v197h281v-197h-281zM94 1075v197h281v-197h-281z" />
<glyph unicode=";" horiz-adv-x="591" d="M0 0h160v-309l309 309v385h-469v-385zM0 981h469v385h-469v-385zM94 94v197h281v-244l-121 -123v170h-160zM94 1075v197h281v-197h-281z" />
<glyph unicode="?" horiz-adv-x="1300" d="M0 1096h469v139l55 53h133l56 -53v-98l-381 -381v-289h514v180l332 332v457l-273 270h-633l-272 -272v-338zM94 1190v199l225 225h539l225 -225v-371l-329 -332v-127h-328v158l377 377v182l-107 106h-215l-106 -106v-86h-281zM332 0h512v385h-512v-385zM426 94v197h324 v-197h-324z" />
<glyph unicode="A" horiz-adv-x="1669" d="M0 0h653v385h-55l27 78h325l27 -78h-57v-385h655v385h-102l-312 938h86v383h-907v-383h76l-314 -938h-102v-385zM94 94v197h74l375 1126h-109v197h719v-197h-121l377 -1126h72v-197h-467v197h94l-88 266h-465l-88 -266h92v-197h-465zM600 696h373l-187 559zM709 772 l77 236l80 -236h-157z" />
<glyph unicode="B" horiz-adv-x="1449" d="M0 0h1057l272 272v500l-112 113l112 112v437l-272 272h-1057v-383h102v-938h-102v-385zM94 94v197h103v1126h-103v197h916l225 -225v-351l-154 -153l154 -154v-412l-225 -225h-916zM477 291h371l106 104v285l-106 104h-371v-493zM477 981h371l106 106v224l-106 106h-371 v-436zM571 385v307h234l55 -55v-199l-55 -53h-234zM571 1075v248h234l55 -55v-138l-55 -55h-234z" />
<glyph unicode="C" horiz-adv-x="1427" d="M0 272l272 -272h748l274 272v371h-469v-205l-55 -53h-246l-55 53v830l55 55h246l55 -55v-217h469v383l-274 272h-748l-272 -272v-1162zM94 319v1070l225 225h656l225 -225v-244h-282v166l-105 106h-332l-106 -106v-916l106 -104h332l105 104v154h282v-230l-225 -225h-656 z" />
<glyph unicode="D" horiz-adv-x="1462" d="M0 0h1057l272 272v1162l-272 272h-1057v-383h102v-938h-102v-385zM94 94v197h103v1126h-103v197h916l225 -225v-1070l-225 -225h-916zM477 291h371l106 104v916l-106 106h-371v-1126zM571 385v938h234l55 -55v-830l-55 -53h-234z" />
<glyph unicode="E" horiz-adv-x="1378" d="M0 0h1255v453h-385v-68h-299v277h70v-68h383v518h-383v-68h-70v279h299v-68h385v451h-1255v-383h102v-938h-102v-385zM94 94v197h103v1126h-103v197h1067v-266h-196v69h-488v-467h256v70h197v-332h-197v68h-256v-465h488v67h196v-264h-1067z" />
<glyph unicode="F" horiz-adv-x="1347" d="M0 0h768v385h-197v277h70v-68h383v518h-383v-68h-70v279h299v-59h385v442h-1255v-383h102v-938h-102v-385zM94 94v197h103v1126h-103v197h1067v-256h-196v59h-488v-467h256v70h197v-332h-197v68h-256v-465h197v-197h-580z" />
<glyph unicode="G" horiz-adv-x="1433" d="M0 272l272 -272h756l272 272v676h-598v-348h129v-160l-55 -55h-252l-55 55v828l55 55h252l55 -55v-215h469v381l-272 272h-756l-272 -272v-1162zM94 319v1070l225 225h662l225 -225v-242h-280v164l-107 106h-338l-106 -106v-914l106 -104h342l103 102v297h-127v164h407 v-526l-237 -236h-650z" />
<glyph unicode="H" horiz-adv-x="1599" d="M0 0h674v385h-103v285h334v-285h-102v-385h674v385h-103v938h103v383h-674v-383h102v-233h-334v233h103v383h-674v-383h102v-938h-102v-385zM94 94v197h103v1126h-103v197h486v-197h-103v-422h522v422h-102v197h485v-197h-102v-1126h102v-197h-485v197h102v473h-522v-473 h103v-197h-486z" />
<glyph unicode="I" horiz-adv-x="796" d="M0 0h674v385h-103v938h103v383h-674v-383h102v-938h-102v-385zM94 94v197h103v1126h-103v197h486v-197h-103v-1126h103v-197h-486z" />
<glyph unicode="J" horiz-adv-x="1394" d="M0 272l272 -272h625l272 272v1051h103v383h-717v-383h145v-885l-55 -53h-121l-55 53v248h-469v-414zM94 303v289h281v-197l106 -104h207l107 104v1022h-146v197h529v-197h-103v-1114l-225 -225h-531z" />
<glyph unicode="K" horiz-adv-x="1669" d="M0 0h674v385h-103v82l80 82l166 -164h-47v-385h811v385h-129l-475 475l463 463h141v383h-811v-383h45l-244 -242v242h103v383h-674v-383h102v-938h-102v-385zM94 94v197h103v1126h-103v197h486v-197h-103v-567l567 567h-180v197h623v-197h-103l-563 -563l563 -563h103 v-197h-623v197h185l-398 393l-174 -174v-219h103v-197h-486z" />
<glyph unicode="L" horiz-adv-x="1357" d="M0 0h1264v487h-385v-102h-308v938h103v383h-674v-383h102v-938h-102v-385zM94 94v197h103v1126h-103v197h486v-197h-103v-1126h496v102h196v-299h-1075z" />
<glyph unicode="M" horiz-adv-x="2011" d="M0 0h674v385h-103v442l373 -618l373 618v-442h-103v-385h674v385h-102v938h102v383h-549l-395 -659l-395 659h-549v-383h102v-938h-102v-385zM94 94v197h103v1126h-103v197h381l469 -783l469 783h381v-197h-102v-1126h102v-197h-487v197h102v856l-465 -776l-467 776v-856 h103v-197h-486z" />
<glyph unicode="N" horiz-adv-x="1718" d="M0 0h676v385h-107v379l461 -764h565v385h-102v938h102v383h-673v-383h102v-397l-469 780h-555v-383h102v-938h-102v-385zM94 94v197h103v1126h-103v197h393l631 -1051v854h-102v197h485v-197h-102v-1126h102v-197h-405l-619 1028v-831h105v-197h-488z" />
<glyph unicode="O" horiz-adv-x="1429" d="M0 272l272 -272h752l272 272v1162l-272 272h-752l-272 -272v-1162zM94 319v1070l225 225h660l225 -225v-1070l-225 -225h-660zM375 395l106 -104h334l107 104v916l-107 106h-334l-106 -106v-916zM469 438v830l55 55h250l53 -55v-830l-53 -53h-250z" />
<glyph unicode="P" horiz-adv-x="1484" d="M0 0h674v385h-103v262h486l272 273v514l-272 272h-1057v-383h102v-938h-102v-385zM94 94v197h103v1126h-103v197h916l225 -225v-422l-225 -226h-533v-450h103v-197h-486zM477 938h371l106 104v269l-106 106h-371v-479zM571 1030v293h234l55 -55v-183l-55 -55h-234z" />
<glyph unicode="Q" horiz-adv-x="1468" d="M0 272l272 -272h752l121 121l72 -72l260 260l-181 178v947l-272 272h-752l-272 -272v-1162zM94 319v1070l225 225h660l225 -225v-940l139 -140l-126 -127l-74 76l-164 -164h-660zM375 395l106 -104h334l107 104v82l-240 242l125 127l115 -115v580l-107 106h-334 l-106 -106v-916zM469 438v830l55 55h250l53 -55v-310l-20 21l-258 -260l278 -281l-53 -53h-250z" />
<glyph unicode="R" horiz-adv-x="1552" d="M0 0h674v385h-103v307h234l55 -55v-637h572v385h-103v387l-112 113l112 112v437l-272 272h-1057v-383h102v-938h-102v-385zM94 94v197h103v1126h-103v197h916l225 -225v-351l-154 -153l154 -154v-440h102v-197h-383v586l-106 104h-371v-493h103v-197h-486zM477 981h371 l106 106v224l-106 106h-371v-436zM571 1075v248h234l55 -55v-138l-55 -55h-234z" />
<glyph unicode="S" d="M0 272l272 -272h752l272 272v496l-272 272h-500l-55 56v172l55 55h250l53 -55v-170h469v336l-272 272h-752l-272 -272v-504l272 -273h502l53 -55v-164l-53 -53h-250l-55 53v162h-469v-328zM94 319v189h281v-113l106 -104h334l107 104v250l-107 107h-496l-225 225v412 l225 225h660l225 -225v-197h-282v119l-107 106h-334l-106 -106v-258l106 -105h498l225 -225v-404l-225 -225h-660z" />
<glyph unicode="T" horiz-adv-x="1536" d="M0 1221h385v102h102v-938h-102v-385h674v385h-103v938h103v-102h383v485h-1442v-485zM94 1315v299h1254v-299h-195v102h-291v-1126h103v-197h-488v197h103v1126h-289v-102h-197z" />
<glyph unicode="U" horiz-adv-x="1624" d="M0 1323h102v-1051l273 -272h751l273 272v1051h102v383h-674v-383h103v-885l-53 -53h-250l-56 53v885h103v383h-674v-383zM94 1417v197h486v-197h-103v-1022l107 -104h334l106 104v1022h-102v197h487v-197h-102v-1098l-226 -225h-659l-225 225v1098h-103z" />
<glyph unicode="V" horiz-adv-x="1755" d="M0 1323h137l312 -938h-74v-385h907v385h-88l313 938h154v383h-707v-383h56l-189 -569l-190 569h57v383h-688v-383zM94 1417v197h500v-197h-94l321 -964l322 964h-94v197h518v-197h-125l-375 -1126h121v-197h-721v197h111l-377 1126h-107z" />
<glyph unicode="W" horiz-adv-x="2785" d="M0 1323h137l312 -938h-56v-385h873v385h-56l138 410l135 -410h-56v-385h873v385h-55l311 938h135v383h-698v-383h55l-188 -563l-187 563h53v383h-761v-383h55l-186 -563l-189 563h68v383h-713v-383zM94 1417v197h527v-197h-109l322 -962l319 962h-94v197h575v-197h-94 l320 -962l321 962h-96v197h512v-197h-117l-375 -1126h103v-197h-686v197h94l-268 809l-271 -809h97v-197h-687v197h103l-377 1126h-119z" />
<glyph unicode="X" horiz-adv-x="1964" d="M0 0h811v385h-16l153 152l152 -152h-17v-385h787v385h-135l-469 469l469 469h135v383h-787v-383h17l-152 -152l-153 152h16v383h-811v-383h160l471 -469l-471 -469h-160v-385zM94 94v197h107l563 563l-563 563h-107v197h623v-197h-150l381 -381l379 381h-149v197h600 v-197h-84l-564 -563l564 -563h84v-197h-600v197h149l-379 381l-381 -381h150v-197h-623z" />
<glyph unicode="Y" horiz-adv-x="1964" d="M0 1323h160l553 -553v-385h-103v-385h674v385h-102v385l553 553h135v383h-787v-383h17l-152 -152l-153 152h16v383h-811v-383zM94 1417v197h623v-197h-150l381 -381l379 381h-149v197h600v-197h-84l-607 -606v-520h103v-213h-485v213h102v520l-606 606h-107z" />
<glyph unicode="Z" horiz-adv-x="1398" d="M0 0h1276v487h-385v-102h-281l666 997v324h-1276v-485h385v102h281l-666 -999v-324zM94 94v197l752 1126h-555v-102h-197v299h1088v-197l-752 -1126h555v102h197v-299h-1088z" />
<glyph unicode="a" horiz-adv-x="1382" d="M0 0h522v307h-45l23 64h262l20 -64h-47v-307h525v307h-82l-250 752h71v307h-727v-307h60l-250 -752h-82v-307zM76 76v155h57l301 902h-88v157h578v-157h-99l301 -902h58v-155h-373v155h76l-72 215h-371l-71 -215h73v-155h-370zM481 557h297l-147 447zM567 618l64 187 l61 -187h-125z" />
<glyph unicode="b" horiz-adv-x="1183" d="M0 0h846l217 219v399l-90 89l90 90v350l-217 219h-846v-307h82v-752h-82v-307zM76 76v155h82v902h-82v157h733l180 -180v-281l-123 -122l123 -123v-328l-180 -180h-733zM383 231h297l84 86v226l-84 86h-297v-398zM383 784h297l84 86v179l-84 84h-297v-349zM457 307v246 h188l43 -45v-156l-43 -45h-188zM457 860v199h188l43 -45v-109l-43 -45h-188z" />
<glyph unicode="c" horiz-adv-x="1157" d="M0 219l219 -219h596l219 219v297h-375v-164l-43 -45h-196l-45 45v662l45 45h196l43 -45v-172h375v305l-219 219h-596l-219 -219v-928zM76 256v854l180 180h524l178 -180v-192h-225v131l-82 84h-266l-84 -84v-732l84 -86h266l82 86v123h225v-184l-178 -180h-524z" />
<glyph unicode="d" horiz-adv-x="1185" d="M0 0h846l217 219v928l-217 219h-846v-307h82v-752h-82v-307zM76 76v155h82v902h-82v157h733l180 -180v-854l-180 -180h-733zM383 231h297l84 86v732l-84 84h-297v-902zM457 307v752h188l43 -45v-662l-43 -45h-188z" />
<glyph unicode="e" horiz-adv-x="1126" d="M0 0h1004v362h-308v-55h-239v221h55v-53h307v416h-307v-55h-55v223h239v-55h308v362h-1004v-307h82v-752h-82v-307zM76 76v155h82v902h-82v157h852v-211h-156v54h-389v-371h205v53h155v-266h-155v55h-205v-373h389v56h156v-211h-852z" />
<glyph unicode="f" horiz-adv-x="1097" d="M0 0h614v307h-157v221h55v-53h307v416h-307v-55h-55v223h239v-49h308v356h-1004v-307h82v-752h-82v-307zM76 76v155h82v902h-82v157h852v-205h-156v48h-389v-371h205v53h155v-266h-155v55h-205v-373h156v-155h-463z" />
<glyph unicode="g" horiz-adv-x="1161" d="M0 219l219 -219h604l217 219v541h-479v-281h105v-127l-45 -43h-201l-45 43v662l45 45h201l45 -45v-170h374v303l-217 219h-604l-219 -219v-928zM76 256v854l180 180h528l183 -180v-192h-226v131l-86 84h-270l-84 -84v-732l84 -84h274l82 82v240h-102v129h328v-422 l-193 -186h-518z" />
<glyph unicode="h" horiz-adv-x="1304" d="M0 0h539v307h-82v230h266v-230h-82v-307h541v307h-82v752h82v307h-541v-307h82v-189h-266v189h82v307h-539v-307h82v-752h-82v-307zM76 76v155h82v902h-82v157h389v-157h-82v-338h416v338h-82v157h389v-157h-82v-902h82v-155h-389v155h82v379h-416v-379h82v-155h-389z " />
<glyph unicode="i" horiz-adv-x="661" d="M0 0h539v307h-82v752h82v307h-539v-307h82v-752h-82v-307zM76 76v155h82v902h-82v157h389v-157h-82v-902h82v-155h-389z" />
<glyph unicode="j" horiz-adv-x="1140" d="M0 219l219 -219h498l219 219v840h82v307h-574v-307h115v-707l-43 -45h-96l-45 45v197h-375v-330zM76 242v233h225v-158l84 -86h164l86 86v816h-117v157h424v-157h-82v-891l-180 -181h-424z" />
<glyph unicode="k" horiz-adv-x="1386" d="M0 0h539v307h-82v68l65 63l131 -131h-37v-307h650v307h-103l-381 381l371 371h113v307h-650v-307h35l-194 -195v195h82v307h-539v-307h82v-752h-82v-307zM76 76v155h82v902h-82v157h389v-157h-82v-453l453 453h-144v157h498v-157h-82l-451 -451l451 -451h82v-155h-498 v155h146l-316 318l-139 -141v-177h82v-155h-389z" />
<glyph unicode="l" horiz-adv-x="1103" d="M0 0h1010v389h-308v-82h-245v752h82v307h-539v-307h82v-752h-82v-307zM76 76v155h82v902h-82v157h389v-157h-82v-902h395v82h158v-237h-860z" />
<glyph unicode="m" horiz-adv-x="1632" d="M0 0h539v307h-82v355l297 -494l299 494v-355h-82v-307h540v307h-81v752h81v307h-440l-317 -530l-316 530h-438v-307h82v-752h-82v-307zM76 76v155h82v902h-82v157h303l375 -624l376 624h306v-157h-82v-902h82v-155h-389v155h81v687l-374 -621l-371 621v-687h82v-155h-389 z" />
<glyph unicode="n" horiz-adv-x="1398" d="M0 0h541v307h-84v303l366 -610h453v307h-82v752h82v307h-539v-307h82v-318l-375 625h-444v-307h82v-752h-82v-307zM76 76v155h82v902h-82v157h315l504 -839v682h-82v157h389v-157h-82v-902h82v-155h-325l-494 821v-666h84v-155h-391z" />
<glyph unicode="o" horiz-adv-x="1161" d="M0 219l219 -219h600l219 219v928l-219 219h-600l-219 -219v-928zM76 256v854l180 180h526l181 -180v-854l-181 -180h-526zM301 317l84 -86h266l86 86v732l-86 84h-266l-84 -84v-732zM375 352v662l45 45h198l44 -45v-662l-44 -45h-198z" />
<glyph unicode="p" horiz-adv-x="1212" d="M0 0h539v307h-82v211h389l217 217v412l-217 219h-846v-307h82v-752h-82v-307zM76 76v155h82v902h-82v157h733l180 -180v-336l-180 -182h-426v-361h82v-155h-389zM383 750h297l84 86v213l-84 84h-297v-383zM457 825v234h188l43 -45v-146l-43 -43h-188z" />
<glyph unicode="q" horiz-adv-x="1183" d="M0 219l219 -219h600l99 98l55 -59l209 209l-144 143v756l-219 219h-600l-219 -219v-928zM76 256v854l180 180h526l181 -180v-752l112 -110l-102 -101l-60 60l-131 -131h-526zM301 317l84 -86h266l86 86v66l-192 192l100 101l92 -92v465l-86 84h-266l-84 -84v-732z M375 352v662l45 45h198l44 -45v-248l-17 16l-207 -207l224 -223l-44 -45h-198z" />
<glyph unicode="r" horiz-adv-x="1265" d="M0 0h539v307h-82v246h188l43 -45v-508h457v307h-82v311l-90 89l90 90v350l-217 219h-846v-307h82v-752h-82v-307zM76 76v155h82v902h-82v157h733l180 -180v-281l-123 -122l123 -123v-353h82v-155h-307v467l-84 86h-297v-398h82v-155h-389zM383 784h297l84 86v179l-84 84 h-297v-349zM457 860v199h188l43 -45v-109l-43 -45h-188z" />
<glyph unicode="s" horiz-adv-x="1161" d="M0 219l219 -219h600l219 219v395l-219 220h-399l-45 43v137l45 45h198l44 -45v-137h376v270l-219 219h-600l-219 -219v-404l219 -217h399l44 -45v-129l-44 -45h-198l-45 45v129h-375v-262zM76 256v150h225v-89l84 -86h266l86 86v199l-86 84h-395l-180 182v328l180 180 h526l181 -180v-158h-226v97l-86 84h-266l-84 -84v-205l84 -86h397l181 -180v-322l-181 -180h-526z" />
<glyph unicode="t" horiz-adv-x="1245" d="M0 977h307v82h82v-750h-82v-307h539v307h-82v750h82v-82h307v389h-1153v-389zM76 1051v239h1001v-239h-157v82h-232v-900h82v-155h-387v155h82v900h-234v-82h-155z" />
<glyph unicode="u" horiz-adv-x="1296" d="M0 1059h82v-840l219 -219h600l219 219v840h82v307h-540v-307h81v-707l-43 -45h-198l-45 45v707h82v307h-539v-307zM76 1133v157h389v-157h-82v-816l84 -86h266l86 86v816h-82v157h389v-157h-82v-877l-180 -180h-526l-180 180v877h-82z" />
<glyph unicode="v" horiz-adv-x="1421" d="M0 1059h109l249 -752h-59v-307h727v307h-70l248 752h123v307h-563v-307h45l-152 -455l-151 455h43v307h-549v-307zM76 1133v157h399v-157h-76l258 -771l256 771h-75v157h415v-157h-100l-299 -902h96v-155h-575v155h86l-301 902h-84z" />
<glyph unicode="w" horiz-adv-x="2246" d="M0 1059h109l249 -752h-45v-307h701v307h-45l108 328l109 -328h-43v-307h696v307h-43l248 752h110v307h-561v-307h45l-149 -451l-152 451h45v307h-610v-307h43l-149 -451l-150 451h53v307h-569v-307zM76 1133v157h420v-157h-86l256 -768l258 768h-78v157h461v-157h-74 l256 -768l256 768h-76v157h410v-157h-97l-299 -902h82v-155h-548v155h77l-217 648l-215 -648h76v-155h-549v155h82l-301 902h-94z" />
<glyph unicode="x" horiz-adv-x="1607" d="M0 0h657v305h-14l123 121l123 -121h-12v-305h636v305h-108l-381 375l381 373h108v305h-636v-305h12l-123 -121l-123 121h14v305h-657v-305h129l381 -373l-381 -375h-129v-305zM78 76v155h86l457 449l-457 448h-86v156h502v-156h-121l307 -303l309 303h-121v156h486v-156 h-70l-455 -448l455 -449h70v-155h-486v155h121l-309 304l-307 -304h121v-155h-502z" />
<glyph unicode="y" horiz-adv-x="1587" d="M0 1059h129l440 -443v-307h-82v-307h539v307h-82v307l442 443h109v307h-629v-307h13l-121 -121l-123 121h14v307h-649v-307zM76 1133v157h497v-157h-120l305 -304l303 304h-121v157h479v-157h-65l-486 -482v-418h82v-170h-387v170h82v418l-485 482h-84z" />
<glyph unicode="z" horiz-adv-x="1142" d="M0 0h1020v389h-307v-82h-226l533 799v260h-1020v-389h307v82h225l-532 -799v-260zM76 76v155l600 902h-445v-82h-155v239h870v-157l-602 -902h444v82h158v-237h-870z" />
<glyph unicode="&#xad;" horiz-adv-x="802" d="M0 662h674v385h-674v-385zM94 756v196h486v-196h-486z" />
<glyph unicode="&#x2000;" horiz-adv-x="853" />
<glyph unicode="&#x2001;" horiz-adv-x="1706" />
<glyph unicode="&#x2002;" horiz-adv-x="853" />
<glyph unicode="&#x2003;" horiz-adv-x="1706" />
<glyph unicode="&#x2004;" horiz-adv-x="568" />
<glyph unicode="&#x2005;" horiz-adv-x="426" />
<glyph unicode="&#x2006;" horiz-adv-x="284" />
<glyph unicode="&#x2007;" horiz-adv-x="284" />
<glyph unicode="&#x2008;" horiz-adv-x="213" />
<glyph unicode="&#x2009;" horiz-adv-x="341" />
<glyph unicode="&#x200a;" horiz-adv-x="94" />
<glyph unicode="&#x2010;" horiz-adv-x="802" d="M0 662h674v385h-674v-385zM94 756v196h486v-196h-486z" />
<glyph unicode="&#x2011;" horiz-adv-x="802" d="M0 662h674v385h-674v-385zM94 756v196h486v-196h-486z" />
<glyph unicode="&#x2012;" horiz-adv-x="802" d="M0 662h674v385h-674v-385zM94 756v196h486v-196h-486z" />
<glyph unicode="&#x2013;" horiz-adv-x="1152" d="M0 662h1024v385h-1024v-385zM143 756v196h738v-196h-738z" />
<glyph unicode="&#x2014;" horiz-adv-x="2176" d="M0 662h2048v385h-2048v-385zM286 756v196h1476v-196h-1476z" />
<glyph unicode="&#x2018;" horiz-adv-x="598" d="M0 1323l309 -309v309h109v383h-418v-383zM94 1397v217h230v-197h-109v-141z" />
<glyph unicode="&#x2019;" horiz-adv-x="598" d="M0 1323h109v-309l309 309v383h-418v-383zM94 1417v197h230v-217l-121 -121v141h-109z" />
<glyph unicode="&#x201c;" horiz-adv-x="1058" d="M0 1323l309 -309v309h109v383h-418v-383zM94 1397v217h230v-197h-109v-141zM528 1323l308 -309v309h110v383h-418v-383zM621 1397v217h231v-197h-109v-141z" />
<glyph unicode="&#x201d;" horiz-adv-x="1058" d="M0 1323h109v-309l309 309v383h-418v-383zM94 1417v197h230v-217l-121 -121v141h-109zM528 1323h109v-309l309 309v383h-418v-383zM621 1417v197h231v-217l-121 -121v141h-110z" />
<glyph unicode="&#x2022;" horiz-adv-x="1144" d="M0 854q0 -172 76 -285.5t189.5 -171t246.5 -57.5t246.5 57.5t189.5 172t76 284.5t-76 283.5t-189.5 171t-246.5 57.5t-246.5 -57.5t-189.5 -171t-76 -283.5zM94 854q0 139 61.5 232.5t154.5 139.5t202 46t202 -46t154.5 -139.5t61.5 -232.5t-61.5 -232.5t-154.5 -140.5 t-202 -47t-202 47t-154.5 140.5t-61.5 232.5z" />
<glyph unicode="&#x202f;" horiz-adv-x="341" />
<glyph unicode="&#x205f;" horiz-adv-x="426" />
<glyph unicode="&#xe000;" horiz-adv-x="1361" d="M0 0v1362h1362v-1362h-1362z" />
</font>
</defs>
</svg>
