<?xml version="1.0" standalone="no"?>
<!DOCTYPE svg PUBLIC "-//W3C//DTD SVG 1.1//EN" "http://www.w3.org/Graphics/SVG/1.1/DTD/svg11.dtd" >
<svg xmlns="http://www.w3.org/2000/svg">
<metadata></metadata>
<defs>
<font id="collegiateinsideflfregular" horiz-adv-x="1419" >
<font-face units-per-em="2048" ascent="1638" descent="-410" />
<missing-glyph horiz-adv-x="593" />
<glyph horiz-adv-x="2048" />
<glyph horiz-adv-x="2048" />
<glyph unicode="&#xd;" horiz-adv-x="2048" />
<glyph unicode=" "  horiz-adv-x="593" />
<glyph unicode="&#x09;" horiz-adv-x="593" />
<glyph unicode="&#xa0;" horiz-adv-x="593" />
<glyph unicode="!" horiz-adv-x="591" d="M94 94h281v197h-281v-197zM94 606h281v1008h-281v-1008z" />
<glyph unicode="&#x22;" horiz-adv-x="733" d="M59 1280h154v367h-154v-367zM426 1280h154v367h-154v-367z" />
<glyph unicode="#" horiz-adv-x="1658" d="M78 725h307v-238h221v238h324v-238h223v238h307v154h-307v358h307v154h-307v239h-223v-239h-324v239h-221v-239h-307v-154h307v-358h-307v-154zM606 879v358h324v-358h-324z" />
<glyph unicode="$" d="M94 428l225 -225h164v-125h68v125h205v-125h69v125h154l225 225v256l-225 225h-498l-106 107v258l106 104h334l107 -104v-121h282v125l-225 225h-154v127h-69v-127h-205v127h-68v-127h-164l-225 -225v-264l225 -226h496l107 -106v-248l-107 -106h-334l-106 106v111h-281 v-117z" />
<glyph unicode="&#x26;" d="M94 428l225 -225h209v-125h240v125h211l225 225v111h-282v-33l-107 -107h-334l-106 107v164l106 104h160v158h-160l-106 106v164l106 105h334l107 -105v-67h282v143l-225 225h-211v127h-240v-127h-209l-225 -225v-311l113 -113l-113 -113v-313z" />
<glyph unicode="'" horiz-adv-x="366" d="M59 1280h154v367h-154v-367z" />
<glyph unicode="," horiz-adv-x="591" d="M94 94h160v-170l121 123v244h-281v-197z" />
<glyph unicode="-" horiz-adv-x="802" d="M94 756h486v196h-486v-196z" />
<glyph unicode="." horiz-adv-x="563" d="M94 94h248v248h-248v-248z" />
<glyph unicode="/" horiz-adv-x="1355" d="M152 94h260l759 1520h-260z" />
<glyph unicode="0" horiz-adv-x="1429" d="M94 319l225 -225h660l225 225v1070l-225 225h-660l-225 -225v-1070zM375 395v916l106 106h334l107 -106v-916l-107 -104h-334z" />
<glyph unicode="1" horiz-adv-x="948" d="M94 94h666v197h-170v1323h-232l-264 -266v-136h213v-921h-213v-197z" />
<glyph unicode="2" horiz-adv-x="1351" d="M94 94h1041v254h-672l672 672v369l-226 225h-590l-225 -225v-199h281v121l106 106h267l106 -106v-193l-760 -760v-264z" />
<glyph unicode="3" d="M94 319l225 -225h660l225 225v422l-112 113l112 113v422l-225 225h-660l-225 -225v-144h281v66l106 106h334l107 -106v-250l-107 -105h-160v-204h160l107 -107v-250l-107 -104h-334l-106 104v33h-281v-109z" />
<glyph unicode="4" horiz-adv-x="1382" d="M94 606h641v-315h-102v-197h487v197h-102v315h176v197h-176v811h-283l-641 -643v-365zM375 803v84l360 358v-442h-360z" />
<glyph unicode="5" d="M94 319l225 -225h660l225 225v549l-211 209h-512l-106 107v233h829v197h-1110v-506l225 -225h496l107 -107v-381l-107 -104h-334l-106 104v88h-281v-164z" />
<glyph unicode="6" d="M94 319l225 -225h660l225 225v386l-225 225h-604v381l106 106h334l107 -106v-62h282v140l-225 225h-660l-225 -225v-1070zM375 395v234l106 104h334l107 -104v-234l-107 -104h-334z" />
<glyph unicode="7" horiz-adv-x="1357" d="M94 1315h197v102h598l-486 -1315h281l487 1315v197h-1077v-299z" />
<glyph unicode="8" horiz-adv-x="1449" d="M129 319l225 -225h654l225 225v379l-156 156l156 156v379l-225 225h-654l-225 -225v-379l154 -156l-154 -156v-379zM432 395v254l107 105h284l105 -105v-254l-105 -104h-284zM432 1059v252l107 106h284l105 -106v-252l-105 -107h-284z" />
<glyph unicode="9" horiz-adv-x="1458" d="M94 324l230 -230h692l225 225v1070l-225 225h-697l-225 -225v-388l225 -225h639v-381l-104 -104h-373l-106 104v62h-281v-133zM375 1079v232l106 106h373l104 -106v-232l-104 -106h-373z" />
<glyph unicode=":" horiz-adv-x="591" d="M94 94h281v197h-281v-197zM94 1075h281v197h-281v-197z" />
<glyph unicode=";" horiz-adv-x="591" d="M94 94h160v-170l121 123v244h-281v-197zM94 1075h281v197h-281v-197z" />
<glyph unicode="?" horiz-adv-x="1300" d="M94 1190h281v86l106 106h215l107 -106v-182l-377 -377v-158h324v127l333 334v369l-225 225h-539l-225 -225v-199zM426 94h324v197h-324v-197z" />
<glyph unicode="A" horiz-adv-x="1669" d="M94 94h465v197h-92l88 266h465l88 -266h-94v-197h467v197h-72l-377 1126h121v197h-719v-197h109l-375 -1126h-74v-197zM600 696l186 559l187 -559h-373z" />
<glyph unicode="B" horiz-adv-x="1449" d="M94 94h916l225 225v412l-154 154l154 153v351l-225 225h-916v-197h103v-1126h-103v-197zM477 291v493h371l106 -104v-285l-106 -104h-371zM477 981v436h371l106 -106v-224l-106 -106h-371z" />
<glyph unicode="C" horiz-adv-x="1429" d="M94 319l225 -225h660l225 225v230h-282v-154l-107 -104h-334l-106 104v916l106 106h334l107 -106v-166h282v244l-225 225h-660l-225 -225v-1070z" />
<glyph unicode="D" horiz-adv-x="1462" d="M94 94h916l225 225v1070l-225 225h-916v-197h103v-1126h-103v-197zM477 291v1126h371l106 -106v-916l-106 -104h-371z" />
<glyph unicode="E" horiz-adv-x="1378" d="M94 94h1067v264h-196v-67h-488v465h256v-68h197v332h-197v-70h-256v467h488v-69h196v266h-1067v-197h103v-1126h-103v-197z" />
<glyph unicode="F" horiz-adv-x="1347" d="M94 94h580v197h-197v465h256v-68h197v332h-197v-70h-256v467h488v-69h196v266h-1067v-197h103v-1126h-103v-197z" />
<glyph unicode="G" horiz-adv-x="1433" d="M94 319l225 -225h656l225 225v537h-407v-164h125v-297l-105 -104h-332l-106 104v916l106 106h332l105 -106v-166h282v244l-225 225h-656l-225 -225v-1070z" />
<glyph unicode="H" horiz-adv-x="1599" d="M94 94h486v197h-103v473h522v-473h-102v-197h485v197h-102v1126h102v197h-485v-197h102v-422h-522v422h103v197h-486v-197h103v-1126h-103v-197z" />
<glyph unicode="I" horiz-adv-x="796" d="M94 94h486v197h-103v1126h103v197h-486v-197h103v-1126h-103v-197z" />
<glyph unicode="J" horiz-adv-x="1394" d="M94 303l225 -225h531l225 225v1114h103v197h-529v-197h146v-1022l-107 -104h-207l-106 104v197h-281v-289z" />
<glyph unicode="K" horiz-adv-x="1669" d="M94 94h486v197h-103v219l174 174l398 -393h-185v-197h623v197h-103l-563 563l563 563h103v197h-623v-197h180l-567 -567v567h103v197h-486v-197h103v-1126h-103v-197z" />
<glyph unicode="L" horiz-adv-x="1357" d="M94 94h1075v299h-196v-102h-496v1126h103v197h-486v-197h103v-1126h-103v-197z" />
<glyph unicode="M" horiz-adv-x="2011" d="M94 94h486v197h-103v856l467 -776l465 776v-856h-102v-197h487v197h-102v1126h102v197h-381l-469 -783l-469 783h-381v-197h103v-1126h-103v-197z" />
<glyph unicode="N" horiz-adv-x="1718" d="M94 94h486v197h-103v831l619 -1028h405v197h-102v1126h102v197h-485v-197h102v-854l-631 1051h-393v-197h103v-1126h-103v-197z" />
<glyph unicode="O" horiz-adv-x="1429" d="M94 319l225 -225h660l225 225v1070l-225 225h-660l-225 -225v-1070zM375 395v916l106 106h334l107 -106v-916l-107 -104h-334z" />
<glyph unicode="P" horiz-adv-x="1452" d="M94 94h486v197h-103v450h533l225 226v422l-225 225h-916v-197h103v-1126h-103v-197zM477 938v479h371l106 -106v-269l-106 -104h-371z" />
<glyph unicode="Q" horiz-adv-x="1468" d="M94 319l225 -225h660l164 164l74 -76l126 127l-139 140v940l-225 225h-660l-225 -225v-1070zM375 395v916l106 106h334l107 -106v-580l-115 115l-125 -127l240 -242v-82l-107 -104h-334z" />
<glyph unicode="R" horiz-adv-x="1552" d="M94 94h486v197h-103v493h371l106 -104v-586h383v197h-102v440l-154 154l154 153v351l-225 225h-916v-197h103v-1126h-103v-197zM477 981v436h371l106 -106v-224l-106 -106h-371z" />
<glyph unicode="S" d="M94 319l225 -225h660l225 225v404l-225 225h-498l-106 105v258l106 106h334l107 -106v-119h282v197l-225 225h-660l-225 -225v-412l225 -225h496l107 -107v-250l-107 -104h-334l-106 104v113h-281v-189z" />
<glyph unicode="T" horiz-adv-x="1536" d="M94 1315h197v102h289v-1126h-103v-197h488v197h-103v1126h291v-102h195v299h-1254v-299z" />
<glyph unicode="U" horiz-adv-x="1624" d="M94 1417h103v-1098l225 -225h659l226 225v1098h102v197h-487v-197h102v-1022l-106 -104h-334l-107 104v1022h103v197h-486v-197z" />
<glyph unicode="V" horiz-adv-x="1755" d="M94 1417h107l377 -1126h-111v-197h721v197h-121l375 1126h125v197h-518v-197h94l-322 -964l-321 964h94v197h-500v-197z" />
<glyph unicode="W" horiz-adv-x="2785" d="M94 1417h119l377 -1126h-103v-197h687v197h-97l271 809l268 -809h-94v-197h686v197h-103l375 1126h117v197h-512v-197h96l-321 -962l-320 962h94v197h-575v-197h94l-319 -962l-322 962h109v197h-527v-197z" />
<glyph unicode="X" horiz-adv-x="1964" d="M94 94h623v197h-150l381 381l379 -381h-149v-197h600v197h-84l-564 563l564 563h84v197h-600v-197h149l-379 -381l-381 381h150v197h-623v-197h107l563 -563l-563 -563h-107v-197z" />
<glyph unicode="Y" horiz-adv-x="1964" d="M94 1417h107l606 -606v-520h-102v-213h485v213h-103v520l607 606h84v197h-596v-197h149l-383 -385l-385 385h150v197h-619v-197z" />
<glyph unicode="Z" horiz-adv-x="1398" d="M94 94h1088v299h-197v-102h-555l752 1126v197h-1088v-299h197v102h555l-752 -1126v-197z" />
<glyph unicode="a" horiz-adv-x="1382" d="M76 76h370v155h-73l71 215h371l72 -215h-76v-155h373v155h-58l-301 902h99v157h-578v-157h88l-301 -902h-57v-155zM481 557l150 447l147 -447h-297z" />
<glyph unicode="b" horiz-adv-x="1183" d="M76 76h733l180 180v328l-123 123l123 122v281l-180 180h-733v-157h82v-902h-82v-155zM383 231v398h297l84 -86v-226l-84 -86h-297zM383 784v349h297l84 -84v-179l-84 -86h-297z" />
<glyph unicode="c" horiz-adv-x="1157" d="M76 256l180 -180h526l181 180v184h-226v-123l-86 -86h-266l-84 86v732l84 84h266l86 -84v-131h226v192l-181 180h-526l-180 -180v-854z" />
<glyph unicode="d" horiz-adv-x="1185" d="M76 76h733l180 180v854l-180 180h-733v-157h82v-902h-82v-155zM383 231v902h297l84 -84v-732l-84 -86h-297z" />
<glyph unicode="e" horiz-adv-x="1126" d="M76 76h852v211h-156v-56h-389v373h205v-55h155v266h-155v-53h-205v371h389v-54h156v211h-852v-157h82v-902h-82v-155z" />
<glyph unicode="f" horiz-adv-x="1097" d="M76 76h463v155h-156v373h205v-55h155v266h-155v-53h-205v371h389v-54h156v211h-852v-157h82v-902h-82v-155z" />
<glyph unicode="g" horiz-adv-x="1161" d="M76 256l180 -180h524l178 180v428h-325v-129h100v-238l-82 -86h-266l-84 86v732l84 84h266l82 -84v-131h225v192l-178 180h-524l-180 -180v-854z" />
<glyph unicode="h" horiz-adv-x="1304" d="M76 76h389v155h-82v379h416v-379h-82v-155h389v155h-82v902h82v157h-389v-157h82v-338h-416v338h82v157h-389v-157h82v-902h-82v-155z" />
<glyph unicode="i" horiz-adv-x="661" d="M76 76h389v155h-82v902h82v157h-389v-157h82v-902h-82v-155z" />
<glyph unicode="j" horiz-adv-x="1140" d="M76 242l180 -181h424l180 181v891h82v157h-424v-157h117v-816l-86 -86h-164l-84 86v158h-225v-233z" />
<glyph unicode="k" horiz-adv-x="1386" d="M76 76h389v155h-82v177l139 141l316 -318h-146v-155h498v155h-82l-451 451l451 451h82v157h-498v-157h144l-453 -453v453h82v157h-389v-157h82v-902h-82v-155z" />
<glyph unicode="l" horiz-adv-x="1103" d="M76 76h860v237h-158v-82h-395v902h82v157h-389v-157h82v-902h-82v-155z" />
<glyph unicode="m" horiz-adv-x="1632" d="M76 76h389v155h-82v687l371 -621l374 621v-687h-81v-155h389v155h-82v902h82v157h-306l-376 -624l-375 624h-303v-157h82v-902h-82v-155z" />
<glyph unicode="n" horiz-adv-x="1398" d="M76 76h389v155h-82v666l494 -821h325v155h-82v902h82v157h-389v-157h82v-682l-504 839h-315v-157h82v-902h-82v-155z" />
<glyph unicode="o" horiz-adv-x="1161" d="M76 256l180 -180h526l181 180v854l-181 180h-526l-180 -180v-854zM301 317v732l84 84h266l86 -84v-732l-86 -86h-266z" />
<glyph unicode="p" horiz-adv-x="1212" d="M76 76h389v155h-82v361h426l180 182v336l-180 180h-733v-157h82v-902h-82v-155zM383 750v383h297l84 -84v-213l-84 -86h-297z" />
<glyph unicode="q" horiz-adv-x="1183" d="M76 256l180 -180h526l131 131l60 -60l102 101l-112 110v752l-181 180h-526l-180 -180v-854zM301 317v732l84 84h266l86 -84v-465l-92 92l-100 -101l192 -192v-66l-86 -86h-266z" />
<glyph unicode="r" horiz-adv-x="1265" d="M76 76h389v155h-82v398h297l84 -86v-467h307v155h-82v353l-123 123l123 122v281l-180 180h-733v-157h82v-902h-82v-155zM383 784v349h297l84 -84v-179l-84 -86h-297z" />
<glyph unicode="s" horiz-adv-x="1161" d="M76 256l180 -180h526l181 180v322l-181 180h-397l-84 86v205l84 84h266l86 -84v-97h226v158l-181 180h-526l-180 -180v-328l180 -182h395l86 -84v-199l-86 -86h-266l-84 86v89h-225v-150z" />
<glyph unicode="t" horiz-adv-x="1245" d="M76 1051h155v82h234v-900h-82v-155h387v155h-82v900h232v-82h157v239h-1001v-239z" />
<glyph unicode="u" horiz-adv-x="1296" d="M76 1133h82v-877l180 -180h526l180 180v877h82v157h-389v-157h82v-816l-86 -86h-266l-84 86v816h82v157h-389v-157z" />
<glyph unicode="v" horiz-adv-x="1421" d="M76 1133h84l301 -902h-86v-155h575v155h-96l299 902h100v157h-415v-157h75l-256 -771l-258 771h76v157h-399v-157z" />
<glyph unicode="w" horiz-adv-x="2246" d="M76 1133h94l301 -902h-82v-155h549v155h-76l215 648l217 -648h-77v-155h548v155h-82l299 902h97v157h-410v-157h76l-256 -768l-256 768h74v157h-461v-157h78l-258 -768l-256 768h86v157h-420v-157z" />
<glyph unicode="x" horiz-adv-x="1607" d="M78 76h502v155h-121l307 304l309 -304h-121v-155h486v155h-70l-455 449l455 448h70v156h-486v-156h121l-309 -303l-307 303h121v156h-502v-156h86l457 -448l-457 -449h-86v-155z" />
<glyph unicode="y" horiz-adv-x="1587" d="M76 1133h84l485 -482v-418h-82v-170h387v170h-82v418l486 482h65v157h-475v-157h119l-305 -306l-307 306h118v157h-493v-157z" />
<glyph unicode="z" horiz-adv-x="1142" d="M76 76h870v237h-158v-82h-444l602 902v157h-870v-239h155v82h445l-600 -902v-155z" />
<glyph unicode="&#xad;" horiz-adv-x="802" d="M94 756h486v196h-486v-196z" />
<glyph unicode="&#x2000;" horiz-adv-x="823" />
<glyph unicode="&#x2001;" horiz-adv-x="1647" />
<glyph unicode="&#x2002;" horiz-adv-x="823" />
<glyph unicode="&#x2003;" horiz-adv-x="1647" />
<glyph unicode="&#x2004;" horiz-adv-x="549" />
<glyph unicode="&#x2005;" horiz-adv-x="411" />
<glyph unicode="&#x2006;" horiz-adv-x="274" />
<glyph unicode="&#x2007;" horiz-adv-x="274" />
<glyph unicode="&#x2008;" horiz-adv-x="205" />
<glyph unicode="&#x2009;" horiz-adv-x="329" />
<glyph unicode="&#x200a;" horiz-adv-x="91" />
<glyph unicode="&#x2010;" horiz-adv-x="802" d="M94 756h486v196h-486v-196z" />
<glyph unicode="&#x2011;" horiz-adv-x="802" d="M94 756h486v196h-486v-196z" />
<glyph unicode="&#x2012;" horiz-adv-x="802" d="M94 756h486v196h-486v-196z" />
<glyph unicode="&#x2013;" horiz-adv-x="1340" d="M94 756h1024v196h-1024v-196z" />
<glyph unicode="&#x2014;" horiz-adv-x="2364" d="M94 756h2048v196h-2048v-196z" />
<glyph unicode="&#x2018;" horiz-adv-x="598" d="M94 1397l121 -121v141h109v197h-230v-217z" />
<glyph unicode="&#x2019;" horiz-adv-x="598" d="M94 1417h109v-141l121 121v217h-230v-197z" />
<glyph unicode="&#x201c;" horiz-adv-x="1058" d="M94 1397l121 -121v141h109v197h-230v-217zM621 1397l122 -121v141h109v197h-231v-217z" />
<glyph unicode="&#x201d;" horiz-adv-x="1058" d="M94 1417h109v-141l121 121v217h-230v-197zM621 1417h110v-141l121 121v217h-231v-197z" />
<glyph unicode="&#x2022;" horiz-adv-x="1144" d="M94 854q0 -86 33 -163t90 -133t133 -89t162 -33t163 33t133 89t89 133t33 163t-33 162t-89 133t-133 90t-163 33t-162 -33t-133 -90t-90 -133t-33 -162z" />
<glyph unicode="&#x202f;" horiz-adv-x="329" />
<glyph unicode="&#x205f;" horiz-adv-x="411" />
<glyph unicode="&#xe000;" horiz-adv-x="1280" d="M0 0v1280h1280v-1280h-1280z" />
</font>
</defs>
</svg>
