<?xml version="1.0" standalone="no"?>
<!DOCTYPE svg PUBLIC "-//W3C//DTD SVG 1.1//EN" "http://www.w3.org/Graphics/SVG/1.1/DTD/svg11.dtd" >
<svg xmlns="http://www.w3.org/2000/svg">
<metadata></metadata>
<defs>
<font id="caviar_dreamsbold_italic" horiz-adv-x="1376" >
<font-face units-per-em="2048" ascent="1638" descent="-410" />
<missing-glyph horiz-adv-x="708" />
<glyph horiz-adv-x="0" />
<glyph unicode="&#xd;" horiz-adv-x="708" />
<glyph unicode=" "  horiz-adv-x="708" />
<glyph unicode="&#x09;" horiz-adv-x="708" />
<glyph unicode="&#xa0;" horiz-adv-x="708" />
<glyph unicode="!" horiz-adv-x="541" d="M149 133q11 60 61 102t109 42q60 0 95.5 -42t24.5 -102q-11 -62 -61 -104t-110 -42q-59 0 -94.5 42t-24.5 104zM246 455l202 1145h207l-202 -1145h-207z" />
<glyph unicode="&#x22;" horiz-adv-x="574" d="M187 920l119 677h207l-119 -677h-207zM504 920l119 677h207l-119 -677h-207z" />
<glyph unicode="#" horiz-adv-x="1705" d="M219 531l89 207h410l38 88h-411l90 207h410l174 410h211l-174 -410h84l174 410h211l-174 -410h411l-90 -207h-410l-38 -88h411l-89 -207h-410l-174 -411h-211l174 411h-84l-174 -411h-212l175 411h-411zM929 738h84l38 88h-84z" />
<glyph unicode="$" horiz-adv-x="958" d="M133 475l224 68q-8 -146 36 -192q22 -23 49 -37l73 414q-108 43 -187 126q-105 109 -77 263q27 154 171 265q105 80 226 102l21 116h184l-21 -116q115 -22 192 -103q84 -88 82 -255l-224 -68q9 146 -35 192q-22 23 -49 37l-73 -414q107 -43 186 -126q105 -109 78 -263 t-171 -264q-105 -81 -227 -103l-20 -117h-184l20 117q-115 22 -192 103q-83 88 -82 255zM468 1117q-14 -78 36 -132q20 -20 50 -39l60 341q-32 -13 -61 -35q-71 -55 -85 -135zM626 314q32 13 61 36q71 54 85 134q14 78 -37 132q-19 20 -49 39z" />
<glyph unicode="%" horiz-adv-x="1263" d="M105 97l1148 1310l150 -117l-1149 -1311zM251 970q20 114 114.5 194.5t208.5 80.5t180.5 -80.5t46.5 -194.5t-115 -194.5t-209 -80.5t-180 80.5t-46 194.5zM456 970q-5 -30 11.5 -50.5t45.5 -20.5t54 20.5t30 50.5q5 29 -12.5 49.5t-46.5 20.5t-53 -20.5t-29 -49.5z M706 417q21 114 115.5 194.5t208.5 80.5q115 0 181.5 -80.5t45.5 -194.5q-20 -115 -114.5 -195.5t-209.5 -80.5q-114 0 -180.5 80.5t-46.5 195.5zM911 417q-5 -30 12 -50.5t46 -20.5t53.5 20.5t29.5 50.5q6 29 -11.5 49.5t-46.5 20.5t-53 -20.5t-30 -49.5z" />
<glyph unicode="&#x26;" horiz-adv-x="1340" d="M160 483q37 205 207 358q100 84 174 93q-127 156 -100 311q27 153 156 263t284 110t245 -109q52 -60 71 -191l-201 -74q-18 92 -41 120q-41 48 -111 48q-69 0 -126.5 -48.5t-69.5 -118.5q-13 -71 29 -126t82.5 -72t174.5 -18l-35 -199l-122 -1q-184 -35 -287 -129.5 t-125 -216.5q-21 -122 50 -208t193 -86q121 0 285 142q-24 23 -82 97q-22 24 -35 34q-13 9 -22 9h-1q-10 -1 -16 -11q-2 -4 -3 -8q-1 -7 1 -15l-190 -115q-15 31 -20 70q-2 31 3 61q10 57 50 110q61 81 154 105q33 9 64 9q57 0 103 -30q40 -25 84.5 -93.5t92.5 -74.5 q7 -1 13 -1q38 0 60 35q5 9 7 19q6 32 -34 70l134 177q83 -54 94 -158q3 -36 -3 -70q-11 -67 -57 -127q-71 -95 -199 -131q-35 -73 -141 -163q-172 -147 -379 -147q-206 0 -326.5 146.5t-84.5 353.5z" />
<glyph unicode="'" horiz-adv-x="458" d="M287 920l119 677h207l-119 -677h-207z" />
<glyph unicode="(" horiz-adv-x="788" d="M241 800q76 427 322 679q161 166 431 254l-37 -209q-159 -68 -270 -182q-188 -194 -250 -542q-61 -349 59 -542q70 -115 205 -186l-36 -205q-239 88 -341 254q-158 252 -83 679z" />
<glyph unicode=")" horiz-adv-x="788" d="M77 -133l36 205q160 71 271 186q188 193 250 542q61 348 -59 542q-71 114 -206 182l37 209q239 -88 341 -254q158 -252 83 -679q-76 -427 -322 -679q-161 -166 -431 -254z" />
<glyph unicode="*" horiz-adv-x="932" d="M290 1089l211 139l-162 140l149 170l126 -111l30 170h207l-30 -169l163 110l89 -170l-210 -140l161 -139l-149 -170l-125 110l-29 -169h-207l30 170l-165 -111z" />
<glyph unicode="+" horiz-adv-x="1112" d="M125 505v207h327v327h208v-327h327v-207h-327v-328h-208v328h-327z" />
<glyph unicode="," horiz-adv-x="537" d="M-26 -202l213 480h300l-316 -480h-197z" />
<glyph unicode="-" horiz-adv-x="919" d="M214 505l36 207h668l-36 -207h-668z" />
<glyph unicode="." horiz-adv-x="490" d="M124 133q11 60 61 102t109 42q60 0 95.5 -42t24.5 -102q-11 -62 -61 -104t-110 -42q-59 0 -94.5 42t-24.5 104z" />
<glyph unicode="/" horiz-adv-x="855" d="M-50 0l1006 1600h231l-1007 -1600h-230z" />
<glyph unicode="0" horiz-adv-x="1289" d="M171 543l87 489q41 235 237 401.5t431 166.5q236 0 373 -166.5t96 -401.5l-87 -489q-41 -235 -237 -401.5t-432 -166.5q-235 0 -372 166.5t-96 401.5zM383 543q-26 -148 60.5 -252t233.5 -104q148 0 270.5 104t148.5 252l87 489q26 147 -60.5 251t-234.5 104 q-147 0 -269.5 -104t-148.5 -251z" />
<glyph unicode="1" horiz-adv-x="1427" d="M686 0l235 1330h-153l257 270h150l-282 -1600h-207z" />
<glyph unicode="2" horiz-adv-x="1308" d="M153 0q124 383 308 504.5t314.5 207.5t238.5 185t129 220t-49.5 206t-191.5 85q-119 0 -220 -85q-86 -73 -135 -252l-194 75q69 208 207 326q173 148 380 148q209 0 329.5 -147t83.5 -356q-36 -206 -205 -359q-107 -97 -242.5 -186.5t-300.5 -199.5q-145 -95 -172 -164 h760l-37 -208h-1003z" />
<glyph unicode="3" horiz-adv-x="1308" d="M231 455l220 75q-14 -180 46 -253q71 -85 190 -85q121 0 221.5 85t122.5 206q21 122 -48 215t-239 126l-125 3l37 205q136 2 182 18.5t106.5 70.5t72.5 124q12 69 -27.5 116.5t-108.5 47.5q-68 0 -124 -47q-32 -28 -84 -122l-179 76q66 135 139 194q130 110 285 110 q158 0 248.5 -111t63.5 -264q-27 -156 -238 -301q88 -6 169 -101q116 -154 80 -360q-37 -208 -209.5 -355.5t-381.5 -147.5q-207 0 -328 148q-96 118 -91 327z" />
<glyph unicode="4" horiz-adv-x="1350" d="M249 432l887 1168h181l-170 -961h141l-36 -207h-141l-76 -432h-207l76 432h-655zM645 639h295l88 494z" />
<glyph unicode="5" horiz-adv-x="1314" d="M163 260l175 162q82 -164 202 -202q55 -18 110 -18q88 0 180 44q149 73 221 222q28 57 38 113q15 87 -15 172q-50 138 -191 190q-61 23 -140 23q-107 0 -283 -53l-106 109l268 497l14 81h586l-36 -207h-411l-119 -225q58 12 119 12q112 0 209 -36q217 -79 292 -292 q48 -132 23 -272q-15 -87 -57 -174q-112 -232 -345 -347q-143 -69 -282 -69q-88 0 -173 28q-176 57 -279 242z" />
<glyph unicode="6" horiz-adv-x="1291" d="M189 588l1 3q50 283 241 498q192 216 506 511h272q-429 -376 -623 -613q106 96 312 96q207 0 320 -137q136 -167 94 -403q-41 -235 -236.5 -401.5t-431.5 -166.5q-235 0 -372 166q-132 161 -83 447zM387 543q-26 -148 60.5 -252t234.5 -104q147 0 269.5 104t148.5 252 q27 148 -59.5 252t-233.5 104q-148 0 -270.5 -104t-149.5 -252z" />
<glyph unicode="7" horiz-adv-x="1304" d="M153 0q84 409 276 624.5t447 454t285 314.5h-760l36 207h995q-64 -326 -362 -604.5t-468 -471.5t-238 -524h-211z" />
<glyph unicode="8" horiz-adv-x="1294" d="M192 483q45 256 362 461q-109 145 -82 301q27 153 156 264t287 111h33q158 0 248.5 -111t63.5 -264q-27 -156 -199 -298q256 -208 211 -464q-37 -208 -210 -355.5t-419 -147.5t-367 147.5t-84 355.5zM403 483q-22 -121 48 -206t229 -85q158 0 258.5 85t122.5 206 q21 122 -48 213q-68 92 -222 125q-167 -33 -267 -125q-100 -91 -121 -213zM685 1245q-12 -70 29 -124t79 -70q20 -8 37 -11q17 3 41 11q43 16 103.5 70t72.5 124q12 69 -27.5 116.5t-108.5 47.5q-4 0 -11 -1h-10q-7 1 -12 1q-68 0 -124.5 -47.5t-68.5 -116.5z" />
<glyph unicode="9" horiz-adv-x="1291" d="M274 1057q41 235 236.5 401.5t431.5 166.5q235 0 372 -166q132 -161 83 -447l-1 -3q-50 -283 -241 -498q-192 -216 -506 -511h-272q430 376 623 613q-106 -96 -312 -96q-207 0 -319 137q-137 167 -95 403zM486 1057q-26 -148 60 -252t233 -104q148 0 271 104t149 252 t-60.5 252t-234.5 104q-147 0 -269.5 -104t-148.5 -252z" />
<glyph unicode=":" horiz-adv-x="541" d="M149 133q11 60 61 102t109 42q60 0 95.5 -42t24.5 -102q-11 -62 -61 -104t-110 -42q-59 0 -94.5 42t-24.5 104zM249 702q11 60 61.5 102t109.5 42q60 0 95 -42t24 -102q-11 -62 -60.5 -104t-109.5 -42q-59 0 -95 42t-25 104z" />
<glyph unicode=";" horiz-adv-x="635" d="M47 -202l213 480h300l-316 -480h-197zM264 702q11 60 61 102t110 42q59 0 94.5 -42t24.5 -102q-11 -62 -61 -104t-109 -42q-60 0 -95.5 42t-24.5 104z" />
<glyph unicode="&#x3c;" horiz-adv-x="1504" d="M100 582l1303 474v-221l-697 -253l697 -254v-221z" />
<glyph unicode="=" horiz-adv-x="1112" d="M125 357v207h862v-207h-862zM125 652v208h862v-208h-862z" />
<glyph unicode="&#x3e;" horiz-adv-x="1504" d="M100 107v221l697 254l-697 253v221l1303 -474z" />
<glyph unicode="?" horiz-adv-x="1028" d="M252 133q11 60 60.5 102t109.5 42q59 0 95 -42t25 -102q-11 -62 -61.5 -104t-109.5 -42q-60 0 -95 42t-24 104zM325 1119l12 67q13 74 61 146q93 140 248 191q68 22 130 22q82 0 154 -38q128 -67 154 -212q10 -63 -1 -125q-15 -83 -67 -162q-86 -130 -246 -239 q-111 -85 -179 -190q-41 -62 -53 -123h-206q20 108 89 212q110 167 289 286q89 75 135 144q24 37 30 73q5 27 1 55q-13 66 -69 96q-33 17 -69 17q-27 0 -58 -10q-70 -23 -111 -85q-13 -19 -23 -57z" />
<glyph unicode="@" horiz-adv-x="1643" d="M225 568q50 287 291.5 491.5t528.5 204.5q289 0 456 -205t130 -416t-169 -342q-109 -107 -218 -107q-24 0 -48 6q-134 29 -134 94q-67 -82 -203 -82q-164 0 -263.5 97t-70.5 261q29 163 163.5 265t298.5 102q146 0 176 -74l9 52h199l-90 -498v-3q-10 -52 6 -52 q14 0 47 36q71 81 101 248q29 167 -75.5 293t-350.5 126q-245 0 -392.5 -126t-187.5 -352t80 -371.5t325 -145.5q141 0 253 63l116 -149q-213 -113 -404 -113q-287 0 -456 204.5t-118 492.5zM729 569q-15 -82 32 -139t128 -57q82 0 149 57q48 40 65 85l19 108q-2 45 -35 85 q-47 58 -128 58t-148.5 -58t-81.5 -139z" />
<glyph unicode="A" d="M50 0l864 1600h112l300 -1600h-220l-106 566h-424l-305 -566h-221zM688 773h273l-71 375z" />
<glyph unicode="B" horiz-adv-x="1126" d="M150 0l282 1600h324q138 0 220 -98q63 -76 63 -177q0 -30 -5 -61q-25 -143 -175 -177q101 -15 210 -148q79 -97 79 -247q0 -57 -11 -121q-42 -235 -237 -406q-183 -161 -340 -163v-2h-410zM394 208h203v3q65 4 177 103q124 108 151 257q6 34 6 66q-1 105 -67 185 q-86 104 -233 105h-111zM558 1140h135q47 4 85 35q42 33 52 89q2 14 2 26q0 38 -23 66q-31 36 -89 37h-117z" />
<glyph unicode="C" horiz-adv-x="1642" d="M266 800q59 338 340.5 578t620.5 240q317 0 555 -259l-180 -141q-180 190 -412 190q-251 0 -461 -178t-254 -430q-11 -59 -11 -114q0 -180 113 -317q147 -178 398 -178q232 0 480 190l130 -139q-329 -259 -646 -259q-339 0 -536 239q-151 183 -151 425q0 74 14 153z" />
<glyph unicode="D" horiz-adv-x="1250" d="M150 0l282 1600h152q390 -2 569 -221q151 -185 151 -426q0 -74 -14 -153q-60 -339 -341 -579q-257 -219 -647 -221h-152zM394 210q247 0 433 159q209 178 254 431q10 58 10 113q0 181 -112 318q-130 158 -377 158z" />
<glyph unicode="E" horiz-adv-x="1137" d="M150 0l282 1600h862l-36 -207h-655l-87 -489h655l-36 -207h-655l-86 -489h655l-37 -208h-862z" />
<glyph unicode="F" horiz-adv-x="1045" d="M150 0l282 1600h770l-36 -207h-563l-87 -489h563l-36 -207h-563l-123 -697h-207z" />
<glyph unicode="G" horiz-adv-x="1668" d="M266 800q59 338 340.5 578t620.5 240q317 0 555 -259l-180 -141q-180 190 -412 190q-251 0 -461 -178t-254 -430q-11 -59 -11 -114q0 -181 113 -317q147 -178 398 -178q216 0 378 114l86 483h207l-101 -569q-288 -236 -606 -236q-339 0 -536 239q-151 183 -151 425 q0 74 14 153z" />
<glyph unicode="H" horiz-adv-x="1208" d="M150 0l282 1600h207l-129 -731h494l129 731h207l-282 -1600h-207l117 662h-494l-117 -662h-207z" />
<glyph unicode="I" horiz-adv-x="548" d="M170 0l282 1600h207l-282 -1600h-207z" />
<glyph unicode="J" horiz-adv-x="937" d="M186 344l175 64q1 -152 38 -187q27 -27 81 -27h4q57 1 101 37q35 31 51 121l220 1248h207l-222 -1257q-29 -166 -136 -258q-114 -98 -252 -98q-137 0 -217 97q-58 72 -58 178q0 39 8 82z" />
<glyph unicode="K" horiz-adv-x="1206" d="M150 0l282 1600h207l-89 -504l467 504h262l-607 -658l445 -942h-251l-359 772l-17 -17l-133 -755h-207z" />
<glyph unicode="L" horiz-adv-x="1019" d="M150 0l282 1600h207l-245 -1392h572l-37 -208h-779z" />
<glyph unicode="M" horiz-adv-x="1812" d="M199 0l282 1600h189l361 -897l675 897h189l-282 -1600h-207l204 1156l-652 -864l-348 864l-204 -1156h-207z" />
<glyph unicode="N" horiz-adv-x="1357" d="M150 0l282 1600h189l459 -1142l201 1142h208l-282 -1600h-181l-465 1156l-204 -1156h-207z" />
<glyph unicode="O" horiz-adv-x="1889" d="M267 802q60 339 342 579t621 240t537 -240q152 -184 152 -427q0 -73 -14 -152q-60 -339 -342.5 -579t-621.5 -240t-537 240q-151 184 -151 426q0 74 14 153zM476 802q-11 -59 -11 -114q-1 -181 113 -318q148 -179 400 -179q253 0 463 179t255 432q10 58 10 113 q0 183 -113 319q-147 178 -400 178t-463 -178.5t-254 -431.5z" />
<glyph unicode="P" horiz-adv-x="1145" d="M150 0l282 1600h454q189 -26 298 -159q100 -123 100 -283q0 -49 -9 -101q-39 -226 -226.5 -385.5t-412.5 -159.5h-189l-90 -512h-207zM484 720h189q138 0 254 98.5t140 238.5q6 33 6 63q-1 99 -63 174q-82 98 -219 98h-189z" />
<glyph unicode="Q" horiz-adv-x="1889" d="M267 802q60 339 342 579t621 240t537 -240q152 -184 152 -427q0 -73 -14 -152q-60 -339 -342 -579q-127 -108 -267 -168q21 -14 42 -32q64 -37 87 -45q11 -3 21 -3q17 0 36 10q28 15 41 44q5 9 21 74h209q-25 -98 -39 -130q-52 -111 -163 -167q-70 -37 -140 -37 q-39 0 -76 11q-61 17 -156 86q-78 45 -110 55q-18 5 -35 5q-30 0 -61 -16q-50 -26 -73 -78q-3 -5 -19 -66h-209q25 95 38 124q28 61 71 108q-228 45 -376 225q-152 184 -152 427q0 73 14 152zM476 802q-11 -59 -11 -114q0 -181 113 -318q148 -179 400 -179q253 0 463 179 t255 432q10 58 10 113q0 181 -113 319q-147 178 -400 178t-463 -178.5t-254 -431.5z" />
<glyph unicode="R" horiz-adv-x="1171" d="M150 0l282 1600h454q189 -26 298 -159q100 -123 100 -283q0 -49 -9 -101q-39 -226 -227 -386q-129 -110 -190 -124l259 -547h-251l-230 512h-189l-90 -512h-207zM484 720h189q138 0 254 98.5t140 238.5q6 33 6 63q-1 99 -63 174q-82 98 -219 98h-189z" />
<glyph unicode="S" horiz-adv-x="1101" d="M130 453l214 73q-2 -29 -2 -55q0 -134 51 -196q71 -86 192 -86t222 86t123 208q5 28 5 53q0 87 -55 154q-67 82 -178 131q-160 57 -247 163q-66 80 -66 188q0 35 7 73q27 153 156 263t285 110q154 0 245 -109q51 -60 70 -191l-201 -74q-18 92 -41 120q-41 48 -110 48 q-70 0 -127.5 -48.5t-69.5 -118.5q-3 -16 -3 -31q0 -50 31 -88q45 -54 135 -99q177 -61 285 -192q93 -112 93 -260q0 -44 -8 -92q-37 -207 -209.5 -353.5t-378.5 -146.5q-207 0 -327 147q-91 111 -91 303v20z" />
<glyph unicode="T" horiz-adv-x="1054" d="M296 1393l36 207h954l-36 -207h-373l-246 -1393h-208l246 1393h-373z" />
<glyph unicode="U" horiz-adv-x="1388" d="M244 531l188 1069h208l-188 -1069q-6 -32 -6 -63q0 -100 62 -174q82 -98 221 -98q140 0 255 98t140 237l188 1069h208l-199 -1127q-61 -193 -216 -326q-188 -160 -413 -160q-224 -1 -356 159q-101 122 -101 284q0 49 9 101z" />
<glyph unicode="V" d="M332 1600h220l215 -1147l620 1147h221l-865 -1600h-112z" />
<glyph unicode="W" horiz-adv-x="1686" d="M196 403l211 1197h207l-210 -1189q-3 -19 -4 -38q0 -65 42 -115q54 -64 143 -63q90 0 165 62q30 25 42 42l229 1301h207l-229 -1301q7 -17 26 -42q54 -62 143 -62t165.5 63.5t91.5 152.5l210 1189h208l-211 -1197q-34 -169 -176 -290q-147 -126 -324 -126 q-176 0 -270 124q-137 -124 -313 -124q-177 0 -279 126q-80 95 -80 221q0 33 6 69z" />
<glyph unicode="X" horiz-adv-x="1347" d="M50 0l657 873l-291 727h238l208 -521l394 521h238l-549 -727l351 -873h-238l-268 667l-502 -667h-238z" />
<glyph unicode="Y" horiz-adv-x="1414" d="M332 1600h238l290 -724l547 724h239l-723 -958l-113 -642h-207l113 642z" />
<glyph unicode="Z" horiz-adv-x="1463" d="M150 0l1050 1393h-758l36 207h1116l-1050 -1392h760l-37 -208h-1117z" />
<glyph unicode="[" horiz-adv-x="659" d="M64 -345l342 1941h409l-36 -207h-202l-270 -1527h202l-36 -207h-409z" />
<glyph unicode="\" horiz-adv-x="853" d="M231 1596h231l441 -1596h-230z" />
<glyph unicode="]" horiz-adv-x="659" d="M64 -345l36 207h202l270 1527h-202l36 207h409l-342 -1941h-409z" />
<glyph unicode="^" horiz-adv-x="1078" d="M100 981l356 615h167l355 -615h-239l-199 345l-200 -345h-240z" />
<glyph unicode="_" horiz-adv-x="1094" d="M6 -110l36 206h1044l-36 -206h-1044z" />
<glyph unicode="`" horiz-adv-x="669" d="M348 1407h252l168 -279h-197z" />
<glyph unicode="a" horiz-adv-x="1401" d="M221 542q41 236 237 402.5t432 166.5q198 0 321 -154l12 72h208l-181 -1030h-208l23 129q-178 -155 -376 -155q-236 1 -373 167q-105 127 -105 295q0 52 10 107zM433 542q-6 -34 -6 -66q0 -106 66 -186q86 -104 234 -104q147 0 270 104q92 79 127 176l27 152 q-1 97 -65 176q-87 104 -234 104q-148 0 -270.5 -104t-148.5 -252z" />
<glyph unicode="b" horiz-adv-x="1400" d="M150 0l282 1600h207l-113 -642q177 155 376 155q236 0 373 -167q105 -129 105 -298q0 -51 -9 -105q-42 -236 -238 -403t-432 -167q-199 0 -321 155l-23 -128h-207zM438 462q3 -94 66 -171q87 -104 235 -104t271 104t149 252q6 34 6 66q0 105 -66 186q-86 105 -234 105 t-272 -105q-90 -77 -126 -172z" />
<glyph unicode="c" horiz-adv-x="1262" d="M186 543q41 236 237.5 403t431.5 167q236 0 374 -167q28 -34 86 -137l-221 -76q-31 49 -43 63q-85 104 -233 104q-147 0 -270 -104.5t-149 -252.5q-6 -34 -6 -66q0 -105 66 -185q86 -104 233 -105q148 0 271 104q16 14 64 62l194 -74q-94 -105 -134 -139 q-197 -167 -433 -167q-234 0 -372 167q-105 128 -106 296q0 52 10 107z" />
<glyph unicode="d" horiz-adv-x="1401" d="M221 543q41 236 237 403t432 167q199 0 322 -155l113 642h208l-282 -1600h-208l22 128q-177 -155 -376 -155q-236 0 -373 167q-105 128 -105 296q0 52 10 107zM433 543q-6 -34 -6 -66q0 -106 66 -186q86 -104 234 -104t270 104q93 79 128 175l27 153q-1 97 -66 176 q-85 105 -233 105t-271 -105t-149 -252z" />
<glyph unicode="e" horiz-adv-x="1262" d="M186 543q41 236 237.5 403t431.5 167q202 0 333 -122q21 -21 41 -45q8 -10 46 -63l-123 -105l-641 -545q44 -46 181 -46q148 0 271 104q16 14 64 62l194 -74q-94 -105 -134 -139q-197 -167 -433 -167q-234 0 -372 167q-105 128 -106 296q0 52 10 107zM398 386l572 487 q-30 27 -152 27q-147 0 -270 -104.5t-149 -252.5q-11 -62 -11 -102q0 -37 10 -55z" />
<glyph unicode="f" horiz-adv-x="626" d="M182 -1l145 824h-92l37 207h92l32 185q30 128 137 220q110 88 234 88q62 0 180 -43l-103 -196q-82 37 -105 37q-42 0 -87 -35q-39 -33 -49 -79l-31 -177h185l-37 -207h-185l-145 -824h-208z" />
<glyph unicode="g" horiz-adv-x="1405" d="M162 -61l219 74q32 -48 43 -62q87 -104 234 -104q247 0 399 324q-130 -188 -366 -188t-374 162q-106 124 -106 292q0 51 10 106q41 236 237 402.5t432 166.5q199 0 322 -154l12 71h208l-135 -765q-53 -300 -244 -463q-193 -147 -429 -147t-377 147q-28 34 -85 138z M433 543q-6 -35 -6 -68q0 -105 65 -185q87 -104 235 -104t270 104q90 77 126 170l29 163q-3 95 -66 172q-86 105 -234 105t-271 -105t-148 -252z" />
<glyph unicode="h" horiz-adv-x="1125" d="M150 0l282 1600h208l-120 -682q116 167 281 167q165 -1 243 -119q57 -86 57 -204q0 -44 -8 -93l-118 -669h-207l117 661q4 25 4 47q0 60 -28 106q-39 64 -148 63q-129 0 -225 -138l-130 -739h-208z" />
<glyph unicode="i" horiz-adv-x="541" d="M167 0l181 1029h207l-181 -1029h-207zM355 1307q11 61 61.5 103t109.5 42q60 0 96 -42q27 -32 27 -75q0 -13 -3 -28q-10 -61 -60.5 -103t-110.5 -42q-59 0 -95 42q-28 33 -27 77q0 13 2 26z" />
<glyph unicode="j" horiz-adv-x="561" d="M11 -216l36 206q114 12 125 70l171 969h207l-171 -967q-45 -253 -368 -278zM350 1307q10 61 60.5 103t109.5 42q60 0 96 -42q27 -33 27 -77q0 -13 -2 -26q-11 -61 -61.5 -103t-110.5 -42q-59 0 -95 42q-27 32 -27 75q0 14 3 28z" />
<glyph unicode="k" horiz-adv-x="944" d="M150 0l250 1415h208l-103 -582l194 196h267l-339 -344l267 -685h-247l-190 513l-10 -11l-89 -502h-208z" />
<glyph unicode="l" horiz-adv-x="508" d="M150 0l282 1601h208l-282 -1601h-208z" />
<glyph unicode="m" horiz-adv-x="1418" d="M150 0l181 1029h207l-16 -96q86 151 257 151q161 0 161 -155v-17q79 172 300 172q179 0 180 -179q0 -39 -9 -86l-144 -819h-208l128 724q5 27 5 48q0 104 -102 104q-51 0 -94 -36t-80 -242l-105 -598h-207l129 724q5 26 5 48q0 104 -103 104q-51 0 -94 -36 q-37 -31 -65 -164l-119 -676h-207z" />
<glyph unicode="n" horiz-adv-x="1139" d="M150 0l181 1029h208l-21 -120q96 176 292 176q167 -1 245 -119q57 -86 57 -204q0 -44 -8 -93l-118 -669h-207l117 661q3 19 3 38q1 65 -41 115q-54 64 -144 63q-89 0 -165 -62q-43 -37 -58 -62l-133 -753h-208z" />
<glyph unicode="o" horiz-adv-x="1318" d="M186 543q41 236 237.5 403t431.5 167q236 0 373 -167q105 -129 105 -298q0 -51 -9 -105q-42 -236 -238 -403t-432 -167q-234 0 -372 167q-105 128 -106 296q0 52 10 107zM398 543q-6 -34 -6 -66q0 -106 66 -186q86 -104 234 -104t271 104t149 252q6 34 6 66 q0 105 -66 186q-86 105 -234 105t-271 -105t-149 -252z" />
<glyph unicode="p" horiz-adv-x="1375" d="M89 -346l242 1375h207l-16 -93q181 176 380 176q236 0 373 -166q105 -129 105 -298q0 -51 -9 -105q-42 -236 -238 -403t-432 -167q-199 0 -321 155l-84 -474h-207zM438 462q3 -95 67 -172q86 -104 234 -104t271 104.5t149 252.5q6 34 6 66q0 105 -66 186 q-86 105 -234 105t-271 -105q-91 -77 -127 -172z" />
<glyph unicode="q" d="M196 543q41 236 237 402.5t432 166.5q199 0 322 -154l12 71h208l-242 -1375h-208l83 474q-177 -155 -376 -155q-236 0 -373 167q-105 128 -105 296q0 52 10 107zM408 543q-6 -34 -6 -66q0 -106 66 -187q86 -104 234 -104t270 104q93 79 128 176l27 153q-1 97 -66 176 q-85 105 -233 105t-271 -105t-149 -252z" />
<glyph unicode="r" horiz-adv-x="693" d="M150 0l181 1029h207l-24 -139q144 157 314 165l-38 -215q-114 -6 -193 -73q-118 -100 -147 -238l-93 -529h-207z" />
<glyph unicode="s" horiz-adv-x="882" d="M167 242l214 44q1 -46 16 -65q31 -36 82 -36t94 36t52 89q2 12 2 23q0 37 -23 64q-20 25 -93 77q-101 61 -140 108q-52 63 -52 145q0 25 5 52q20 116 116.5 198.5t212.5 82.5t179 -78q46 -55 49 -123l-211 -58q-3 25 -9 33q-14 18 -44 18t-55.5 -21.5t-30.5 -51.5 q-6 -30 12 -51q16 -18 75 -61q112 -68 158 -124q62 -75 61 -173q0 -29 -5 -60q-24 -138 -138 -235.5t-252 -97.5q-137 0 -216 98q-56 67 -59 167z" />
<glyph unicode="t" horiz-adv-x="758" d="M235 822l36 207h185l69 386h207l-69 -386h185l-36 -207h-185l-145 -822h-207l145 822h-185z" />
<glyph unicode="u" horiz-adv-x="1162" d="M221 403l110 626h208l-109 -618q-4 -20 -4 -39q0 -64 42 -114q54 -64 151 -64q89 0 165.5 63.5t92.5 153.5l109 618h207l-110 -626q-35 -179 -174 -298q-140 -119 -326 -119q-195 0 -293 119q-76 92 -76 219q0 38 7 79z" />
<glyph unicode="v" horiz-adv-x="1188" d="M231 1029h234l191 -668l428 668h234l-673 -1029h-104z" />
<glyph unicode="w" horiz-adv-x="1418" d="M204 308l127 721h207l-120 -682q-5 -27 -5 -50q0 -103 102 -103q51 0 95 36q36 31 48 75l127 724h207l-124 -707q-2 -14 -2 -26q0 -38 22 -66q30 -36 82 -36q123 0 150 153l120 682h208l-127 -721q-28 -132 -136 -224q-115 -98 -252 -98q-138 0 -210 96 q-108 -96 -245 -96q-138 0 -217 98q-61 74 -61 173q0 25 4 51z" />
<glyph unicode="x" horiz-adv-x="1031" d="M75 0l422 559l-189 470h239l105 -257l194 257h241l-354 -470l223 -559h-239l-140 346l-261 -346h-241z" />
<glyph unicode="y" horiz-adv-x="1139" d="M123 -346l375 575l-242 800h233l162 -563l360 563h232l-901 -1375h-219z" />
<glyph unicode="z" horiz-adv-x="1125" d="M150 0l613 822h-423l36 207h780l-613 -821h459l-37 -208h-815z" />
<glyph unicode="{" horiz-adv-x="941" d="M214 502l44 247h163q92 53 135 147q26 58 37 124q7 36 8 73q0 70 11 134q12 70 39 132q58 128 186 194q82 43 164 43q22 0 95 -12l-35 -195q-81 14 -92 14q-32 0 -66 -17q-51 -26 -74 -78q-18 -43 -28 -99q-5 -25 -7 -49q2 -73 -11 -147q-15 -86 -51 -168 q-77 -170 -156 -222q61 -47 79 -217q7 -82 -9 -168q-13 -74 -40 -147q-7 -24 -11 -49q-10 -56 -7 -99q5 -51 47 -77q30 -18 62 -18q11 0 94 10l-33 -191q-77 -12 -99 -12q-82 0 -149 43q-105 66 -117 195q-5 62 7 132q11 64 36 133q12 37 18 73q12 66 7 124q-10 94 -84 147 h-163z" />
<glyph unicode="|" horiz-adv-x="507" d="M89 -345l342 1941h207l-342 -1941h-207z" />
<glyph unicode="}" horiz-adv-x="941" d="M66 -333l34 191q79 -10 90 -10q33 0 69 18q51 26 73 77q19 43 29 99q5 25 7 49q-2 73 11 147q15 86 50 168q77 170 156 217q-61 52 -78 222q-7 82 8 168q13 74 41 147q6 24 11 49q10 56 5 99q-3 52 -45 78q-28 17 -60 17q-11 0 -97 -14l34 195q77 12 99 12q82 0 149 -43 q105 -66 116 -194q6 -62 -6 -132q-11 -64 -37 -134q-11 -37 -17 -73q-12 -66 -7 -124q9 -94 84 -147h163l-44 -247h-163q-93 -53 -136 -147q-25 -58 -37 -124q-6 -36 -8 -73q1 -69 -10 -133q-12 -70 -40 -132q-57 -129 -186 -195q-81 -43 -163 -43q-22 0 -95 12z" />
<glyph unicode="~" horiz-adv-x="1326" d="M125 660q5 110 27 165q53 129 183 172q32 10 70 10q114 0 287 -99q159 -92 220 -92h9q41 13 58 56q9 23 9 120l213 -33q-10 -111 -31 -165q-53 -129 -181 -172q-33 -10 -71 -10q-113 0 -287 99q-160 92 -221 92h-7q-41 -13 -59 -55q-9 -26 -12 -121z" />
<glyph unicode="&#xa1;" horiz-adv-x="541" d="M65 -584l202 1145h207l-202 -1145h-207zM281 883q11 62 60.5 104t109.5 42q59 0 95 -42t25 -104q-11 -60 -61.5 -102t-109.5 -42q-60 0 -95 42t-24 102z" />
<glyph unicode="&#xa2;" horiz-adv-x="1110" d="M283 1039q34 195 197 334q124 105 216 122l28 158h207l-25 -142q128 -2 241 -139q22 -28 82 -128l-213 -75q-32 49 -40 60q-63 75 -107 76l-93 -532q43 1 133 78q12 10 61 58l186 -73q-94 -102 -126 -130q-161 -137 -291 -139l-25 -142h-207l28 158q-86 16 -172 122 q-115 138 -80 334zM489 1039q-25 -140 84 -242l86 481q-144 -88 -170 -239z" />
<glyph unicode="&#xa3;" horiz-adv-x="1214" d="M115 87q180 138 212 170q103 101 132 254h-219l36 206h173q0 3 -26 82q-78 176 -64 340q2 20 6 41q26 150 146 269q134 132 314 149q21 1 40 1q150 0 252 -99q113 -114 99 -287q-1 -24 -5 -47q-12 -71 -80 -182l-181 65q46 89 53 126q2 11 3 21q7 87 -51 144 q-51 50 -126 50q-11 0 -21 -1q-90 -7 -159 -75q-60 -60 -73 -134q-2 -12 -3 -23q-9 -92 26 -211q60 -132 67 -229h194l-36 -206l-160 -2q-40 -227 -184 -352q91 52 188 52q26 0 53 -4q125 -18 199 -18q66 0 193 31l3 -204q-145 -34 -233 -34q-89 0 -177 21q-81 18 -143 18 q-52 0 -89 -12q-98 -33 -240 -99z" />
<glyph unicode="&#xa4;" horiz-adv-x="1214" d="M233 755l155 132q-47 73 -20 228q28 156 101 229l-109 132l173 147l108 -132q84 60 239 60q156 0 219 -60l155 132l120 -147l-155 -132q48 -73 20 -229q-27 -155 -101 -228l109 -132l-172 -147l-109 132q-83 -60 -239 -60q-155 0 -219 60l-154 -132zM574 1115 q-13 -78 22 -136q7 -13 18 -25q10 -13 21 -22q50 -45 128 -45t145 45q15 10 29 22q14 11 25 25q57 58 70 136q14 78 -21 137q-8 14 -17 26q-9 10 -21 21q-51 45 -129 45t-144 -45q-16 -10 -29 -21q-14 -12 -26 -26q-57 -59 -71 -137z" />
<glyph unicode="&#xa5;" horiz-adv-x="1414" d="M321 257l36 207h327l16 88h-327l37 208h259l-337 840h238l290 -724l547 724h239l-634 -840h260l-37 -208h-328l-16 -88h328l-36 -207h-328l-45 -257h-207l45 257h-327z" />
<glyph unicode="&#xa6;" horiz-adv-x="507" d="M89 -345l160 905h207l-160 -905h-207zM272 691l159 905h207l-159 -905h-207z" />
<glyph unicode="&#xa7;" horiz-adv-x="1205" d="M261 172l200 74q18 -92 41 -120q41 -48 110 -48t126.5 48.5t69.5 118.5q12 69 -28 118q-44 54 -134 99q-177 61 -285 192q-120 145 -84 351q37 207 198 366q27 153 155.5 262.5t283.5 109.5t245 -109q52 -59 71 -190l-201 -74q-18 92 -40 120q-41 48 -111 48 q-69 0 -126.5 -48.5t-69.5 -118.5q-12 -69 28 -118q46 -54 135 -99q176 -61 284 -192q120 -145 84 -351q-37 -207 -198 -366q-26 -152 -154.5 -262t-284.5 -110q-154 0 -245 109q-52 59 -70 190zM482 1005q-21 -121 50 -206q67 -83 178 -131q159 -57 243 -158l29 -13h1 q5 0 25 114q21 121 -49 207q-68 82 -179 131q-159 56 -242 158l-28 13h-1q-6 0 -27 -115z" />
<glyph unicode="&#xa8;" horiz-adv-x="716" d="M253 1294q10 60 60 102t110 42q59 0 94.5 -42t25.5 -102q-11 -61 -61.5 -103t-109.5 -42q-60 0 -95 42t-24 103zM629 1294q10 60 60 102t110 42q59 0 94.5 -42t25.5 -102q-11 -61 -61.5 -103t-109.5 -42q-60 0 -95 42t-24 103z" />
<glyph unicode="&#xa9;" horiz-adv-x="1433" d="M99 617q0 255 180 435t435 180q254 0 434 -180t180 -435t-180 -435t-434 -180q-255 0 -435 180t-180 435zM288 617q0 -176 124.5 -301t301.5 -125q176 0 300.5 125t124.5 301t-124.5 300.5t-300.5 124.5q-177 0 -301.5 -124.5t-124.5 -300.5zM358 617q0 151 107 258.5 t259 107.5t259 -107q22 -22 91 -118l-181 -67q-37 47 -44 54q-51 51 -125 51t-126.5 -52.5t-52.5 -126.5t52.5 -126.5t126.5 -52.5t126 52q7 7 43 52l181 -66q-69 -96 -91 -118q-107 -108 -259 -108t-259 107.5t-107 259.5z" />
<glyph unicode="&#xaa;" horiz-adv-x="1019" d="M347 1259q25 141 152.5 241t283.5 100q130 0 213 -92l8 43h137l-109 -618h-137l13 77q-115 -93 -246 -93q-155 0 -247.5 100t-67.5 242zM447 640l28 157h622l97 550h157l-125 -707h-779zM487 1259q-16 -89 42 -151.5t156 -62.5q97 0 177 62q60 48 82 106l16 91 q-1 58 -45 106q-58 62 -155 62q-98 0 -177.5 -62.5t-95.5 -150.5z" />
<glyph unicode="&#xab;" horiz-adv-x="1222" d="M186 489l645 581l-49 -278l-336 -303l229 -304l-49 -280zM664 489l645 581l-49 -278l-336 -303l229 -304l-49 -280z" />
<glyph unicode="&#xad;" horiz-adv-x="919" d="M214 505l36 207h668l-36 -207h-668z" />
<glyph unicode="&#xae;" horiz-adv-x="1208" d="M100 1091q0 209 147.5 357t357.5 148q207 0 355 -148t148 -357q0 -208 -148 -356q-52 -52 -144 -100t-211 -48q-210 0 -357.5 148t-147.5 356zM276 1091q0 -135 96 -232q7 -7 15 -14v493q-8 -7 -15 -14q-96 -96 -96 -233zM562 765q21 -2 43 -2q29 0 40 -1l-64 99h-19v-96 zM562 1038h44q46 0 79 32.5t33 78.5q0 47 -33 79.5t-79 32.5h-44v-223zM765 893q0 -1 3 -1h2l39 -61q4 6 27 28q96 97 96 232q0 137 -96 233l-14 14q71 -80 71 -189q0 -120 -84 -204q-44 -44 -44 -52z" />
<glyph unicode="&#xaf;" horiz-adv-x="717" d="M292 1230l36 207h567l-36 -207h-567z" />
<glyph unicode="&#xb0;" horiz-adv-x="849" d="M150 1321q0 114 80.5 194.5t194.5 80.5t194 -80.5t80 -194.5t-80 -194t-194 -80t-194.5 80t-80.5 194zM339 1321q0 -35 25 -60t61 -25q35 0 60 25t25 60q0 36 -25 61t-60 25q-36 0 -61 -25t-25 -61z" />
<glyph unicode="&#xb1;" horiz-adv-x="1110" d="M125 0l36 207h327l53 296h-327l36 207h327l58 327h206l-58 -327h327l-36 -207h-327l-53 -296h327l-36 -207h-860z" />
<glyph unicode="&#xb2;" horiz-adv-x="979" d="M227 578q39 222 192.5 329t235.5 158t144 104t72 112q10 58 -27 99t-100 41t-116 -41q-44 -35 -84 -173l-193 69q56 163 154 241q123 99 273 99t238.5 -98t64.5 -237q-24 -137 -145 -238q-71 -61 -243 -135t-187 -137h485l-34 -193h-730z" />
<glyph unicode="&#xb3;" horiz-adv-x="979" d="M285 907l218 69q-8 -139 23 -174q38 -41 100 -41q64 0 115.5 41t61.5 99q10 60 -23 131.5t-130 89.5l-113 2l16 90l118 1q45 15 74.5 39.5t42.5 102.5q5 28 -12 46.5t-47 18.5q-79 0 -115 -112l-178 70q61 119 116 161q96 75 211 75q118 0 186.5 -76.5t49.5 -182.5 q-24 -136 -165 -166q93 -21 148 -87t31 -203q-24 -138 -147.5 -236.5t-273.5 -98.5q-149 0 -239 99q-70 78 -68 242z" />
<glyph unicode="&#xb4;" horiz-adv-x="669" d="M299 1128l266 279h252l-321 -279h-197z" />
<glyph unicode="&#xb5;" horiz-adv-x="1110" d="M90 -343l242 1372h207l-127 -720q5 -18 28 -46q54 -62 143 -62t165 64q49 41 69 84l120 680h205l-181 -1027h-205l14 79q-106 -87 -224 -87q-172 0 -178 67l-71 -404h-207z" />
<glyph unicode="&#xb6;" horiz-adv-x="1222" d="M252 1137q39 225 226 384q156 132 354 159h15l1 1h646l-37 -207h-41l-317 -1799h-207l317 1799h-71l-317 -1799h-207l162 919h-78q-224 0 -355 159t-91 384z" />
<glyph unicode="&#xb7;" horiz-adv-x="708" d="M241 801q9 51 52 86.5t93 35.5q51 0 81 -35.5t21 -86.5q-9 -53 -51.5 -88.5t-93.5 -35.5q-50 0 -80.5 35.5t-21.5 88.5z" />
<glyph unicode="&#xb8;" horiz-adv-x="418" d="M-33 -328l57 126q53 -26 89 -26q6 0 11 1q32 4 46 35q4 7 6 15v8q-1 28 -82 56l71 130h149l-34 -61q67 -38 79 -89q2 -14 3 -27q0 -13 -2 -26q-8 -43 -45 -81q-60 -59 -157 -73q-20 -3 -45 -3q-58 0 -146 15z" />
<glyph unicode="&#xb9;" horiz-adv-x="1081" d="M606 570l140 796h-137l235 230h151l-181 -1026h-208z" />
<glyph unicode="&#xba;" horiz-adv-x="931" d="M312 1258q25 142 153 242t283 100q156 0 248 -100t67 -242t-152.5 -242t-283.5 -100q-155 0 -247.5 100t-67.5 242zM447 640l28 157h622l97 550h157l-125 -707h-779zM452 1258q-16 -89 42 -151.5t156 -62.5t177.5 62.5t95.5 151.5q16 88 -42 151t-156 63 q-97 0 -177.5 -63t-95.5 -151z" />
<glyph unicode="&#xbb;" horiz-adv-x="1222" d="M83 -95l49 280l337 304l-230 303l49 278l441 -581zM561 -95l49 280l337 304l-230 303l49 278l441 -581z" />
<glyph unicode="&#xbf;" horiz-adv-x="1028" d="M99 -279q-10 63 1 125q15 83 66 162q86 130 247 239q111 85 179 190q41 62 53 123h206q-20 -108 -90 -212q-109 -167 -288 -286q-89 -75 -135 -144q-24 -37 -30 -73q-5 -27 -1 -55q12 -66 69 -96q33 -17 69 -17q27 0 58 10q70 23 111 85q12 19 23 57l221 68l-12 -67 q-13 -74 -62 -146q-92 -140 -247 -191q-68 -22 -130 -22q-82 0 -154 38q-129 67 -154 212zM641 883q11 62 61.5 104t109.5 42q60 0 95 -42t24 -104q-11 -60 -61 -102t-110 -42q-59 0 -94.5 42t-24.5 102z" />
<glyph unicode="&#xc0;" d="M50 0l864 1600h112l300 -1600h-220l-106 566h-424l-305 -566h-221zM688 773h273l-71 375zM724 1978h252l168 -279h-197z" />
<glyph unicode="&#xc1;" d="M50 0l864 1600h112l300 -1600h-220l-106 566h-424l-305 -566h-221zM688 773h273l-71 375zM831 1699l266 279h252l-321 -279h-197z" />
<glyph unicode="&#xc2;" d="M50 0l864 1600h112l300 -1600h-220l-106 566h-424l-305 -566h-221zM686 1749l275 238h147l199 -238h-221l-78 82l-103 -82h-219zM688 773h273l-71 375z" />
<glyph unicode="&#xc3;" d="M50 0l864 1600h112l300 -1600h-220l-106 566h-424l-305 -566h-221zM680 1744q78 220 193 252q30 8 58 8q73 0 124.5 -58t77.5 -58v-1q30 0 37 39q5 26 -1 69h186q-77 -220 -191 -252q-30 -8 -58 -8q-74 0 -123 57t-77 57h-4q-31 -2 -37 -39q-5 -25 2 -66h-187zM688 773 h273l-71 375z" />
<glyph unicode="&#xc4;" d="M50 0l864 1600h112l300 -1600h-220l-106 566h-424l-305 -566h-221zM684 1865q10 60 60 102t110 42q59 0 94.5 -42t25.5 -102q-11 -61 -61.5 -103t-109.5 -42q-60 0 -95 42t-24 103zM688 773h273l-71 375zM1060 1865q10 60 60 102t110 42q59 0 94.5 -42t25.5 -102 q-11 -61 -61.5 -103t-109.5 -42q-60 0 -95 42t-24 103z" />
<glyph unicode="&#xc5;" d="M50 0l860 1592q-48 14 -80 54q-51 62 -36 148q16 87 88.5 149t160.5 62q87 0 137.5 -62t34.5 -149q-15 -86 -87 -148q-47 -40 -100 -54l298 -1592h-220l-106 566h-424l-305 -566h-221zM688 773h273l-71 375zM948 1792q-4 -23 8.5 -38.5t40.5 -15.5q22 0 41 15.5t23 38.5 q5 28 -8.5 43.5t-35.5 15.5q-28 0 -46 -15.5t-23 -43.5z" />
<glyph unicode="&#xc6;" horiz-adv-x="1715" d="M40 0l962 1548l9 52h862l-36 -207h-655l-87 -489h655l-36 -207h-655l-86 -489h655l-37 -208h-862l100 566h-194l-342 -566h-253zM755 773h110l45 255z" />
<glyph unicode="&#xc7;" horiz-adv-x="1642" d="M266 800q59 338 340.5 578t620.5 240q317 0 555 -259l-180 -141q-180 190 -412 190q-251 0 -461 -178t-254 -430q-45 -253 102 -431t398 -178q232 0 480 190l130 -139q-329 -259 -646 -259h-19l-15 -27q67 -38 79 -89q2 -14 3 -27q0 -13 -2 -26q-8 -43 -45 -81 q-60 -59 -157 -73q-20 -3 -45 -3q-58 0 -146 15l57 126q53 -26 89 -26q6 0 11 1q31 4 46 35q4 7 6 15v8q-1 28 -82 56l60 111q-228 44 -376 224q-197 239 -137 578z" />
<glyph unicode="&#xc8;" horiz-adv-x="1137" d="M150 0l282 1600h862l-36 -207h-655l-87 -489h655l-36 -207h-655l-86 -489h655l-37 -208h-862zM617 1978h252l168 -279h-197z" />
<glyph unicode="&#xc9;" horiz-adv-x="1137" d="M150 0l282 1600h862l-36 -207h-655l-87 -489h655l-36 -207h-655l-86 -489h655l-37 -208h-862zM724 1699l266 279h252l-321 -279h-197z" />
<glyph unicode="&#xca;" horiz-adv-x="1137" d="M150 0l282 1600h862l-36 -207h-655l-87 -489h655l-36 -207h-655l-86 -489h655l-37 -208h-862zM579 1749l275 238h147l199 -238h-221l-78 82l-103 -82h-219z" />
<glyph unicode="&#xcb;" horiz-adv-x="1137" d="M150 0l282 1600h862l-36 -207h-655l-87 -489h655l-36 -207h-655l-86 -489h655l-37 -208h-862zM577 1865q10 60 60 102t110 42q59 0 94.5 -42t25.5 -102q-11 -61 -61.5 -103t-109.5 -42q-60 0 -95 42t-24 103zM953 1865q10 60 60 102t110 42q59 0 94.5 -42t25.5 -102 q-11 -61 -61.5 -103t-109.5 -42q-60 0 -95 42t-24 103z" />
<glyph unicode="&#xcc;" horiz-adv-x="548" d="M170 0l282 1600h207l-282 -1600h-207zM310 1978h252l167 -279h-197z" />
<glyph unicode="&#xcd;" horiz-adv-x="548" d="M170 0l282 1600h207l-282 -1600h-207zM417 1699l266 279h252l-321 -279h-197z" />
<glyph unicode="&#xce;" horiz-adv-x="548" d="M170 0l282 1600h207l-282 -1600h-207zM271 1749l275 238h147l199 -238h-221l-77 82l-104 -82h-219z" />
<glyph unicode="&#xcf;" horiz-adv-x="548" d="M171 0l282 1600h207l-282 -1600h-207zM270 1865q11 60 61 102t110 42q59 0 94.5 -42t24.5 -102q-10 -61 -60.5 -103t-109.5 -42q-60 0 -95 42t-25 103zM646 1865q11 60 61 102t110 42q59 0 94.5 -42t24.5 -102q-10 -61 -60.5 -103t-109.5 -42q-60 0 -95 42t-25 103z" />
<glyph unicode="&#xd0;" horiz-adv-x="1250" d="M83 697l36 206h190l123 697h152q390 -2 569 -221q197 -241 137 -579q-60 -339 -341 -579q-257 -219 -647 -221h-152l123 697h-190zM394 210q247 0 433 159q210 178 254 431q45 252 -102 431q-130 158 -377 158l-86 -486h347l-36 -206h-347z" />
<glyph unicode="&#xd1;" horiz-adv-x="1357" d="M150 0l282 1600h189l459 -1142l201 1142h208l-282 -1600h-181l-465 1156l-204 -1156h-207zM671 1744q77 220 193 252q29 8 57 8q73 0 125 -58t78 -58v-1q30 0 37 39q4 26 -1 69h186q-77 -220 -192 -252q-29 -8 -57 -8q-74 0 -123.5 57t-77.5 57h-4q-30 -2 -37 -39 q-4 -25 3 -66h-187z" />
<glyph unicode="&#xd2;" horiz-adv-x="1889" d="M267 802q60 339 342 579t621 240t537 -240t138 -579t-342.5 -579t-621.5 -240t-536.5 240t-137.5 579zM476 802q-45 -253 102.5 -432t399.5 -179q253 0 463 179t255 432q44 253 -103 431.5t-400 178.5t-463 -178.5t-254 -431.5zM980 1978h252l168 -279h-197z" />
<glyph unicode="&#xd3;" horiz-adv-x="1889" d="M267 802q60 339 342 579t621 240t537 -240t138 -579t-342.5 -579t-621.5 -240t-536.5 240t-137.5 579zM476 802q-45 -253 102.5 -432t399.5 -179q253 0 463 179t255 432q44 253 -103 431.5t-400 178.5t-463 -178.5t-254 -431.5zM1088 1699l266 279h252l-321 -279h-197z " />
<glyph unicode="&#xd4;" horiz-adv-x="1889" d="M267 802q60 339 342 579t621 240t537 -240t138 -579t-342.5 -579t-621.5 -240t-536.5 240t-137.5 579zM476 802q-45 -253 102.5 -432t399.5 -179q253 0 463 179t255 432q44 253 -103 431.5t-400 178.5t-463 -178.5t-254 -431.5zM942 1749l275 238h147l199 -238h-221 l-77 82l-104 -82h-219z" />
<glyph unicode="&#xd5;" horiz-adv-x="1889" d="M267 802q60 339 342 579t621 240t537 -240t138 -579t-342.5 -579t-621.5 -240t-536.5 240t-137.5 579zM476 802q-45 -253 102.5 -432t399.5 -179q253 0 463 179t255 432q44 253 -103 431.5t-400 178.5t-463 -178.5t-254 -431.5zM936 1744q78 220 194 252q29 8 57 8 q73 0 125 -58t78 -58v-1q30 0 36 39q5 26 0 69h186q-77 -220 -192 -252q-29 -8 -57 -8q-74 0 -123.5 57t-77.5 57h-4q-30 -2 -37 -39q-4 -25 2 -66h-187z" />
<glyph unicode="&#xd6;" horiz-adv-x="1889" d="M267 802q60 339 342 579t621 240t537 -240t138 -579t-342.5 -579t-621.5 -240t-536.5 240t-137.5 579zM476 802q-45 -253 102.5 -432t399.5 -179q253 0 463 179t255 432q44 253 -103 431.5t-400 178.5t-463 -178.5t-254 -431.5zM940 1865q11 60 61 102t110 42 q59 0 94.5 -42t24.5 -102q-11 -61 -61 -103t-109 -42q-60 0 -95.5 42t-24.5 103zM1316 1865q11 60 61 102t110 42q59 0 94.5 -42t24.5 -102q-11 -61 -61 -103t-109 -42q-60 0 -95.5 42t-24.5 103z" />
<glyph unicode="&#xd7;" horiz-adv-x="1177" d="M210 377l231 231l-231 232l147 147l231 -232l232 232l145 -148l-231 -231l231 -231l-145 -147l-232 231l-231 -231z" />
<glyph unicode="&#xd8;" horiz-adv-x="1889" d="M125 802q0 339 240 579t579 240q164 0 251 -35l81 173l188 -88l-81 -173q51 -28 141 -116q239 -241 239 -580t-240 -579t-579 -240q-164 0 -251 35l-80 -173l-189 88l81 173q-51 28 -140 117q-240 240 -240 579zM334 802q0 -253 179 -432q65 -65 81 -74l512 1100 q-41 16 -162 16q-253 0 -431.5 -178.5t-178.5 -431.5zM781 208q42 -17 163 -17q253 0 431.5 179t178.5 432t-178 432q-65 65 -82 74z" />
<glyph unicode="&#xd9;" horiz-adv-x="1388" d="M244 531l188 1069h208l-188 -1069q-25 -138 56.5 -236.5t220.5 -98.5q140 0 255 98t140 237l188 1069h208l-199 -1127q-61 -193 -216 -326q-188 -160 -413 -160t-356.5 159.5t-91.5 384.5zM730 1978h252l168 -279h-197z" />
<glyph unicode="&#xda;" horiz-adv-x="1388" d="M244 531l188 1069h208l-188 -1069q-25 -138 56.5 -236.5t220.5 -98.5q140 0 255 98t140 237l188 1069h208l-199 -1127q-61 -193 -216 -326q-188 -160 -413 -160t-356.5 159.5t-91.5 384.5zM837 1699l266 279h252l-321 -279h-197z" />
<glyph unicode="&#xdb;" horiz-adv-x="1388" d="M244 531l188 1069h208l-188 -1069q-25 -138 56.5 -236.5t220.5 -98.5q140 0 255 98t140 237l188 1069h208l-199 -1127q-61 -193 -216 -326q-188 -160 -413 -160t-356.5 159.5t-91.5 384.5zM692 1749l275 238h147l199 -238h-221l-78 82l-103 -82h-219z" />
<glyph unicode="&#xdc;" horiz-adv-x="1388" d="M244 531l188 1069h208l-188 -1069q-25 -138 56.5 -236.5t220.5 -98.5q140 0 255 98t140 237l188 1069h208l-199 -1127q-61 -193 -216 -326q-188 -160 -413 -160t-356.5 159.5t-91.5 384.5zM690 1865q10 60 60 102t110 42q59 0 94.5 -42t25.5 -102q-11 -61 -61.5 -103 t-109.5 -42q-60 0 -95 42t-24 103zM1066 1865q10 60 60 102t110 42q59 0 94.5 -42t25.5 -102q-11 -61 -61.5 -103t-109.5 -42q-60 0 -95 42t-24 103z" />
<glyph unicode="&#xdd;" horiz-adv-x="1414" d="M332 1600h238l290 -724l547 724h239l-723 -958l-113 -642h-207l113 642zM850 1699l266 279h252l-321 -279h-197z" />
<glyph unicode="&#xde;" horiz-adv-x="1180" d="M150 0l282 1600h207l-45 -255h247q188 -27 298 -160q131 -159 91 -384q-40 -226 -227 -385t-412 -159h-189l-45 -257h-207zM439 465h189q138 0 254 98.5t140 237.5q25 139 -56.5 237t-219.5 98h-189z" />
<glyph unicode="&#xdf;" horiz-adv-x="1142" d="M140 0l220 1246q41 173 142.5 264.5t249.5 96.5h16q134 0 217 -78q89 -87 68 -256l-3 -17q-28 -164 -79 -192q237 -102 182 -492q-42 -236 -237 -407q-184 -161 -340 -163v-2h-78l37 208h78v3q65 4 177 103q124 108 151 257q26 147 -60.5 251.5t-227.5 104.5l37 210 q67 8 106.5 39.5t49.5 86.5q10 58 -19 99q-24 34 -87 34h-9q-69 -2 -108 -40.5t-59 -127.5l-217 -1228h-207z" />
<glyph unicode="&#xe0;" horiz-adv-x="1401" d="M221 542q41 236 237 402.5t432 166.5q198 0 321 -154l12 72h208l-181 -1030h-208l23 129q-178 -155 -376 -155q-236 0 -373 166.5t-95 402.5zM433 542q-26 -147 60 -251.5t234 -104.5q147 0 270 104q92 79 127 176l27 152q-1 97 -65 176q-87 104 -234 104 q-148 0 -270.5 -104t-148.5 -252zM623 1407h252l168 -279h-197z" />
<glyph unicode="&#xe1;" horiz-adv-x="1401" d="M221 542q41 236 237 402.5t432 166.5q198 0 321 -154l12 72h208l-181 -1030h-208l23 129q-178 -155 -376 -155q-236 0 -373 166.5t-95 402.5zM433 542q-26 -147 60 -251.5t234 -104.5q147 0 270 104q92 79 127 176l27 152q-1 97 -65 176q-87 104 -234 104 q-148 0 -270.5 -104t-148.5 -252zM730 1128l266 279h252l-321 -279h-197z" />
<glyph unicode="&#xe2;" horiz-adv-x="1401" d="M221 542q41 236 237 402.5t432 166.5q198 0 321 -154l12 72h208l-181 -1030h-208l23 129q-178 -155 -376 -155q-236 0 -373 166.5t-95 402.5zM433 542q-26 -147 60 -251.5t234 -104.5q147 0 270 104q92 79 127 176l27 152q-1 97 -65 176q-87 104 -234 104 q-148 0 -270.5 -104t-148.5 -252zM585 1178l275 238h147l199 -238h-221l-78 82l-103 -82h-219z" />
<glyph unicode="&#xe3;" horiz-adv-x="1401" d="M221 542q41 236 237 402.5t432 166.5q198 0 321 -154l12 72h208l-181 -1030h-208l23 129q-178 -155 -376 -155q-236 0 -373 166.5t-95 402.5zM433 542q-26 -147 60 -251.5t234 -104.5q147 0 270 104q92 79 127 176l27 152q-1 97 -65 176q-87 104 -234 104 q-148 0 -270.5 -104t-148.5 -252zM579 1173q78 220 193 252q30 8 58 8q73 0 124.5 -58t77.5 -58v-1q30 0 37 39q5 26 -1 69h186q-77 -220 -191 -252q-30 -8 -58 -8q-74 0 -123.5 57t-77.5 57h-4q-30 -2 -36 -39q-5 -25 2 -66h-187z" />
<glyph unicode="&#xe4;" horiz-adv-x="1401" d="M221 542q41 236 237 402.5t432 166.5q198 0 321 -154l12 72h208l-181 -1030h-208l23 129q-178 -155 -376 -155q-236 0 -373 166.5t-95 402.5zM433 542q-26 -147 60 -251.5t234 -104.5q147 0 270 104q92 79 127 176l27 152q-1 97 -65 176q-87 104 -234 104 q-148 0 -270.5 -104t-148.5 -252zM583 1294q10 60 60 102t110 42q59 0 94.5 -42t25.5 -102q-11 -61 -61.5 -103t-109.5 -42q-60 0 -95 42t-24 103zM959 1294q10 60 60 102t110 42q59 0 94.5 -42t25.5 -102q-11 -61 -61.5 -103t-109.5 -42q-60 0 -95 42t-24 103z" />
<glyph unicode="&#xe5;" horiz-adv-x="1401" d="M221 542q41 236 237 403q134 113 287 149q-6 6 -11 13q-51 62 -36 148q16 87 88.5 149t160.5 62q87 0 137.5 -62t34.5 -149q-15 -86 -87 -148q-9 -7 -17 -13q114 -35 196 -137l12 72h208l-181 -1030h-208l23 129q-178 -155 -376 -155q-236 0 -373 166.5t-95 402.5z M433 542q-26 -147 60 -251.5t234 -104.5q147 0 270 104q92 79 127 176l27 152q-1 97 -65 176q-87 104 -234 104q-148 0 -270.5 -104t-148.5 -252zM852 1253q-4 -23 8.5 -38.5t40.5 -15.5q22 0 41 15.5t23 38.5q5 28 -8.5 43.5t-35.5 15.5q-28 0 -46 -15.5t-23 -43.5z" />
<glyph unicode="&#xe6;" horiz-adv-x="2142" d="M185 543q42 236 238 402.5t431 166.5q199 0 329 -120l6 38h207q71 82 293 82q236 0 373 -167q122 -149 83 -417l-837 1l-37 -210q3 -6 20 -27q87 -105 235 -105t270 105q23 19 76 73l190 -71q-77 -98 -141 -153q-197 -166 -433 -166q-222 0 -269 52l-4 -27h-207l16 95 q-171 -120 -371 -120q-235 0 -372 166.5t-96 401.5zM397 543q-26 -148 60.5 -252t233.5 -104q148 0 270 105q46 38 76 80q36 47 53 95l27 152q-1 48 -19 95q-17 43 -48 81q-86 104 -234 104q-147 0 -269.5 -104t-149.5 -252zM1344 736h589l-48 59q-86 104 -234 104 t-270 -104q-26 -22 -31 -28z" />
<glyph unicode="&#xe7;" horiz-adv-x="1262" d="M186 543q41 236 237.5 403t431.5 167q236 0 374 -167q28 -34 86 -137l-221 -76q-31 49 -43 63q-85 104 -233 104q-147 0 -270 -104.5t-149 -252.5q-26 -147 60 -251.5t233 -104.5q148 0 271 104q16 14 64 62l194 -74q-94 -105 -134 -139q-172 -146 -374 -164l-11 -20 q67 -38 79 -89q2 -14 3 -27q0 -13 -2 -26q-8 -43 -45 -81q-60 -59 -157 -73q-20 -3 -45 -3q-58 0 -146 15l57 126q53 -26 89 -26q6 0 11 1q32 4 46 35q4 7 6 15v8q-1 28 -82 56l50 92q-174 27 -284 161q-138 167 -96 403z" />
<glyph unicode="&#xe8;" horiz-adv-x="1262" d="M186 543q41 236 237.5 403t431.5 167q202 0 333 -122q21 -21 41 -45q8 -10 46 -63l-123 -105l-641 -545q44 -46 181 -46q148 0 271 104q16 14 64 62l194 -74q-94 -105 -134 -139q-197 -167 -433 -167q-235 0 -372.5 167t-95.5 403zM398 386l572 487q-30 27 -152 27 q-147 0 -270 -104.5t-149 -252.5q-22 -121 -1 -157zM566 1407h252l168 -279h-197z" />
<glyph unicode="&#xe9;" horiz-adv-x="1262" d="M186 543q41 236 237.5 403t431.5 167q202 0 333 -122q21 -21 41 -45q8 -10 46 -63l-123 -105l-641 -545q44 -46 181 -46q148 0 271 104q16 14 64 62l194 -74q-94 -105 -134 -139q-197 -167 -433 -167q-235 0 -372.5 167t-95.5 403zM398 386l572 487q-30 27 -152 27 q-147 0 -270 -104.5t-149 -252.5q-22 -121 -1 -157zM673 1128l267 279h252l-322 -279h-197z" />
<glyph unicode="&#xea;" horiz-adv-x="1262" d="M186 543q41 236 237.5 403t431.5 167q202 0 333 -122q21 -21 41 -45q8 -10 46 -63l-123 -105l-641 -545q44 -46 181 -46q148 0 271 104q16 14 64 62l194 -74q-94 -105 -134 -139q-197 -167 -433 -167q-235 0 -372.5 167t-95.5 403zM398 386l572 487q-30 27 -152 27 q-147 0 -270 -104.5t-149 -252.5q-22 -121 -1 -157zM528 1178l275 238h147l199 -238h-221l-77 82l-104 -82h-219z" />
<glyph unicode="&#xeb;" horiz-adv-x="1262" d="M186 543q41 236 237.5 403t431.5 167q202 0 333 -122q21 -21 41 -45q8 -10 46 -63l-123 -105l-641 -545q44 -46 181 -46q148 0 271 104q16 14 64 62l194 -74q-94 -105 -134 -139q-197 -167 -433 -167q-235 0 -372.5 167t-95.5 403zM398 386l572 487q-30 27 -152 27 q-147 0 -270 -104.5t-149 -252.5q-22 -121 -1 -157zM526 1294q11 60 60.5 102t109.5 42q59 0 95 -42t25 -102q-11 -61 -61.5 -103t-109.5 -42q-60 0 -95 42t-24 103zM902 1294q11 60 60.5 102t109.5 42q59 0 95 -42t25 -102q-11 -61 -61.5 -103t-109.5 -42q-60 0 -95 42 t-24 103z" />
<glyph unicode="&#xec;" horiz-adv-x="548" d="M170 0l182 1030h207l-182 -1030h-207zM209 1407h252l168 -279h-197z" />
<glyph unicode="&#xed;" horiz-adv-x="548" d="M170 0l182 1030h207l-182 -1030h-207zM316 1128l266 279h252l-321 -279h-197z" />
<glyph unicode="&#xee;" horiz-adv-x="548" d="M170 0l182 1030h207l-182 -1030h-207zM171 1178l275 238h147l199 -238h-221l-78 82l-103 -82h-219z" />
<glyph unicode="&#xef;" horiz-adv-x="548" d="M169 1294q10 60 60 102t110 42q59 0 94.5 -42t25.5 -102q-11 -61 -61.5 -103t-109.5 -42q-60 0 -95 42t-24 103zM170 0l182 1030h207l-182 -1030h-207zM545 1294q10 60 60 102t110 42q59 0 94.5 -42t25.5 -102q-11 -61 -61.5 -103t-109.5 -42q-60 0 -95 42t-24 103z" />
<glyph unicode="&#xf0;" horiz-adv-x="1318" d="M186 543q41 236 237.5 403t431.5 167q17 0 34 -1l-134 184l-139 -88h-257l316 198l-147 194h252l64 -88l151 88h252l-329 -201l270 -409q21 -21 40 -44q52 -63 78 -137l1 -1q42 -119 17 -265q-42 -236 -238 -403t-432 -167q-235 0 -372.5 167t-95.5 403zM398 543 q-26 -148 60 -252t234 -104t271 104t149 252q26 147 -60 252t-234 105t-271 -105t-149 -252z" />
<glyph unicode="&#xf1;" horiz-adv-x="1139" d="M150 0l181 1029h208l-21 -120q96 176 292 176q167 0 245 -118.5t49 -297.5l-118 -669h-207l117 661q15 89 -38.5 152.5t-143.5 63.5q-89 0 -165 -62q-43 -37 -58 -62l-133 -753h-208zM459 1173q78 220 194 252q29 8 57 8q73 0 125 -58t78 -58v-1q30 0 36 39q5 26 0 69 h186q-77 -220 -192 -252q-29 -8 -57 -8q-74 0 -123.5 57t-77.5 57h-4q-31 -2 -37 -39q-4 -25 2 -66h-187z" />
<glyph unicode="&#xf2;" horiz-adv-x="1318" d="M186 543q41 236 237.5 403t431.5 167q236 0 373 -167t96 -403q-42 -236 -238 -403t-432 -167q-235 0 -372.5 167t-95.5 403zM398 543q-26 -148 60 -252t234 -104t271 104t149 252q26 147 -60 252t-234 105t-271 -105t-149 -252zM594 1407h252l168 -279h-197z" />
<glyph unicode="&#xf3;" horiz-adv-x="1318" d="M186 543q41 236 237.5 403t431.5 167q236 0 373 -167t96 -403q-42 -236 -238 -403t-432 -167q-235 0 -372.5 167t-95.5 403zM398 543q-26 -148 60 -252t234 -104t271 104t149 252q26 147 -60 252t-234 105t-271 -105t-149 -252zM701 1128l267 279h252l-322 -279h-197z " />
<glyph unicode="&#xf4;" horiz-adv-x="1318" d="M186 543q41 236 237.5 403t431.5 167q236 0 373 -167t96 -403q-42 -236 -238 -403t-432 -167q-235 0 -372.5 167t-95.5 403zM398 543q-26 -148 60 -252t234 -104t271 104t149 252q26 147 -60 252t-234 105t-271 -105t-149 -252zM556 1178l275 238h147l199 -238h-221 l-77 82l-104 -82h-219z" />
<glyph unicode="&#xf5;" horiz-adv-x="1318" d="M186 543q41 236 237.5 403t431.5 167q236 0 373 -167t96 -403q-42 -236 -238 -403t-432 -167q-235 0 -372.5 167t-95.5 403zM398 543q-26 -148 60 -252t234 -104t271 104t149 252q26 147 -60 252t-234 105t-271 -105t-149 -252zM550 1173q78 220 194 252q29 8 57 8 q73 0 125 -58t78 -58l-1 -1q30 0 37 39q5 26 -1 69h186q-76 -220 -191 -252q-29 -8 -57 -8q-74 0 -123.5 57t-77.5 57h-4q-31 -2 -37 -39q-5 -25 2 -66h-187z" />
<glyph unicode="&#xf6;" horiz-adv-x="1318" d="M186 543q41 236 237.5 403t431.5 167q236 0 373 -167t96 -403q-42 -236 -238 -403t-432 -167q-235 0 -372.5 167t-95.5 403zM398 543q-26 -148 60 -252t234 -104t271 104t149 252q26 147 -60 252t-234 105t-271 -105t-149 -252zM554 1294q11 60 60.5 102t109.5 42 q59 0 95 -42t25 -102q-11 -61 -61.5 -103t-109.5 -42q-60 0 -95 42t-24 103zM930 1294q11 60 60.5 102t109.5 42q59 0 95 -42t25 -102q-11 -61 -61.5 -103t-109.5 -42q-60 0 -95 42t-24 103z" />
<glyph unicode="&#xf7;" horiz-adv-x="1112" d="M125 525v207h862v-207h-862zM411 344q0 60 42.5 102t102.5 42t102.5 -42t42.5 -102q0 -61 -42.5 -103t-102.5 -42t-102.5 42t-42.5 103zM411 913q0 60 42.5 102t102.5 42t102.5 -42t42.5 -102q0 -61 -42.5 -103t-102.5 -42t-102.5 42t-42.5 103z" />
<glyph unicode="&#xf8;" horiz-adv-x="1317" d="M148 -103l164 208l-30 37q-138 167 -97 402q42 236 238 402.5t431 166.5q134 0 189 -29l147 197l168 -95l-161 -202l30 -38q137 -166 95 -402q-41 -235 -237 -402t-432 -167q-133 0 -187 29l-148 -196zM397 544q-26 -148 49 -251l456 605q-5 2 -86 2q-147 0 -270 -104.5 t-149 -251.5zM606 190q5 -2 85 -2q148 0 270.5 104t148.5 252q26 147 -60 252z" />
<glyph unicode="&#xf9;" horiz-adv-x="1162" d="M221 403l110 626h208l-109 -618q-16 -89 38 -153t151 -64q89 0 165.5 63.5t92.5 153.5l109 618h207l-110 -626q-35 -179 -174 -298q-140 -119 -326 -119q-195 0 -293 119t-69 298zM516 1407h252l168 -279h-197z" />
<glyph unicode="&#xfa;" horiz-adv-x="1162" d="M221 403l110 626h208l-109 -618q-16 -89 38 -153t151 -64q89 0 165.5 63.5t92.5 153.5l109 618h207l-110 -626q-35 -179 -174 -298q-140 -119 -326 -119q-195 0 -293 119t-69 298zM623 1128l266 279h252l-321 -279h-197z" />
<glyph unicode="&#xfb;" horiz-adv-x="1162" d="M221 403l110 626h208l-109 -618q-16 -89 38 -153t151 -64q89 0 165.5 63.5t92.5 153.5l109 618h207l-110 -626q-35 -179 -174 -298q-140 -119 -326 -119q-195 0 -293 119t-69 298zM478 1178l275 238h147l199 -238h-221l-78 82l-103 -82h-219z" />
<glyph unicode="&#xfc;" horiz-adv-x="1162" d="M221 403l110 626h208l-109 -618q-16 -89 38 -153t151 -64q89 0 165.5 63.5t92.5 153.5l109 618h207l-110 -626q-35 -179 -174 -298q-140 -119 -326 -119q-195 0 -293 119t-69 298zM476 1294q10 60 60 102t110 42q59 0 94.5 -42t25.5 -102q-11 -61 -61.5 -103t-109.5 -42 q-60 0 -95 42t-24 103zM852 1294q10 60 60 102t110 42q59 0 94.5 -42t25.5 -102q-11 -61 -61.5 -103t-109.5 -42q-60 0 -95 42t-24 103z" />
<glyph unicode="&#xfd;" horiz-adv-x="1139" d="M123 -346l375 575l-242 800h233l162 -563l360 563h232l-901 -1375h-219zM611 1128l266 279h252l-321 -279h-197z" />
<glyph unicode="&#xfe;" horiz-adv-x="1374" d="M89 -345l343 1945h207l-120 -679q184 190 382 190q236 0 373 -166t96 -402q-42 -235 -237.5 -401.5t-432.5 -166.5q-198 0 -315 183l-89 -503h-207zM438 462q3 -94 66 -171q87 -105 234 -105q148 0 270.5 104.5t149.5 252.5q26 148 -60.5 252t-234.5 104 q-147 0 -270 -104q-91 -77 -126 -172z" />
<glyph unicode="&#xff;" horiz-adv-x="1139" d="M123 -346l375 575l-242 800h233l162 -563l360 563h232l-901 -1375h-219zM464 1294q10 60 60 102t110 42q59 0 94.5 -42t25.5 -102q-11 -61 -61.5 -103t-109.5 -42q-60 0 -95 42t-24 103zM840 1294q10 60 60 102t110 42q59 0 94.5 -42t25.5 -102q-11 -61 -61.5 -103 t-109.5 -42q-60 0 -95 42t-24 103z" />
<glyph unicode="&#x152;" horiz-adv-x="2258" d="M232 802q60 339 342 579t621 240q133 0 241 -21h978l-36 -207h-644q183 -237 151 -489h407l-37 -207h-408q-57 -251 -324 -489h646l-37 -208h-979q-115 -17 -247 -17q-339 0 -536.5 240t-137.5 579zM441 802q-45 -253 102.5 -432t399.5 -179q117 0 224 37q40 15 81 36 q81 40 159 106q193 165 246 392q4 19 8 40q3 19 5 37q30 228 -107 395q-54 65 -121 106q-34 20 -69 35q-94 37 -211 37q-253 0 -463 -178.5t-254 -431.5z" />
<glyph unicode="&#x153;" horiz-adv-x="2184" d="M186 543q41 236 237.5 403t431.5 167q236 0 373 -167q27 -33 47 -68q32 35 71 68q196 167 431 167q202 0 333 -122q21 -21 41 -45q8 -10 46 -63l-123 -105l-641 -545q44 -46 181 -46q148 0 271 104q16 14 64 62l194 -74q-94 -105 -134 -139q-197 -167 -433 -167 q-235 0 -372 167q-27 33 -47 68q-33 -35 -71 -68q-196 -167 -432 -167q-235 0 -372.5 167t-95.5 403zM398 543q-26 -148 60 -252t234 -104t271 104q104 88 138 207q3 22 7 45q4 22 9 44q7 119 -65 208q-86 105 -234 105t-271 -105t-149 -252zM1313 495q-9 -81 7 -109 l572 487q-30 27 -152 27q-147 0 -270 -104q-107 -91 -141 -214q-2 -19 -5 -39q-5 -24 -11 -48z" />
<glyph unicode="&#x178;" horiz-adv-x="1414" d="M332 1600h238l290 -724l547 724h239l-723 -958l-113 -642h-207l113 642zM703 1865q10 60 60 102t110 42q59 0 94.5 -42t25.5 -102q-11 -61 -61.5 -103t-109.5 -42q-60 0 -95 42t-24 103zM1079 1865q10 60 60 102t110 42q59 0 94.5 -42t25.5 -102q-11 -61 -61.5 -103 t-109.5 -42q-60 0 -95 42t-24 103z" />
<glyph unicode="&#x2c6;" horiz-adv-x="1066" d="M429 1178l275 238h147l199 -238h-221l-78 82l-103 -82h-219z" />
<glyph unicode="&#x2dc;" horiz-adv-x="931" d="M357 1173q78 220 193 252q30 8 58 8q73 0 124.5 -58t77.5 -58v-1q30 0 37 39q5 26 -1 69h186q-77 -220 -191 -252q-30 -8 -58 -8q-74 0 -123 57t-77 57h-4q-31 -2 -37 -39q-5 -25 2 -66h-187z" />
<glyph unicode="&#x2000;" horiz-adv-x="1004" />
<glyph unicode="&#x2001;" horiz-adv-x="2009" />
<glyph unicode="&#x2002;" horiz-adv-x="1004" />
<glyph unicode="&#x2003;" horiz-adv-x="2009" />
<glyph unicode="&#x2004;" horiz-adv-x="669" />
<glyph unicode="&#x2005;" horiz-adv-x="502" />
<glyph unicode="&#x2006;" horiz-adv-x="334" />
<glyph unicode="&#x2007;" horiz-adv-x="334" />
<glyph unicode="&#x2008;" horiz-adv-x="251" />
<glyph unicode="&#x2009;" horiz-adv-x="401" />
<glyph unicode="&#x200a;" horiz-adv-x="111" />
<glyph unicode="&#x2010;" horiz-adv-x="919" d="M214 505l36 207h668l-36 -207h-668z" />
<glyph unicode="&#x2011;" horiz-adv-x="919" d="M214 505l36 207h668l-36 -207h-668z" />
<glyph unicode="&#x2012;" horiz-adv-x="919" d="M214 505l36 207h668l-36 -207h-668z" />
<glyph unicode="&#x2013;" horiz-adv-x="935" d="M139 505l36 207h835l-36 -207h-835z" />
<glyph unicode="&#x2014;" horiz-adv-x="1522" d="M139 505l36 207h1422l-36 -207h-1422z" />
<glyph unicode="&#x2018;" horiz-adv-x="410" d="M285 1329q5 32 23 62l146 219h189l-92 -178q34 -42 24 -103q-11 -60 -61 -102t-110 -42q-59 0 -94.5 42t-24.5 102z" />
<glyph unicode="&#x2019;" horiz-adv-x="410" d="M259 1185l92 178q-34 42 -23 103q10 60 60 102t110 42q59 0 94.5 -42t25.5 -102q-6 -32 -23 -62l-147 -219h-189z" />
<glyph unicode="&#x201a;" horiz-adv-x="410" d="M23 -155l92 178q-34 42 -23 103q10 60 60 102t110 42q59 0 94.5 -42t25.5 -102q-6 -32 -23 -62l-147 -219h-189z" />
<glyph unicode="&#x201c;" horiz-adv-x="744" d="M286 1329q5 32 23 62l146 219h189l-92 -178q34 -42 24 -103q-11 -60 -61 -102t-110 -42q-59 0 -94.5 42t-24.5 102zM618 1329q6 32 23 62l147 219h189l-93 -178q35 -42 24 -103q-10 -60 -60 -102t-110 -42q-59 0 -94.5 42t-25.5 102z" />
<glyph unicode="&#x201d;" horiz-adv-x="744" d="M260 1185l92 178q-34 42 -23 103q10 60 60 102t110 42q59 0 94.5 -42t25.5 -102q-6 -32 -23 -62l-147 -219h-189zM593 1185l92 178q-35 42 -24 103q11 60 61 102t110 42q59 0 94.5 -42t24.5 -102q-5 -32 -23 -62l-146 -219h-189z" />
<glyph unicode="&#x201e;" horiz-adv-x="743" d="M13 -212l92 178q-34 42 -23 103q10 60 60 102t110 42q59 0 94.5 -42t25.5 -102q-6 -32 -23 -62l-147 -219h-189zM346 -212l92 178q-35 42 -24 103q11 60 61 102t110 42q59 0 94.5 -42t24.5 -102q-5 -32 -23 -62l-146 -219h-189z" />
<glyph unicode="&#x2022;" horiz-adv-x="860" d="M359 748q15 84 85.5 143t154.5 59q82 0 131.5 -59t34.5 -143q-15 -85 -85.5 -143.5t-152.5 -58.5q-84 0 -133.5 58.5t-34.5 143.5z" />
<glyph unicode="&#x2026;" horiz-adv-x="2048" d="M124 133q11 60 61 102t109 42q60 0 95.5 -42t24.5 -102q-11 -62 -61 -104t-110 -42q-59 0 -94.5 42t-24.5 104zM807 133q11 60 61 102t109 42q60 0 95.5 -42t24.5 -102q-11 -62 -61 -104t-110 -42q-59 0 -94.5 42t-24.5 104zM1490 133q11 60 61 102t109 42q60 0 95.5 -42 t24.5 -102q-11 -62 -61 -104t-110 -42q-59 0 -94.5 42t-24.5 104z" />
<glyph unicode="&#x202f;" horiz-adv-x="401" />
<glyph unicode="&#x2039;" horiz-adv-x="744" d="M186 489l645 581l-49 -278l-336 -303l229 -304l-49 -280z" />
<glyph unicode="&#x203a;" horiz-adv-x="744" d="M83 -95l49 280l337 304l-230 303l49 278l441 -581z" />
<glyph unicode="&#x205f;" horiz-adv-x="502" />
<glyph unicode="&#x20ac;" horiz-adv-x="1507" d="M195 540l74 187h128l10 56h-130l74 188h89l11 61q41 235 237 401.5t431 166.5q236 0 408 -211l-176 -149q-122 147 -270 147t-270.5 -104t-148.5 -251l-11 -61h620l-75 -188h-578l-10 -56h581l-74 -187l-539 3q-27 -148 59.5 -252t234.5 -104t270 105q77 65 137 189h215 q-94 -225 -228 -340q-196 -166 -432 -166q-235 0 -372 166.5t-95 401.5l-1 -3h-169z" />
<glyph unicode="&#x2122;" horiz-adv-x="1255" d="M50 1428v172h584l212 -325l212 325h147v-729h-176v365l-183 -282l-184 283v-366h-176v557h-91v-557h-177v557h-168z" />
<glyph unicode="&#x25fc;" horiz-adv-x="1030" d="M0 0v1030h1030v-1030h-1030z" />
<glyph unicode="&#xfb01;" horiz-adv-x="1020" d="M182 0l145 823h-92l37 207h92l32 185q30 128 136 219q110 88 233 88q62 0 181 -43l-103 -196q-81 38 -105 38q-41 0 -87 -36q-39 -32 -49 -78l-31 -177h464l-182 -1030h-207l145 823h-257l-145 -823h-207zM818 1207q10 60 60 102t110 42q59 0 94.5 -42t25.5 -102 q-11 -61 -61.5 -103t-109.5 -42q-60 0 -95 42t-24 103z" />
<glyph unicode="&#xfb02;" horiz-adv-x="985" d="M182 0l145 823h-92l37 207h92l32 185q30 128 136 219q110 88 279 88q150 0 279 -76l-255 -1446h-207l232 1317q-11 4 -76 4q-87 0 -133 -36q-39 -32 -49 -78l-31 -177h185l-37 -207h-185l-145 -823h-207z" />
<glyph unicode="&#xfb03;" horiz-adv-x="1502" d="M182 0l145 823h-92l37 207h92l32 185q30 128 136 219q110 88 233 88q62 0 181 -43l-103 -196q-81 38 -105 38q-41 0 -87 -36q-39 -32 -49 -78l-31 -177h275l32 185q30 128 137 219q109 88 232 88q62 0 181 -43l-103 -196q-81 38 -104 38q-42 0 -87 -36q-39 -32 -49 -78 l-31 -177h464l-182 -1030h-208l145 823h-256l-145 -823h-208l145 823h-275l-145 -823h-207zM1300 1207q10 60 60 102t110 42q59 0 94.5 -42t25.5 -102q-11 -61 -61.5 -103t-109.5 -42q-60 0 -95 42t-24 103z" />
<glyph unicode="&#xfb04;" horiz-adv-x="1467" d="M182 0l145 823h-92l37 207h92l32 185q30 128 136 219q110 88 233 88q62 0 181 -43l-103 -196q-81 38 -105 38q-41 0 -87 -36q-39 -32 -49 -78l-31 -177h275l32 185q30 128 137 219q109 88 278 88q151 0 279 -76l-255 -1446h-207l232 1317q-11 4 -75 4q-88 0 -133 -36 q-39 -32 -49 -78l-31 -177h184l-37 -207h-184l-145 -823h-208l145 823h-275l-145 -823h-207z" />
</font>
</defs>
</svg>
