<?xml version="1.0" standalone="no"?>
<!DOCTYPE svg PUBLIC "-//W3C//DTD SVG 1.1//EN" "http://www.w3.org/Graphics/SVG/1.1/DTD/svg11.dtd" >
<svg xmlns="http://www.w3.org/2000/svg">
<metadata></metadata>
<defs>
<font id="cabin_condensedsemibold" horiz-adv-x="972" >
<font-face units-per-em="2048" ascent="1638" descent="-410" />
<missing-glyph horiz-adv-x="395" />
<glyph horiz-adv-x="2048" />
<glyph horiz-adv-x="2048" />
<glyph unicode="&#xd;" horiz-adv-x="2048" />
<glyph unicode=" "  horiz-adv-x="395" />
<glyph unicode="&#x09;" horiz-adv-x="395" />
<glyph unicode="&#xa0;" horiz-adv-x="395" />
<glyph unicode="!" horiz-adv-x="444" d="M109 0v229h227v-229h-227zM109 1536h223l-33 -1126h-154z" />
<glyph unicode="&#x22;" horiz-adv-x="696" d="M63 1536h226l-35 -614h-156zM410 1536h225l-37 -614h-154z" />
<glyph unicode="#" horiz-adv-x="1247" d="M55 436l76 191h197l69 227h-211l56 190h223l129 390h168l-125 -390h192l125 390h174l-127 -390h195l-61 -190h-199l-70 -227h219l-79 -191h-205l-150 -459h-172l146 459h-191l-149 -459h-170l147 459h-207zM498 627h192l74 227h-195z" />
<glyph unicode="$" horiz-adv-x="927" d="M66 971q0 51 16 104t54 98.5t99.5 78t151.5 42.5l-27 238h191l-29 -238q88 -6 166 -29.5t115 -47.5l-21 -222q-74 43 -156.5 74t-148.5 31q-33 0 -67.5 -4t-62.5 -15.5t-46 -32t-18 -53.5q0 -51 43 -80.5t106.5 -52t139 -46t139 -63.5t106.5 -103.5t43 -166.5 q0 -43 -12 -94t-49 -97t-103.5 -81t-173.5 -45l29 -232h-191l27 230q-102 6 -184 28.5t-123 51.5l31 248q43 -47 129 -86t202 -39q86 0 132.5 24.5t46.5 89.5q0 55 -41 89t-102.5 59.5t-134.5 50.5t-134.5 60.5t-102 90t-40.5 140.5z" />
<glyph unicode="%" horiz-adv-x="1482" d="M59 1057q0 90 20.5 161.5t57.5 121t87 76t110 26.5q117 0 190.5 -97.5t73.5 -271.5q0 -180 -74.5 -284.5t-199.5 -104.5q-121 0 -193 99.5t-72 273.5zM205 1057q0 -121 34.5 -177.5t86.5 -56.5q55 0 91 60.5t36 189.5q0 119 -37 177.5t-84 58.5t-87 -62.5t-40 -189.5z M256 -25l743 1459h189l-744 -1459h-188zM887 350q0 90 20.5 162t57 121t87 75.5t109.5 26.5q117 0 190.5 -97t73.5 -271q0 -180 -74.5 -285t-197.5 -105t-194.5 99.5t-71.5 273.5zM1032 350q0 -121 34 -177t87 -56q55 0 92 60.5t37 189.5q0 119 -38 177t-85 58t-87 -62.5 t-40 -189.5z" />
<glyph unicode="&#x26;" horiz-adv-x="1105" d="M57 340q0 68 18.5 125t48.5 107.5t67.5 94.5t78.5 85q-49 86 -90 173t-41 175q0 80 30 143.5t80 107.5t114.5 66.5t134.5 22.5q135 0 209.5 -79t74.5 -204q0 -70 -21.5 -128t-55 -107.5t-78.5 -91.5t-90 -80l235 -351q4 33 6 76t3 86t2 85t1 75h217q0 -45 -3 -103.5 t-12 -123t-25.5 -132t-42.5 -129.5l190 -233h-264l-53 78q-111 -127 -324 -127q-106 0 -183 31.5t-127.5 86t-75 124t-24.5 147.5zM293 360q0 -43 8 -85t31.5 -74.5t63.5 -52t106 -19.5q59 0 101 22.5t73 63.5l-297 408q-39 -51 -62.5 -116t-23.5 -147zM362 1092 q0 -49 19.5 -102.5t60.5 -121.5q59 66 100.5 123.5t41.5 134.5q0 70 -26 99.5t-69 29.5q-55 0 -91 -39.5t-36 -123.5z" />
<glyph unicode="'" horiz-adv-x="348" d="M61 1536h226l-37 -614h-154z" />
<glyph unicode="(" horiz-adv-x="499" d="M80 629q0 162 12 293t35 239.5t54.5 199.5t72.5 175h207q-41 -84 -77 -180t-62.5 -209t-42 -241t-15.5 -277q0 -150 15.5 -278t42 -240.5t62.5 -209t77 -180.5h-207q-41 84 -72.5 175.5t-54.5 200t-35 239.5t-12 293z" />
<glyph unicode=")" horiz-adv-x="499" d="M39 -279q41 84 77 180.5t62.5 209t42 240.5t15.5 278t-15.5 277.5t-42 240.5t-62.5 209t-77 180h207q39 -84 71.5 -175t55 -199.5t35 -239.5t12.5 -293t-12.5 -293t-35 -239.5t-55 -200t-71.5 -175.5h-207z" />
<glyph unicode="*" horiz-adv-x="792" d="M55 1278l88 141l232 -207l-66 322h174l-67 -322l233 207l88 -143l-280 -111l213 -200l-125 -111l-146 276l-147 -282l-125 110l215 203z" />
<glyph unicode="+" horiz-adv-x="794" d="M72 475v189h241v262h168v-262h242v-189h-242v-266h-168v266h-241z" />
<glyph unicode="," horiz-adv-x="415" d="M94 -197l60 177l-58 20v238h223v-238l-178 -225z" />
<glyph unicode="-" horiz-adv-x="718" d="M86 475v189h547v-189h-547z" />
<glyph unicode="." horiz-adv-x="415" d="M94 0v238h225v-238h-225z" />
<glyph unicode="/" horiz-adv-x="970" d="M33 -174l639 1608h243l-639 -1608h-243z" />
<glyph unicode="0" horiz-adv-x="1241" d="M102 694q0 172 41 313.5t112 243t168 156.5t208 55t204 -53t160.5 -150.5t105.5 -232.5t38 -297q0 -172 -38 -311t-107.5 -238.5t-167 -154t-216.5 -54.5q-115 0 -208 51.5t-159.5 146.5t-103.5 228t-37 297zM334 694q0 -262 80 -384t198 -122q63 0 117.5 31t94.5 97.5 t62.5 169t22.5 243.5q0 131 -23.5 228.5t-63.5 162t-90 96t-105 31.5t-107.5 -33.5t-93.5 -102.5t-66.5 -172t-25.5 -245z" />
<glyph unicode="1" horiz-adv-x="647" d="M76 1210q27 8 60.5 31t65 53.5t58.5 66.5t39 73h178v-1434h-231v1092q-33 -37 -70 -58.5t-82 -32.5z" />
<glyph unicode="2" horiz-adv-x="929" d="M76 0q113 193 193.5 337t136 250.5t88 181.5t49 127t21.5 86t5 60q0 102 -43 157.5t-123 55.5q-57 0 -104 -23.5t-82 -56t-59.5 -68.5t-36.5 -63l-29 218q12 23 42 57.5t75 66t105.5 54t136.5 22.5q98 0 162.5 -35.5t103.5 -92t55 -125t16 -134.5q0 -72 -17 -153.5 t-56 -183t-98.5 -226.5t-143.5 -283h358v-229h-755z" />
<glyph unicode="3" horiz-adv-x="950" d="M66 82l57 221q16 -23 45 -42t64.5 -32.5t75.5 -21.5t77 -8q47 0 90 11t75 37.5t51.5 73t19.5 113.5q0 49 -8.5 94t-33 81t-66.5 56.5t-110 20.5h-161l18 188h84q66 0 110 15.5t69.5 43.5t36.5 64.5t11 79.5q0 86 -41 132t-139 46q-55 0 -116.5 -19t-96.5 -54l-35 186 q14 14 41 30.5t63 31t80 23.5t93 9q119 0 194.5 -36.5t116.5 -93t56.5 -123t15.5 -124.5q0 -92 -30 -162.5t-83 -127.5q74 -53 116 -144.5t42 -208.5q0 -119 -39 -208t-101.5 -147t-143.5 -87t-167 -29q-59 0 -114.5 12.5t-100.5 30t-76.5 37t-39.5 31.5z" />
<glyph unicode="4" horiz-adv-x="1021" d="M14 389l568 1045h194v-844h150v-201h-150v-389h-231v389h-531zM326 590h219v459z" />
<glyph unicode="5" horiz-adv-x="944" d="M86 76l53 221q41 -41 110.5 -70.5t153.5 -29.5q43 0 85 16t75 49t52.5 84t19.5 121q0 49 -10.5 91t-42 73t-89 47t-151.5 16h-192l77 740h566l-23 -230h-371l-28 -305q252 -4 369.5 -104.5t117.5 -317.5q0 -123 -38 -217t-101.5 -157.5t-143 -96.5t-163.5 -33 q-61 0 -118.5 11.5t-104 28t-74 33.5t-29.5 30z" />
<glyph unicode="6" horiz-adv-x="989" d="M102 506q0 193 60.5 360.5t145.5 293.5t174 200t149 74l151 -95q-35 -16 -103.5 -70.5t-140 -132t-128 -174t-64.5 -196.5q18 29 44 47t53.5 29.5t55 15.5t46.5 4q76 0 143.5 -26.5t118.5 -78.5t79.5 -130t28.5 -178q0 -98 -29.5 -185.5t-85 -152t-135.5 -102.5t-180 -38 q-80 0 -149.5 31t-121.5 96.5t-82 167t-30 240.5zM326 414q0 -55 17 -98.5t45 -72t59.5 -44t62.5 -15.5q45 0 81 20.5t61.5 56.5t39 84t13.5 104q0 41 -9.5 79.5t-31 68.5t-54.5 48.5t-80 18.5q-86 0 -145 -63.5t-59 -186.5z" />
<glyph unicode="7" horiz-adv-x="897" d="M76 1204v230h811l-512 -1434h-244l418 1204h-473z" />
<glyph unicode="8" horiz-adv-x="1050" d="M94 381q0 96 40 197.5t145 193.5q-63 70 -89 157t-26 173q0 68 18.5 133t61.5 115.5t113.5 81t174.5 30.5q100 0 169 -27.5t111 -73.5t60.5 -105.5t18.5 -122.5q0 -109 -40 -187t-106 -155q92 -53 151.5 -147.5t59.5 -229.5q0 -76 -25.5 -154t-79.5 -142.5t-139 -105.5 t-204 -41q-109 0 -186.5 35t-128 93.5t-75 131t-24.5 150.5zM313 395q0 -111 54.5 -168t148.5 -57q104 0 159.5 65.5t55.5 174.5q0 57 -16.5 102t-44 79t-63.5 57.5t-75 35.5q-41 -10 -79.5 -31.5t-69.5 -57.5t-50.5 -86t-19.5 -114zM365 1081q0 -31 5 -62.5t21.5 -59 t46 -51t78.5 -40.5q94 33 128 94.5t34 133.5q0 35 -7 65.5t-24.5 54t-47.5 37t-75 13.5q-90 0 -124.5 -53.5t-34.5 -131.5z" />
<glyph unicode="9" horiz-adv-x="991" d="M102 981q0 98 30 186t86 153.5t136 103.5t178 38q82 0 153 -28.5t123 -92t82 -166t30 -249.5q0 -207 -51.5 -378t-130.5 -293t-173 -188.5t-180 -66.5l-143 94q39 10 111.5 56.5t145 120t128 173t59.5 218.5q-18 -25 -51 -42.5t-66.5 -27.5t-61.5 -15.5t-34 -5.5 q-80 0 -148.5 26t-117.5 77t-77 128t-28 179zM328 991q0 -39 9 -78t29.5 -70.5t52.5 -52t77 -20.5q86 0 145 63.5t59 186.5q0 63 -17 107t-44 71t-58.5 39t-60.5 12q-47 0 -83 -22.5t-60.5 -59.5t-36.5 -83t-12 -93z" />
<glyph unicode=":" horiz-adv-x="460" d="M119 0v238h225v-238h-225zM119 664v237h225v-237h-225z" />
<glyph unicode=";" horiz-adv-x="460" d="M94 -197l60 177l-58 20v238h223v-238l-178 -225zM96 664v237h248v-237h-248z" />
<glyph unicode="&#x3c;" horiz-adv-x="786" d="M57 582l373 422h270l-372 -422l372 -422h-270z" />
<glyph unicode="=" horiz-adv-x="864" d="M106 313v183h652v-183h-652zM106 639v182h652v-182h-652z" />
<glyph unicode="&#x3e;" horiz-adv-x="786" d="M86 160l373 422l-373 422h270l373 -422l-373 -422h-270z" />
<glyph unicode="?" horiz-adv-x="780" d="M51 1393q45 72 121 107.5t160 35.5q94 0 164.5 -37t115.5 -94t67.5 -126t22.5 -130q0 -94 -42 -178t-93 -167t-93 -171t-42 -189v-34h-153q-4 59 -4.5 78.5t-0.5 25.5q0 94 34 172t74 150.5t73.5 147.5t33.5 163q0 109 -49 159t-123 50t-128 -43t-89 -92zM244 0v229h225 v-229h-225z" />
<glyph unicode="@" horiz-adv-x="1243" d="M72 348q0 168 54 311.5t145 249t211 165t253 59.5q104 0 185 -37t137.5 -104.5t86.5 -163t30 -214.5q0 -78 -13.5 -153.5t-43.5 -135t-78 -96t-115 -36.5q-33 0 -54.5 17t-21.5 87q0 90 31.5 202.5t66.5 276.5q-35 41 -88 75t-125 34q-84 0 -164 -50.5t-144.5 -131 t-103 -183t-38.5 -207.5q0 -45 8 -87t27.5 -73.5t50 -51t73.5 -19.5q39 0 82 15.5t86 46t82 74.5t68 101q0 -10 -2 -29.5t-2 -41.5q0 -25 5 -53.5t16 -52t30.5 -40t50.5 -16.5q25 0 55.5 11.5t61.5 29.5t60.5 42t49.5 48q-41 -88 -102 -160.5t-136 -125t-161 -81t-178 -28.5 q-201 0 -318.5 138t-117.5 388zM424 354q0 84 32.5 158t81 129t105 87t105.5 32q16 0 42.5 -6t36.5 -39q-12 -82 -48 -170t-83 -161t-99 -120t-95 -47q-41 0 -59.5 39t-18.5 98z" />
<glyph unicode="A" horiz-adv-x="1099" d="M2 0l438 1434h219l439 -1434h-242l-104 358h-404l-104 -358h-242zM430 588h242l-123 477z" />
<glyph unicode="B" horiz-adv-x="1110" d="M92 0v1434h340q106 0 193.5 -13.5t150 -52.5t96 -110.5t33.5 -188.5q0 -96 -25.5 -168t-78.5 -135q104 -51 159.5 -132t55.5 -210t-40 -211t-103.5 -130t-142.5 -65.5t-157 -17.5h-481zM324 209h229q51 0 93 9t70.5 33.5t45 67.5t16.5 109q0 68 -17.5 111t-47 69.5 t-70.5 36.5t-88 10h-231v-446zM324 852h223q23 0 47 6t46 26.5t36 56.5t14 97q0 59 -11 96t-31.5 56.5t-51.5 27t-68 7.5h-204v-373z" />
<glyph unicode="C" horiz-adv-x="1073" d="M61 717q0 170 45.5 307t126 234.5t192.5 150.5t243 53q98 0 191 -23.5t161 -60.5l-27 -227q-78 33 -152.5 58.5t-172.5 25.5q-88 0 -153.5 -39t-110 -108.5t-67 -165t-22.5 -205.5q0 -111 22.5 -206t67 -165t110 -108.5t153.5 -38.5q98 0 172.5 24.5t152.5 59.5l27 -228 q-68 -39 -161 -61.5t-191 -22.5q-131 0 -243 53.5t-192.5 150.5t-126 234.5t-45.5 307.5z" />
<glyph unicode="D" horiz-adv-x="1267" d="M135 0v1434h461q131 0 242.5 -49.5t193.5 -141.5t127 -225t45 -301q0 -170 -45 -303t-127 -225.5t-193.5 -140.5t-242.5 -48h-461zM367 227h229q88 0 154.5 35t110.5 98.5t66.5 154.5t22.5 202t-22.5 202t-66.5 154.5t-110.5 98t-154.5 34.5h-229v-979z" />
<glyph unicode="E" horiz-adv-x="1005" d="M135 0v1434h793v-230h-555v-342h430v-229h-430v-404h573v-229h-811z" />
<glyph unicode="F" horiz-adv-x="925" d="M135 0v1434h760v-230h-528v-342h407v-229h-407v-633h-232z" />
<glyph unicode="G" horiz-adv-x="1169" d="M61 719q0 168 45.5 306t127 234.5t194.5 149.5t248 53q45 0 95 -6t100.5 -16t95.5 -26.5t80 -35.5l-27 -225q-72 35 -164 58.5t-174 23.5q-94 0 -163.5 -40t-115 -108.5t-67 -163t-21.5 -202.5q0 -115 23.5 -210t70 -165t117 -108.5t162.5 -38.5q82 0 166 28v287h-129 v205h362v-639q-35 -23 -85 -42.5t-107 -34.5t-117.5 -23.5t-113.5 -8.5q-129 0 -240 53.5t-191.5 150.5t-126 235.5t-45.5 308.5z" />
<glyph unicode="H" horiz-adv-x="1302" d="M135 0v1434h232v-570h569v570h231v-1434h-231v633h-569v-633h-232z" />
<glyph unicode="I" horiz-adv-x="495" d="M131 0v1434h234v-1434h-234z" />
<glyph unicode="J" horiz-adv-x="497" d="M-6 -180h51q47 0 66.5 44t19.5 140v1430h234v-1487q0 -150 -78 -224.5t-207 -74.5h-68z" />
<glyph unicode="K" horiz-adv-x="1089" d="M129 0v1434h231v-1434h-231zM403 758l426 676h263l-426 -676l426 -758h-263z" />
<glyph unicode="L" horiz-adv-x="880" d="M135 0v1434h232v-1205h501v-229h-733z" />
<glyph unicode="M" horiz-adv-x="1482" d="M80 0l174 1434h188l299 -682l295 682h189l174 -1434h-242l-104 987l-312 -684l-313 684l-106 -987h-242z" />
<glyph unicode="N" horiz-adv-x="1247" d="M135 0v1434h227l517 -971v971h233v-1434h-190l-555 1030v-1030h-232z" />
<glyph unicode="O" horiz-adv-x="1337" d="M61 717q0 170 45.5 307t127 234.5t192.5 150.5t244 53q131 0 242.5 -53t192.5 -150.5t126 -234.5t45 -307t-45 -307.5t-126 -234.5t-192.5 -150.5t-242.5 -53.5q-133 0 -244 53.5t-192.5 150.5t-127 234.5t-45.5 307.5zM315 717q0 -111 22.5 -206t67 -165t111 -108.5 t154.5 -38.5t154.5 38.5t110.5 108.5t66.5 165t22.5 206t-22.5 206t-66.5 164.5t-110.5 108.5t-154.5 39t-154.5 -39t-111 -108.5t-67 -165t-22.5 -205.5z" />
<glyph unicode="P" horiz-adv-x="1054" d="M131 0v1434h344q133 0 233.5 -15.5t168 -63.5t102.5 -137.5t35 -236.5q0 -150 -44 -247t-109.5 -153.5t-141.5 -78t-141 -21.5h-216v-481h-231zM362 705h187q123 0 177 63t54 209q0 68 -10 115t-36.5 77.5t-72 45t-114.5 14.5h-185v-524z" />
<glyph unicode="Q" horiz-adv-x="1339" d="M61 717q0 170 45.5 307t127 234.5t192.5 150.5t244 53q131 0 242.5 -53t192.5 -150.5t126 -234.5t45 -307q0 -133 -27.5 -249t-77.5 -214l109 -102l-135 -164l-123 114q-72 -66 -161 -98.5t-191 -32.5q-133 0 -244 53.5t-192.5 150.5t-127 234.5t-45.5 307.5zM315 717 q0 -111 22.5 -206t67 -165t111 -108.5t154.5 -38.5q51 0 91 13t75 46l-146 154l135 163l152 -163q20 72 31.5 148.5t11.5 156.5q0 111 -21.5 206t-65.5 164.5t-109.5 108.5t-153.5 39t-154.5 -39t-111 -108.5t-67 -165t-22.5 -205.5z" />
<glyph unicode="R" horiz-adv-x="1101" d="M133 0v1434h457q88 0 166 -20.5t135 -69t90 -128t33 -198.5q0 -78 -16.5 -140.5t-45 -113.5t-65.5 -90t-80 -70l276 -604h-241l-252 541h-228v-541h-229zM362 768h156q82 0 131 15.5t77 46t37 74.5t9 102q0 53 -10 95t-36 71.5t-73 45t-121 15.5h-170v-465z" />
<glyph unicode="S" horiz-adv-x="1021" d="M68 1034q0 80 21.5 157t73.5 137.5t138 97t213 36.5q63 0 124.5 -9t114 -24.5t92.5 -35t62 -37.5l-24 -248q-98 66 -184.5 96.5t-176.5 30.5q-33 0 -71.5 -9t-71.5 -29.5t-55.5 -53.5t-22.5 -78t20.5 -78t54.5 -57.5t79 -45t94 -38.5q70 -27 144.5 -58.5t136 -83 t101.5 -128t40 -191.5q0 -74 -14.5 -147.5t-63.5 -133t-143 -96.5t-256 -37q-143 0 -250 30t-160 71l29 274q47 -57 145 -102t242 -45q96 0 154.5 42t58.5 136q0 53 -24.5 92t-64.5 69.5t-91.5 54t-104.5 46.5q-61 27 -124.5 57.5t-116 75.5t-86 108.5t-33.5 153.5z" />
<glyph unicode="T" horiz-adv-x="974" d="M25 1204v230h925v-230h-346v-1204h-233v1204h-346z" />
<glyph unicode="U" horiz-adv-x="1263" d="M121 612v822h231v-732q0 -102 11.5 -193t42 -159.5t85 -109.5t140.5 -41t140 41t85 109.5t42 159.5t11 193v732h234v-822q0 -147 -31 -265t-94.5 -202t-159.5 -129t-227 -45q-129 0 -225.5 45t-160 129t-94 202t-30.5 265z" />
<glyph unicode="V" horiz-adv-x="1157" d="M0 1434h242l340 -1127l336 1127h237l-428 -1434h-287z" />
<glyph unicode="W" horiz-adv-x="1699" d="M18 1434h242l242 -1074l272 1065h158l280 -1044l234 1053h240l-361 -1434h-201l-272 1012l-270 -1012h-215z" />
<glyph unicode="X" horiz-adv-x="1079" d="M-16 0l436 715l-414 719h266l283 -521l252 521h268l-401 -693l428 -741h-271l-292 545l-287 -545h-268z" />
<glyph unicode="Y" horiz-adv-x="1026" d="M-27 1434h246l297 -576l295 576h248l-428 -791v-643h-232v643z" />
<glyph unicode="Z" horiz-adv-x="958" d="M14 0l557 1204h-477v230h858l-555 -1205h477v-229h-860z" />
<glyph unicode="[" horiz-adv-x="589" d="M119 -279v1815h452v-197h-247v-1419h247v-199h-452z" />
<glyph unicode="\" horiz-adv-x="970" d="M55 1434h244l641 -1608h-246z" />
<glyph unicode="]" horiz-adv-x="589" d="M18 -80h248v1419h-248v197h453v-1815h-453v199z" />
<glyph unicode="^" horiz-adv-x="899" d="M86 844v274l363 436l362 -436v-274l-362 436z" />
<glyph unicode="_" horiz-adv-x="983" d="M-2 -74h987v-188h-987v188z" />
<glyph unicode="`" horiz-adv-x="534" d="M102 1331v193l330 -189v-131z" />
<glyph unicode="a" horiz-adv-x="872" d="M33 283q0 106 54 175.5t131 110.5t162 57.5t144 18.5q-4 104 -36.5 146.5t-118.5 42.5q-59 0 -115.5 -18.5t-126.5 -63.5l-18 188q82 47 161.5 71.5t161.5 24.5q74 0 133.5 -23.5t101.5 -74.5t64.5 -134t22.5 -202v-254q0 -57 3 -92t11 -54.5t22.5 -25.5t36.5 -6h29 l-18 -190h-88q-68 0 -118 33.5t-75 92.5q-45 -59 -118.5 -92.5t-151.5 -33.5q-53 0 -99.5 21.5t-80 60t-54 95t-20.5 126.5zM268 293q0 -70 27 -101.5t90 -31.5q25 0 66 23.5t75 68.5v235q-41 -4 -86 -16t-84 -35.5t-63.5 -58.5t-24.5 -84z" />
<glyph unicode="b" horiz-adv-x="1009" d="M102 0v1536h226v-588q41 47 84 67.5t114 20.5q106 0 188.5 -43t137.5 -115.5t83 -168t28 -201.5q0 -109 -28 -205t-82 -168t-136 -113.5t-191 -41.5q-74 0 -120 25.5t-93 74.5v-80h-211zM317 508q0 -160 44.5 -247t150.5 -87q53 0 94 24.5t68.5 69.5t42 106.5t14.5 133.5 q0 147 -56.5 239.5t-162.5 92.5t-150.5 -88t-44.5 -244z" />
<glyph unicode="c" horiz-adv-x="788" d="M49 508q0 109 26.5 205t81 167.5t134.5 113.5t186 42t163.5 -21.5t100.5 -49.5l-18 -201q-55 37 -109.5 56.5t-117.5 19.5q-102 0 -158.5 -90.5t-56.5 -241.5q0 -150 56 -242t159 -92q63 0 117.5 19.5t109.5 56.5l18 -195q-43 -31 -100.5 -53t-163.5 -22t-186 43 t-134.5 114.5t-81 167.5t-26.5 203z" />
<glyph unicode="d" horiz-adv-x="1007" d="M47 508q0 106 27.5 201.5t83 168t136.5 115.5t189 43q68 0 113 -20.5t86 -67.5v588h225v-1536h-215v80q-47 -49 -92 -74.5t-117 -25.5q-109 0 -190.5 41.5t-136 113.5t-82 168t-27.5 205zM276 508q0 -72 15.5 -133.5t43 -106.5t68.5 -69.5t95 -24.5q106 0 150 86t44 246 q0 156 -44 245t-150 89q-53 0 -94.5 -24.5t-69 -69t-43 -104.5t-15.5 -134z" />
<glyph unicode="e" horiz-adv-x="909" d="M49 510q0 106 27.5 201.5t81 167t132.5 114.5t181 43q84 0 154.5 -30.5t123 -87t82 -138.5t29.5 -182q0 -63 -14 -127h-563q8 -82 33.5 -138.5t61.5 -92t78 -51t83 -15.5q31 0 67.5 6t73.5 16.5t71.5 23.5t61.5 30l8 -193q-51 -29 -125.5 -53t-169.5 -24q-121 0 -210 43 t-148 114.5t-89 167.5t-30 205zM287 629h344q0 39 -7.5 77.5t-25.5 67.5t-47 47.5t-72 18.5q-82 0 -129 -58.5t-63 -152.5z" />
<glyph unicode="f" horiz-adv-x="600" d="M31 829l20 189h103v246q0 53 13 102t38.5 87t65.5 60.5t96 22.5q43 0 71.5 -1t50 -4t39 -6t39.5 -5l-18 -195q-29 10 -55.5 11t-36.5 1q-25 0 -39.5 -8t-23.5 -28.5t-12 -56.5t-3 -93v-133h190v-189h-190v-829h-225v829h-123z" />
<glyph unicode="g" horiz-adv-x="884" d="M43 -209q0 63 39 124.5t104 102.5q-35 29 -56 65t-21 77q0 86 86 143q-63 61 -98.5 147.5t-35.5 182.5q0 82 24 155.5t69 129t111.5 87t152.5 31.5q121 0 198 -65q27 18 76 33.5t111 15.5h61l-14 -150h-82q-18 0 -43 -6q23 -53 36 -111.5t13 -117.5q0 -80 -23.5 -152.5 t-68.5 -128t-111.5 -88.5t-152.5 -33q-45 0 -90 13q-16 -16 -17 -41q0 -39 54.5 -56.5t158.5 -35.5q47 -8 108.5 -23.5t117 -48.5t93.5 -87t38 -140q0 -72 -28 -131.5t-82 -102.5t-132 -67.5t-178 -24.5q-111 0 -189.5 26.5t-129 69.5t-75 97.5t-24.5 109.5zM227 -190 q0 -68 57.5 -111t164.5 -43q49 0 91 11t73.5 30.5t50 46.5t18.5 59q0 33 -21.5 56.5t-55.5 40t-75.5 25t-80.5 12.5q-27 4 -48.5 12t-52.5 12q-47 -18 -84 -56t-37 -95zM260 633q0 -104 40 -165.5t118 -61.5t116.5 63t38.5 166q0 104 -38.5 164.5t-116.5 60.5t-118 -61.5 t-40 -165.5z" />
<glyph unicode="h" d="M98 0v1536h226v-590q39 41 84 65.5t92 24.5q104 0 176 -35.5t117 -100t65.5 -155t20.5 -198.5v-547h-226v547q0 154 -40 223.5t-132 69.5q-53 0 -91 -26t-66 -75v-739h-226z" />
<glyph unicode="i" horiz-adv-x="423" d="M98 0v1018h226v-1018h-226zM98 1194v240h226v-240h-226z" />
<glyph unicode="j" horiz-adv-x="423" d="M-4 -307q35 2 55.5 7t30.5 22.5t13 51t3 95.5v1149h226v-1243q0 -123 -51.5 -192.5t-174.5 -74.5l-82 -4zM98 1194v240h226v-240h-226z" />
<glyph unicode="k" horiz-adv-x="856" d="M98 0v1536h226v-948l274 430h254l-320 -483l318 -535h-254l-272 471v-471h-226z" />
<glyph unicode="l" horiz-adv-x="466" d="M100 240v1296h226v-1192q0 -61 4 -97t15 -52.5t31.5 -20.5t51.5 -4l-20 -190h-82q-59 0 -101.5 21.5t-70 56t-41 81.5t-13.5 101z" />
<glyph unicode="m" horiz-adv-x="1523" d="M102 0v1018h187l12 -88q35 49 93.5 77.5t127.5 28.5q78 0 149.5 -37.5t116.5 -132.5q10 31 34 61.5t61 55.5t86 39t108 14q180 0 267.5 -128t87.5 -345v-563h-226v563q0 141 -34.5 209t-124.5 68q-51 0 -84 -19.5t-51.5 -52.5t-25.5 -73t-7 -79v-616h-224v551 q0 86 -9 142.5t-30.5 88t-54.5 45t-80 13.5q-96 0 -153 -99v-741h-226z" />
<glyph unicode="n" d="M102 0v1018h215v-76q35 47 84.5 70.5t100.5 23.5q104 0 176 -34.5t116 -99t64.5 -154t20.5 -197.5v-551h-226v551q0 150 -39 219.5t-129 69.5q-53 0 -91 -26t-66 -75v-739h-226z" />
<glyph unicode="o" horiz-adv-x="993" d="M49 508q0 106 30 202.5t87 169t141 114.5t191 42q106 0 189 -42t140.5 -114.5t87 -169t29.5 -202.5q0 -109 -29.5 -205t-87 -168t-140.5 -113.5t-189 -41.5t-190.5 41.5t-141.5 113.5t-87 168t-30 205zM281 508q0 -154 56 -244t161 -90q104 0 159.5 90t55.5 244 q0 152 -55.5 242t-159.5 90t-160.5 -90.5t-56.5 -241.5z" />
<glyph unicode="p" horiz-adv-x="1007" d="M98 -496v1514h199l18 -86q43 49 91.5 76.5t115.5 27.5q106 0 188.5 -43t137.5 -115.5t84 -168t29 -201.5q0 -109 -29 -205t-84 -168t-137.5 -113.5t-188.5 -41.5q-70 0 -112.5 23.5t-85.5 70.5v-570h-226zM313 508q0 -160 44 -247t153 -87q51 0 92 24.5t69.5 69.5 t43 106.5t14.5 133.5q0 74 -14.5 134t-43 104.5t-69.5 69t-92 24.5q-109 0 -153 -88t-44 -244z" />
<glyph unicode="q" horiz-adv-x="1007" d="M98 508q0 106 28 201.5t83 168t137 115.5t191 43q70 0 116.5 -27.5t89.5 -76.5l19 86h199v-1514h-226v570q-45 -47 -86.5 -70.5t-111.5 -23.5q-106 0 -188.5 41.5t-137.5 113.5t-84 168t-29 205zM330 508q0 -72 14 -133.5t43 -106.5t69 -69.5t93 -24.5q109 0 152.5 87 t43.5 247q0 156 -43.5 244t-152.5 88q-53 0 -93 -24.5t-69 -69t-43 -104.5t-14 -134z" />
<glyph unicode="r" horiz-adv-x="602" d="M100 0v1018h209l6 -127q29 61 91.5 105t136.5 44h65l-43 -227h-84q-55 0 -97 -34t-60 -77v-702h-224z" />
<glyph unicode="s" horiz-adv-x="749" d="M61 59l19 205q20 -16 53 -34.5t70 -34t75.5 -24.5t73.5 -9q80 0 104.5 34.5t24.5 82.5q0 35 -12 58t-33.5 40.5t-51.5 30t-62 22.5q-47 14 -92.5 33.5t-80 50.5t-57 80t-22.5 123q0 55 15 111.5t52 102.5t99.5 75.5t154.5 29.5q43 0 86 -6t81 -17.5t67.5 -24.5t48.5 -25 l-21 -201q-33 37 -102.5 69.5t-140.5 32.5q-55 0 -99.5 -26.5t-44.5 -92.5q0 -37 15.5 -61.5t43 -40.5t64.5 -27.5t78 -23.5q45 -12 89 -33.5t77 -56.5t53.5 -89.5t20.5 -131.5q0 -49 -11.5 -101.5t-47.5 -97.5t-104.5 -73.5t-183.5 -28.5q-104 0 -181 25.5t-118 53.5z" />
<glyph unicode="t" horiz-adv-x="612" d="M33 829l20 189h103v231l225 25v-256h190v-189h-190v-483q0 -63 3 -98t16.5 -52.5t39 -21.5t70.5 -4h61l-20 -190h-158q-63 0 -108 22.5t-74 59t-42 82.5t-13 96v589h-123z" />
<glyph unicode="u" d="M94 457v561h225v-545q0 -150 40 -222.5t133 -72.5q53 0 92 23.5t69 70.5v746h226v-1018h-211l-4 76q-37 -43 -89.5 -69.5t-99.5 -26.5q-106 0 -179 33.5t-118 95t-64.5 149.5t-19.5 199z" />
<glyph unicode="v" horiz-adv-x="878" d="M6 1018h219l213 -737l215 737h217l-338 -1018h-188z" />
<glyph unicode="w" horiz-adv-x="1280" d="M16 1018h217l150 -742l164 717h184l162 -717l151 742h218l-256 -1018h-185l-182 690l-180 -690h-185z" />
<glyph unicode="x" horiz-adv-x="868" d="M14 0l283 508l-283 510h273l151 -324l144 324h270l-287 -504l285 -514h-270l-154 322l-139 -322h-273z" />
<glyph unicode="y" horiz-adv-x="944" d="M-4 1018h252l219 -686l227 686h252l-555 -1514h-223l194 557z" />
<glyph unicode="z" horiz-adv-x="831" d="M37 0l381 817h-363v201h742l-381 -817h362v-201h-741z" />
<glyph unicode="{" horiz-adv-x="561" d="M20 629q41 25 69 52.5t45.5 62t25.5 77.5t8 103q0 70 -6 147.5t-6 136.5q0 78 19.5 138.5t64.5 101.5t118.5 63.5t182.5 24.5v-199q-78 0 -120 -12t-62.5 -45t-23.5 -93.5t-3 -156.5q0 -41 3 -85t3 -85q0 -66 -15.5 -124t-68.5 -107q53 -47 68.5 -98.5t15.5 -116.5 q0 -41 -3 -87t-3 -98q0 -96 3 -156.5t23.5 -94t62.5 -46t120 -12.5v-199q-106 2 -179 22.5t-119 61.5t-66.5 102.5t-20.5 141.5q0 59 6 137t6 150q0 109 -31 174t-117 119z" />
<glyph unicode="|" horiz-adv-x="391" d="M106 -430v1966h179v-1966h-179z" />
<glyph unicode="}" horiz-adv-x="561" d="M20 -80q76 0 118 12.5t62.5 46t23.5 94t3 156.5q0 51 -2 97.5t-2 87.5q0 66 15.5 117t66.5 98q-51 49 -66.5 107.5t-15.5 123.5q0 41 2 85t2 85q0 96 -3 156.5t-23.5 93.5t-62.5 45t-118 12v199q109 -2 182.5 -24.5t119 -63.5t65 -101.5t19.5 -138.5q0 -59 -6.5 -137 t-6.5 -147q0 -59 8.5 -102.5t25.5 -78t45 -62.5t69 -52q-43 -27 -72 -55.5t-46 -63.5t-23.5 -78t-6.5 -96q0 -72 6.5 -150t6.5 -137q0 -162 -87.5 -242.5t-298.5 -85.5v199z" />
<glyph unicode="~" horiz-adv-x="813" d="M129 391q4 51 25.5 89t53.5 62.5t70.5 37t75.5 12.5q41 0 68 -14.5t48.5 -31t41.5 -30.5t45 -14q41 0 67.5 30.5t30.5 67.5l144 -35q-10 -80 -64.5 -141.5t-146.5 -61.5q-37 0 -66.5 14.5t-56.5 32t-50.5 32t-47.5 14.5q-39 0 -57.5 -32t-22.5 -67z" />
<glyph unicode="&#xa1;" horiz-adv-x="444" d="M109 -512h223l-33 1126h-154zM109 795h227v229h-227v-229z" />
<glyph unicode="&#xa2;" horiz-adv-x="833" d="M59 711q0 100 23.5 189t68 159.5t109 118t148.5 61.5l-29 293h192l-28 -289q78 -6 124 -24.5t85 -47.5l-19 -198q-113 78 -219 78q-55 0 -97 -26t-70 -71t-42 -106.5t-14 -134.5q0 -152 55 -245t166 -93q109 0 221 78l19 -199q-39 -27 -86.5 -47.5t-124.5 -26.5l30 -246 h-192l29 250q-86 14 -152 59.5t-109 115t-65.5 159.5t-22.5 193z" />
<glyph unicode="&#xa3;" horiz-adv-x="921" d="M45 0q104 143 149.5 291.5t59.5 333.5h-156l45 200h121v205q0 78 11.5 152.5t46 134t98 96.5t166.5 37q100 0 184 -46t107 -140l-140 -123q-20 61 -46.5 87.5t-82.5 26.5q-45 0 -70.5 -16t-38 -50t-14.5 -84t-2 -118v-162h324l-43 -200h-291q-2 -63 -6 -111.5t-11 -91.5 t-18.5 -89t-29.5 -104h405v-229h-768z" />
<glyph unicode="&#xa4;" horiz-adv-x="1071" d="M76 131l127 203q-55 78 -85 174t-30 205t29.5 205t87.5 174l-129 202l112 86l131 -204q88 63 216 63q127 0 217 -65l131 206l112 -86l-129 -204q55 -78 85 -174.5t30 -202.5q0 -109 -30.5 -206t-86.5 -175l131 -201l-112 -86l-131 205q-88 -63 -217 -64q-129 0 -218 64 l-129 -205zM319 713q0 -74 14.5 -137.5t42 -109.5t67.5 -71.5t92 -25.5q51 0 91 25.5t67.5 71.5t42 109.5t14.5 137.5t-14.5 137t-42 109.5t-67.5 72t-91 25.5t-91.5 -25.5t-68 -72t-42 -110t-14.5 -136.5z" />
<glyph unicode="&#xa5;" horiz-adv-x="1241" d="M43 1434h242l336 -586l335 586h242l-426 -758h254l-47 -133h-242v-123h289l-47 -133h-242v-287h-233v287h-287l45 133h242v123h-287l43 133h209z" />
<glyph unicode="&#xa6;" horiz-adv-x="393" d="M119 373h155v-803h-155v803zM119 596v940h155v-940h-155z" />
<glyph unicode="&#xa7;" horiz-adv-x="804" d="M66 678q0 37 5 81t20 85t44 77.5t76 59.5q-35 45 -53.5 97t-18.5 118q0 59 14.5 119.5t49.5 110t93 80t148 30.5q35 0 74 -7t73 -19.5t61.5 -28t41.5 -29.5l-14 -188q-49 41 -112.5 69.5t-114.5 28.5q-57 0 -107.5 -33t-50.5 -104q0 -59 32.5 -93t82 -61t107.5 -51.5 t107.5 -65.5t82 -105.5t32.5 -168.5q0 -37 -5 -79t-21.5 -82t-46 -75.5t-76.5 -60.5q35 -47 54.5 -99.5t19.5 -123.5q0 -55 -14.5 -114.5t-48.5 -109t-93 -80t-148 -30.5q-37 0 -74.5 7t-72.5 18.5t-62.5 27t-41.5 31.5l16 188q49 -41 112.5 -69.5t114.5 -28.5q29 0 56.5 7 t50 22.5t36 41t13.5 64.5q0 61 -33 97t-82 61.5t-106.5 49.5t-106.5 63.5t-81.5 103t-32.5 168.5zM240 717q0 -49 23.5 -87t57 -65.5t72.5 -46t70 -31.5q12 2 30.5 17.5t36 37t28.5 48t11 55.5q0 53 -22.5 89t-56 59.5t-73.5 37t-75 23.5q-31 0 -66.5 -34t-35.5 -103z" />
<glyph unicode="&#xa8;" horiz-adv-x="743" d="M154 1221v213h176v-213h-176zM414 1221v213h176v-213h-176z" />
<glyph unicode="&#xa9;" horiz-adv-x="1232" d="M70 748q0 152 41 275.5t113.5 211.5t173 136t218.5 48q119 0 219.5 -48t173 -136t113.5 -212t41 -275q0 -152 -41 -276t-113.5 -212t-173 -136t-219.5 -48t-219 48t-172.5 136t-113.5 212t-41 276zM211 748q0 -117 24.5 -217.5t75.5 -173t127 -114.5t178 -40 q102 -2 179 40t127.5 114.5t76 173t25.5 217.5t-25.5 216t-76 172.5t-127.5 114.5t-179 41t-178 -41t-127 -114.5t-75.5 -173t-24.5 -215.5zM342 743q0 80 21.5 144.5t59.5 110.5t91 72t117 26q49 0 97 -13.5t85 -31.5l-18 -158q-41 18 -80 31.5t-84 13.5q-59 0 -92 -53.5 t-33 -141.5q0 -86 32.5 -140t92.5 -54q45 0 84 13t80 36l18 -156q-37 -23 -86 -36t-96 -13q-63 0 -116.5 24.5t-91.5 71t-59.5 111t-21.5 143.5z" />
<glyph unicode="&#xaa;" horiz-adv-x="628" d="M53 1065q0 66 34 106.5t80 64.5t92 33t71 13q-4 8 -6 18.5t-8.5 17.5t-19.5 12t-38 5q-41 0 -74.5 -11t-77.5 -24l-10 154q74 25 125 33t84 8q90 0 152.5 -47t62.5 -137v-203q0 -39 8.5 -49t18.5 -10h28l-6 -160h-104q-23 0 -54.5 15.5t-48.5 31.5q-10 -12 -29.5 -21.5 t-42 -14.5t-45 -8t-38.5 -3q-41 0 -69.5 16.5t-47 41t-28 56t-9.5 62.5zM254 1081q0 -55 49 -55q16 0 29 4v127q-39 0 -58.5 -20.5t-19.5 -55.5z" />
<glyph unicode="&#xab;" horiz-adv-x="1071" d="M20 582l269 422h268l-268 -422l268 -422h-268zM479 582l266 422h271l-271 -422l271 -422h-271z" />
<glyph unicode="&#xac;" horiz-adv-x="1001" d="M86 662v169h811v-522h-174v353h-637z" />
<glyph unicode="&#xad;" horiz-adv-x="784" d="M119 471v193h547v-193h-547z" />
<glyph unicode="&#xae;" horiz-adv-x="1232" d="M70 748q0 152 41 275.5t113.5 211.5t173 136t218.5 48q119 0 219.5 -48t173 -136t113.5 -212t41 -275q0 -152 -41 -276t-113.5 -212t-173 -136t-219.5 -48t-219 48t-172.5 136t-113.5 212t-41 276zM213 748q0 -117 24.5 -216.5t76 -172t126 -114.5t176.5 -42t178 42 t126.5 114.5t75 172t24.5 216.5t-24.5 216t-75 171.5t-126.5 113.5t-178 43q-102 -2 -176.5 -43t-126 -113.5t-76 -172t-24.5 -215.5zM393 420v678h225q45 0 85 -10.5t68 -36t44 -67.5t16 -105q0 -59 -26.5 -105.5t-54.5 -73.5l131 -280h-172l-109 233h-45v-233h-162z M555 803h37q49 0 62.5 22.5t13.5 57.5t-12.5 56.5t-59.5 21.5h-41v-158z" />
<glyph unicode="&#xb0;" horiz-adv-x="573" d="M53 1266q0 57 15.5 108t46 89t73.5 60.5t99 22.5q55 0 98 -22.5t73.5 -60.5t46 -89t15.5 -108t-15.5 -108.5t-46 -89.5t-73.5 -59.5t-98 -21.5t-98.5 21.5t-74 59.5t-46 89t-15.5 109zM176 1266q0 -82 30 -136.5t81 -54.5q53 0 80.5 55.5t27.5 135.5t-27.5 136t-80.5 56 q-51 0 -81 -56t-30 -136z" />
<glyph unicode="&#xb1;" horiz-adv-x="819" d="M84 70v174h651v-174h-651zM84 645v176h240v269h172v-269h239v-176h-239v-272h-172v272h-240z" />
<glyph unicode="&#xb2;" horiz-adv-x="651" d="M78 655q96 156 151.5 254.5t82 158.5t32.5 91t6 51q0 41 -12 68t-47 27t-62.5 -17.5t-48 -41t-34 -46t-17.5 -33.5l-20 166q23 41 78 77t135 36q55 0 93 -19.5t59.5 -50t30.5 -66.5t9 -69q0 -74 -34 -168t-103 -233h160v-185h-459z" />
<glyph unicode="&#xb3;" horiz-adv-x="657" d="M90 700l43 170q2 -10 16.5 -18t35 -15.5t43 -11.5t42.5 -4q57 0 85 31t28 68q0 35 -19.5 61.5t-54.5 26.5h-119l13 137h61q53 0 68.5 26.5t15.5 49.5q0 41 -27.5 60t-66.5 19q-25 0 -50.5 -7t-43.5 -23l-25 125q25 23 69 37t97 14q57 0 98 -18.5t68 -48t39 -68.5t12 -80 q0 -57 -17.5 -96t-33.5 -50q41 -23 59.5 -68.5t18.5 -107.5q0 -72 -23.5 -123t-60.5 -83.5t-83 -48t-93 -15.5q-35 0 -68 7t-59.5 16.5t-45 19.5t-22.5 18z" />
<glyph unicode="&#xb4;" horiz-adv-x="534" d="M102 1204v131l330 189v-193z" />
<glyph unicode="&#xb5;" horiz-adv-x="1073" d="M115 -496v1514h227v-545q0 -147 40 -222t128 -75q102 0 162 96v746h225v-668q0 -111 15.5 -145.5t62.5 -34.5h26l-18 -190h-84q-133 0 -190 120q-35 -51 -95.5 -84.5t-119.5 -33.5q-47 0 -85 9t-67 36v-523h-227z" />
<glyph unicode="&#xb6;" horiz-adv-x="1101" d="M57 958q0 88 31 173.5t94.5 153t157.5 108.5t221 41h459v-195h-121v-1239h-162v1239h-100v-1239h-129v477q-111 8 -196 52t-141 112t-85 149.5t-29 167.5z" />
<glyph unicode="&#xb7;" horiz-adv-x="444" d="M113 436v266h219v-266h-219z" />
<glyph unicode="&#xb8;" horiz-adv-x="532" d="M223 -395l123 270l191 16l-177 -272z" />
<glyph unicode="&#xb9;" horiz-adv-x="481" d="M94 1165v144q8 0 25.5 11t34 28.5t30 39t13.5 42.5h139v-775h-174v521q-12 -4 -26.5 -6.5t-41.5 -4.5z" />
<glyph unicode="&#xba;" horiz-adv-x="673" d="M53 1192q0 59 19.5 113.5t55.5 96.5t89 67.5t121 25.5t120 -25.5t89 -67.5t55.5 -96.5t18.5 -113.5t-18.5 -113.5t-55.5 -96.5t-89 -67.5t-120 -25.5t-121 25.5t-89 67.5t-55.5 96.5t-19.5 113.5zM244 1192q0 -63 25.5 -109.5t68.5 -46.5t66.5 46t23.5 110 q0 63 -23.5 109.5t-66.5 46.5t-68.5 -46.5t-25.5 -109.5z" />
<glyph unicode="&#xbb;" horiz-adv-x="1069" d="M55 160l269 422l-269 422h269l268 -422l-268 -422h-269zM514 160l266 422l-266 422h266l271 -422l-271 -422h-266z" />
<glyph unicode="&#xbc;" horiz-adv-x="1521" d="M176 1165v144q8 0 25.5 11t34 28.5t30 39t13.5 42.5h139v-775h-174v521q-12 -4 -26.5 -6.5t-41.5 -4.5zM207 -174l639 1608h243l-639 -1608h-243zM778 213l330 564h151v-426h86v-138h-86v-211h-172v211h-309zM995 351h92v176z" />
<glyph unicode="&#xbd;" horiz-adv-x="1515" d="M176 1165v144q8 0 25.5 11t34 28.5t30 39t13.5 42.5h139v-775h-174v521q-12 -4 -26.5 -6.5t-41.5 -4.5zM207 -174l639 1608h243l-639 -1608h-243zM881 2q96 156 151.5 254.5t82 158.5t32.5 91t6 51q0 41 -12 68t-47 27t-62.5 -17.5t-48 -41t-34 -46t-17.5 -33.5l-20 166 q23 41 78 77t135 36q55 0 93 -19.5t59.5 -50t30.5 -66.5t9 -69q0 -74 -34 -168t-103 -233h160v-185h-459z" />
<glyph unicode="&#xbe;" horiz-adv-x="1832" d="M176 700l43 170q2 -10 16.5 -18t35 -15.5t43 -11.5t42.5 -4q57 0 85 31t28 68q0 35 -19.5 61.5t-54.5 26.5h-119l13 137h61q53 0 68.5 26.5t15.5 49.5q0 41 -27.5 60t-66.5 19q-25 0 -50.5 -7t-43.5 -23l-25 125q25 23 69 37t97 14q57 0 98 -18.5t68 -48t39 -68.5t12 -80 q0 -57 -17.5 -96t-33.5 -50q41 -23 59.5 -68.5t18.5 -107.5q0 -72 -23.5 -123t-60.5 -83.5t-83 -48t-93 -15.5q-35 0 -68 7t-59.5 16.5t-45 19.5t-22.5 18zM514 -174l639 1608h243l-639 -1608h-243zM1090 213l330 564h151v-426h86v-138h-86v-211h-172v211h-309zM1307 351h92 v176z" />
<glyph unicode="&#xbf;" horiz-adv-x="780" d="M52 -125q0 94 42 178t93 167t93 171t42 189v34h153q4 -59 4.5 -78.5t0.5 -25.5q0 -94 -34 -172t-74 -150.5t-73.5 -147.5t-33.5 -163q0 -109 49 -159t123 -50t128 43t89 92l49 -172q-45 -72 -121 -107.5t-160 -35.5q-94 0 -164.5 37t-115.5 94t-67.5 126t-22.5 130z M285 795v229h225v-229h-225z" />
<glyph unicode="&#xc0;" horiz-adv-x="1099" d="M2 0l438 1434h219l439 -1434h-242l-104 358h-404l-104 -358h-242zM385 1747v193l330 -189v-131zM430 588h242l-123 477z" />
<glyph unicode="&#xc1;" horiz-adv-x="1099" d="M2 0l438 1434h219l439 -1434h-242l-104 358h-404l-104 -358h-242zM385 1620v131l330 189v-193zM430 588h242l-123 477z" />
<glyph unicode="&#xc2;" horiz-adv-x="1099" d="M2 0l438 1434h219l439 -1434h-242l-104 358h-404l-104 -358h-242zM291 1626v127l258 195l260 -195v-127l-260 152zM430 588h242l-123 477z" />
<glyph unicode="&#xc3;" horiz-adv-x="1099" d="M2 0l438 1434h219l439 -1434h-242l-104 358h-404l-104 -358h-242zM213 1671q4 51 25.5 89t53.5 63t70.5 37t75.5 12q41 0 68 -14.5t48.5 -30.5t41.5 -30.5t45 -14.5q41 0 67.5 30.5t30.5 67.5l144 -32q-10 -82 -64.5 -143.5t-146.5 -61.5q-37 0 -66.5 14t-56.5 31.5 t-50.5 32t-47.5 14.5q-39 0 -57.5 -32t-22.5 -66zM430 588h242l-123 477z" />
<glyph unicode="&#xc4;" horiz-adv-x="1099" d="M2 0l438 1434h219l439 -1434h-242l-104 358h-404l-104 -358h-242zM332 1637v213h176v-213h-176zM430 588h242l-123 477zM592 1637v213h176v-213h-176z" />
<glyph unicode="&#xc5;" horiz-adv-x="1099" d="M2 0l438 1434h219l439 -1434h-242l-104 358h-404l-104 -358h-242zM367 1778q0 74 49 129t133 55q86 0 135 -55t49 -129t-49 -128t-135 -54q-84 0 -133 54t-49 128zM430 588h242l-123 477zM477 1778q0 -45 19.5 -70.5t52.5 -25.5q35 0 54.5 25.5t19.5 70.5 q0 41 -20.5 68.5t-53.5 27.5q-31 0 -51.5 -27.5t-20.5 -68.5z" />
<glyph unicode="&#xc6;" horiz-adv-x="1525" d="M-23 0l603 1434h872v-230h-518v-342h397v-229h-397v-404h532v-229h-768v352h-336l-141 -352h-244zM467 586h231v612z" />
<glyph unicode="&#xc7;" horiz-adv-x="1073" d="M61 717q0 170 45.5 307t126 234.5t192.5 150.5t243 53q98 0 191 -23.5t161 -60.5l-27 -227q-78 33 -152.5 58.5t-172.5 25.5q-88 0 -153.5 -39t-110 -108.5t-67 -165t-22.5 -205.5q0 -111 22.5 -206t67 -165t110 -108.5t153.5 -38.5q98 0 172.5 24.5t152.5 59.5l27 -228 q-68 -39 -161 -61.5t-191 -22.5q-131 0 -243 53.5t-192.5 150.5t-126 234.5t-45.5 307.5zM379 -395l123 270l191 16l-177 -272z" />
<glyph unicode="&#xc8;" horiz-adv-x="962" d="M135 0v1434h793v-230h-555v-342h430v-229h-430v-404h573v-229h-811zM317 1747v193l330 -189v-131z" />
<glyph unicode="&#xc9;" horiz-adv-x="962" d="M135 0v1434h793v-230h-555v-342h430v-229h-430v-404h573v-229h-811zM317 1620v131l330 189v-193z" />
<glyph unicode="&#xca;" horiz-adv-x="962" d="M135 0v1434h793v-230h-555v-342h430v-229h-430v-404h573v-229h-811zM221 1626v127l258 195l260 -195v-127l-260 152z" />
<glyph unicode="&#xcb;" horiz-adv-x="962" d="M135 0v1434h793v-230h-555v-342h430v-229h-430v-404h573v-229h-811zM263 1637v213h176v-213h-176zM523 1637v213h176v-213h-176z" />
<glyph unicode="&#xcc;" horiz-adv-x="495" d="M86 1747v193l330 -189v-131zM131 0v1434h234v-1434h-234z" />
<glyph unicode="&#xcd;" horiz-adv-x="495" d="M86 1620v131l330 189v-193zM131 0v1434h234v-1434h-234z" />
<glyph unicode="&#xce;" horiz-adv-x="495" d="M-8 1626v127l258 195l260 -195v-127l-260 152zM131 0v1434h234v-1434h-234z" />
<glyph unicode="&#xcf;" horiz-adv-x="495" d="M33 1637v213h176v-213h-176zM131 0v1434h234v-1434h-234zM293 1637v213h176v-213h-176z" />
<glyph unicode="&#xd0;" horiz-adv-x="1288" d="M-8 621v174h162v639h462q131 0 243 -49.5t193 -141.5t127 -225t46 -301q0 -170 -46 -303t-127 -225.5t-192.5 -140.5t-243.5 -48h-462v621h-162zM387 229h229q176 0 264.5 131.5t88.5 356.5t-88 357t-265 132h-229v-411h211v-174h-211v-392z" />
<glyph unicode="&#xd1;" horiz-adv-x="1247" d="M135 0v1434h227l517 -971v971h233v-1434h-190l-555 1030v-1030h-232zM287 1671q4 51 25.5 89t53.5 63t70.5 37t75.5 12q41 0 68 -14.5t48.5 -30.5t41.5 -30.5t45 -14.5q41 0 67.5 30.5t30.5 67.5l144 -32q-10 -82 -64.5 -143.5t-146.5 -61.5q-37 0 -66.5 14t-56.5 31.5 t-50.5 32t-47.5 14.5q-39 0 -57.5 -32t-22.5 -66z" />
<glyph unicode="&#xd2;" horiz-adv-x="1337" d="M61 717q0 170 45.5 307t127 234.5t192.5 150.5t244 53q131 0 242.5 -53t192.5 -150.5t126 -234.5t45 -307t-45 -307.5t-126 -234.5t-192.5 -150.5t-242.5 -53.5q-133 0 -244 53.5t-192.5 150.5t-127 234.5t-45.5 307.5zM315 717q0 -111 22.5 -206t67 -165t111 -108.5 t154.5 -38.5t154.5 38.5t110.5 108.5t66.5 165t22.5 206t-22.5 206t-66.5 164.5t-110.5 108.5t-154.5 39t-154.5 -39t-111 -108.5t-67 -165t-22.5 -205.5zM503 1747v193l330 -189v-131z" />
<glyph unicode="&#xd3;" horiz-adv-x="1337" d="M61 717q0 170 45.5 307t127 234.5t192.5 150.5t244 53q131 0 242.5 -53t192.5 -150.5t126 -234.5t45 -307t-45 -307.5t-126 -234.5t-192.5 -150.5t-242.5 -53.5q-133 0 -244 53.5t-192.5 150.5t-127 234.5t-45.5 307.5zM315 717q0 -111 22.5 -206t67 -165t111 -108.5 t154.5 -38.5t154.5 38.5t110.5 108.5t66.5 165t22.5 206t-22.5 206t-66.5 164.5t-110.5 108.5t-154.5 39t-154.5 -39t-111 -108.5t-67 -165t-22.5 -205.5zM503 1620v131l330 189v-193z" />
<glyph unicode="&#xd4;" horiz-adv-x="1337" d="M61 717q0 170 45.5 307t127 234.5t192.5 150.5t244 53q131 0 242.5 -53t192.5 -150.5t126 -234.5t45 -307t-45 -307.5t-126 -234.5t-192.5 -150.5t-242.5 -53.5q-133 0 -244 53.5t-192.5 150.5t-127 234.5t-45.5 307.5zM315 717q0 -111 22.5 -206t67 -165t111 -108.5 t154.5 -38.5t154.5 38.5t110.5 108.5t66.5 165t22.5 206t-22.5 206t-66.5 164.5t-110.5 108.5t-154.5 39t-154.5 -39t-111 -108.5t-67 -165t-22.5 -205.5zM409 1626v127l258 195l260 -195v-127l-260 152z" />
<glyph unicode="&#xd5;" horiz-adv-x="1337" d="M61 717q0 170 45.5 307t127 234.5t192.5 150.5t244 53q131 0 242.5 -53t192.5 -150.5t126 -234.5t45 -307t-45 -307.5t-126 -234.5t-192.5 -150.5t-242.5 -53.5q-133 0 -244 53.5t-192.5 150.5t-127 234.5t-45.5 307.5zM315 717q0 -111 22.5 -206t67 -165t111 -108.5 t154.5 -38.5t154.5 38.5t110.5 108.5t66.5 165t22.5 206t-22.5 206t-66.5 164.5t-110.5 108.5t-154.5 39t-154.5 -39t-111 -108.5t-67 -165t-22.5 -205.5zM336 1671q4 51 25.5 89t53.5 63t70.5 37t75.5 12q41 0 68 -14.5t48.5 -30.5t41.5 -30.5t45 -14.5q41 0 67.5 30.5 t30.5 67.5l144 -32q-10 -82 -64.5 -143.5t-146.5 -61.5q-37 0 -66.5 14t-56.5 31.5t-50.5 32t-47.5 14.5q-39 0 -57.5 -32t-22.5 -66z" />
<glyph unicode="&#xd6;" horiz-adv-x="1337" d="M61 717q0 170 45.5 307t127 234.5t192.5 150.5t244 53q131 0 242.5 -53t192.5 -150.5t126 -234.5t45 -307t-45 -307.5t-126 -234.5t-192.5 -150.5t-242.5 -53.5q-133 0 -244 53.5t-192.5 150.5t-127 234.5t-45.5 307.5zM315 717q0 -111 22.5 -206t67 -165t111 -108.5 t154.5 -38.5t154.5 38.5t110.5 108.5t66.5 165t22.5 206t-22.5 206t-66.5 164.5t-110.5 108.5t-154.5 39t-154.5 -39t-111 -108.5t-67 -165t-22.5 -205.5zM451 1637v213h176v-213h-176zM711 1637v213h176v-213h-176z" />
<glyph unicode="&#xd7;" horiz-adv-x="757" d="M80 338l186 229l-186 230l115 108l184 -229l184 229l113 -108l-184 -230l184 -229l-113 -109l-184 230l-184 -230z" />
<glyph unicode="&#xd8;" horiz-adv-x="1337" d="M61 717q0 170 45.5 307t127 234.5t192.5 150.5t244 53q74 0 142.5 -18.5t127.5 -54.5l43 77h246l-123 -198q80 -102 125 -240.5t45 -310.5q0 -170 -45 -307.5t-126 -233.5t-192.5 -149.5t-242.5 -53.5q-78 0 -149.5 18.5t-131.5 59.5l-63 -114h-244l145 233 q-78 104 -122 241.5t-44 305.5zM313 717q0 -92 14.5 -173t43.5 -159l438 807q-57 41 -139 41q-88 0 -154.5 -39t-112 -107.5t-68 -164t-22.5 -205.5zM520 244q55 -41 150 -41q88 0 153.5 39t110.5 107.5t67.5 163.5t22.5 206q0 92 -16.5 180t-44.5 158z" />
<glyph unicode="&#xd9;" horiz-adv-x="1263" d="M121 612v822h231v-732q0 -102 11.5 -193t42 -159.5t85 -109.5t140.5 -41t140 41t85 109.5t42 159.5t11 193v732h234v-822q0 -147 -31 -265t-94.5 -202t-159.5 -129t-227 -45q-129 0 -225.5 45t-160 129t-94 202t-30.5 265zM467 1747v193l330 -189v-131z" />
<glyph unicode="&#xda;" horiz-adv-x="1263" d="M121 612v822h231v-732q0 -102 11.5 -193t42 -159.5t85 -109.5t140.5 -41t140 41t85 109.5t42 159.5t11 193v732h234v-822q0 -147 -31 -265t-94.5 -202t-159.5 -129t-227 -45q-129 0 -225.5 45t-160 129t-94 202t-30.5 265zM467 1620v131l330 189v-193z" />
<glyph unicode="&#xdb;" horiz-adv-x="1263" d="M121 612v822h231v-732q0 -102 11.5 -193t42 -159.5t85 -109.5t140.5 -41t140 41t85 109.5t42 159.5t11 193v732h234v-822q0 -147 -31 -265t-94.5 -202t-159.5 -129t-227 -45q-129 0 -225.5 45t-160 129t-94 202t-30.5 265zM373 1626v127l258 195l260 -195v-127l-260 152z " />
<glyph unicode="&#xdc;" horiz-adv-x="1263" d="M121 612v822h231v-732q0 -102 11.5 -193t42 -159.5t85 -109.5t140.5 -41t140 41t85 109.5t42 159.5t11 193v732h234v-822q0 -147 -31 -265t-94.5 -202t-159.5 -129t-227 -45q-129 0 -225.5 45t-160 129t-94 202t-30.5 265zM414 1637v213h176v-213h-176zM674 1637v213h176 v-213h-176z" />
<glyph unicode="&#xdd;" horiz-adv-x="1026" d="M-27 1434h246l297 -576l295 576h248l-428 -791v-643h-232v643zM348 1620v131l330 189v-193z" />
<glyph unicode="&#xde;" horiz-adv-x="1054" d="M131 0v1434h231v-240h113q133 0 233.5 -15.5t168 -63.5t102.5 -137t35 -237q0 -150 -44 -247t-109.5 -153t-141.5 -78.5t-141 -22.5h-216v-240h-231zM362 465h187q123 0 177 62.5t54 209.5q0 66 -10 114t-36.5 79t-72 45t-114.5 14h-185v-524z" />
<glyph unicode="&#xdf;" horiz-adv-x="999" d="M33 829l18 189h105v133q0 90 29.5 161.5t78.5 121t112.5 76t131.5 26.5q63 0 125.5 -20.5t112 -65.5t80 -114.5t30.5 -170.5q0 -86 -20.5 -152.5t-44 -115.5t-44 -83t-20.5 -56q0 -29 36 -62.5t80 -84t79.5 -123t35.5 -179.5q0 -90 -31.5 -153.5t-85 -102.5t-124 -56 t-148.5 -17q-23 0 -50 2t-56 6v186q66 0 116 2t83.5 15.5t50 41t16.5 78.5q0 82 -38 141.5t-82 106.5t-82 90t-38 94q0 41 24 82t52.5 88.5t52 106.5t23.5 137q0 102 -43 141t-92 39q-125 0 -125 -198v-1418h-225v1108h-123z" />
<glyph unicode="&#xe0;" horiz-adv-x="876" d="M33 283q0 106 54 175.5t131 110.5t162 57.5t144 18.5q-4 104 -36.5 146.5t-118.5 42.5q-59 0 -115.5 -18.5t-126.5 -63.5l-18 188q82 47 161.5 71.5t161.5 24.5q74 0 133.5 -23.5t101.5 -74.5t64.5 -134t22.5 -202v-254q0 -57 3 -92t11 -54.5t22.5 -25.5t36.5 -6h29 l-18 -190h-88q-68 0 -118 33.5t-75 92.5q-45 -59 -118.5 -92.5t-151.5 -33.5q-53 0 -99.5 21.5t-80 60t-54 95t-20.5 126.5zM268 293q0 -70 27 -101.5t90 -31.5q25 0 66 23.5t75 68.5v235q-41 -4 -86 -16t-84 -35.5t-63.5 -58.5t-24.5 -84zM272 1331v193l330 -189v-131z" />
<glyph unicode="&#xe1;" horiz-adv-x="876" d="M33 283q0 106 54 175.5t131 110.5t162 57.5t144 18.5q-4 104 -36.5 146.5t-118.5 42.5q-59 0 -115.5 -18.5t-126.5 -63.5l-18 188q82 47 161.5 71.5t161.5 24.5q74 0 133.5 -23.5t101.5 -74.5t64.5 -134t22.5 -202v-254q0 -57 3 -92t11 -54.5t22.5 -25.5t36.5 -6h29 l-18 -190h-88q-68 0 -118 33.5t-75 92.5q-45 -59 -118.5 -92.5t-151.5 -33.5q-53 0 -99.5 21.5t-80 60t-54 95t-20.5 126.5zM268 293q0 -70 27 -101.5t90 -31.5q25 0 66 23.5t75 68.5v235q-41 -4 -86 -16t-84 -35.5t-63.5 -58.5t-24.5 -84zM272 1204v131l330 189v-193z" />
<glyph unicode="&#xe2;" horiz-adv-x="876" d="M33 283q0 106 54 175.5t131 110.5t162 57.5t144 18.5q-4 104 -36.5 146.5t-118.5 42.5q-59 0 -115.5 -18.5t-126.5 -63.5l-18 188q82 47 161.5 71.5t161.5 24.5q74 0 133.5 -23.5t101.5 -74.5t64.5 -134t22.5 -202v-254q0 -57 3 -92t11 -54.5t22.5 -25.5t36.5 -6h29 l-18 -190h-88q-68 0 -118 33.5t-75 92.5q-45 -59 -118.5 -92.5t-151.5 -33.5q-53 0 -99.5 21.5t-80 60t-54 95t-20.5 126.5zM180 1210v127l258 195l260 -195v-127l-260 152zM268 293q0 -70 27 -101.5t90 -31.5q25 0 66 23.5t75 68.5v235q-41 -4 -86 -16t-84 -35.5 t-63.5 -58.5t-24.5 -84z" />
<glyph unicode="&#xe3;" horiz-adv-x="876" d="M33 283q0 106 54 175.5t131 110.5t162 57.5t144 18.5q-4 104 -36.5 146.5t-118.5 42.5q-59 0 -115.5 -18.5t-126.5 -63.5l-18 188q82 47 161.5 71.5t161.5 24.5q74 0 133.5 -23.5t101.5 -74.5t64.5 -134t22.5 -202v-254q0 -57 3 -92t11 -54.5t22.5 -25.5t36.5 -6h29 l-18 -190h-88q-68 0 -118 33.5t-75 92.5q-45 -59 -118.5 -92.5t-151.5 -33.5q-53 0 -99.5 21.5t-80 60t-54 95t-20.5 126.5zM100 1255q4 51 25.5 89t53.5 63t70.5 37t75.5 12q41 0 68 -14.5t48.5 -30.5t41.5 -30.5t45 -14.5q41 0 67.5 30.5t30.5 67.5l144 -32 q-10 -82 -64.5 -143.5t-146.5 -61.5q-37 0 -66.5 14t-56.5 31.5t-50.5 32t-47.5 14.5q-39 0 -57.5 -32t-22.5 -66zM268 293q0 -70 27 -101.5t90 -31.5q25 0 66 23.5t75 68.5v235q-41 -4 -86 -16t-84 -35.5t-63.5 -58.5t-24.5 -84z" />
<glyph unicode="&#xe4;" horiz-adv-x="876" d="M33 283q0 106 54 175.5t131 110.5t162 57.5t144 18.5q-4 104 -36.5 146.5t-118.5 42.5q-59 0 -115.5 -18.5t-126.5 -63.5l-18 188q82 47 161.5 71.5t161.5 24.5q74 0 133.5 -23.5t101.5 -74.5t64.5 -134t22.5 -202v-254q0 -57 3 -92t11 -54.5t22.5 -25.5t36.5 -6h29 l-18 -190h-88q-68 0 -118 33.5t-75 92.5q-45 -59 -118.5 -92.5t-151.5 -33.5q-53 0 -99.5 21.5t-80 60t-54 95t-20.5 126.5zM222 1221v213h176v-213h-176zM268 293q0 -70 27 -101.5t90 -31.5q25 0 66 23.5t75 68.5v235q-41 -4 -86 -16t-84 -35.5t-63.5 -58.5t-24.5 -84z M482 1221v213h176v-213h-176z" />
<glyph unicode="&#xe5;" horiz-adv-x="876" d="M33 283q0 106 54 175.5t131 110.5t162 57.5t144 18.5q-4 104 -36.5 146.5t-118.5 42.5q-59 0 -115.5 -18.5t-126.5 -63.5l-18 188q82 47 161.5 71.5t161.5 24.5q74 0 133.5 -23.5t101.5 -74.5t64.5 -134t22.5 -202v-254q0 -57 3 -92t11 -54.5t22.5 -25.5t36.5 -6h29 l-18 -190h-88q-68 0 -118 33.5t-75 92.5q-45 -59 -118.5 -92.5t-151.5 -33.5q-53 0 -99.5 21.5t-80 60t-54 95t-20.5 126.5zM256 1362q0 74 49 129t133 55q86 0 135 -55t49 -129t-49 -128t-135 -54q-84 0 -133 54t-49 128zM268 293q0 -70 27 -101.5t90 -31.5q25 0 66 23.5 t75 68.5v235q-41 -4 -86 -16t-84 -35.5t-63.5 -58.5t-24.5 -84zM366 1362q0 -45 19.5 -70.5t52.5 -25.5q35 0 54.5 25.5t19.5 70.5q0 41 -20.5 68.5t-53.5 27.5q-31 0 -51.5 -27.5t-20.5 -68.5z" />
<glyph unicode="&#xe6;" horiz-adv-x="1398" d="M35 254q0 119 53 192.5t129 114.5t161 57.5t148 20.5q-2 104 -34.5 149.5t-118.5 45.5q-59 0 -115.5 -17.5t-128.5 -54.5l-20 186q164 88 323 88q106 0 169 -41t95 -161q20 88 103.5 145t199.5 57q76 0 140.5 -29.5t111.5 -86t73 -136t26 -180.5q0 -37 -4.5 -68.5 t-12.5 -64.5h-553q20 -158 92 -229.5t154 -71.5q31 0 67.5 6t74.5 16.5t73 25.5t62 32l8 -191q-49 -33 -125 -56t-168 -23q-135 0 -223 53t-129 151q-59 -98 -137 -156.5t-203 -58.5q-139 0 -215 77t-76 208zM272 274q0 -59 30 -89.5t71 -30.5q29 0 58.5 15t54 47t41 80 t16.5 116v31t-2 38q-43 0 -90.5 -12t-87 -36.5t-65.5 -63.5t-26 -95zM784 629h365q0 43 -7 81t-25.5 67.5t-49.5 46t-76 16.5q-80 0 -136 -55.5t-71 -155.5z" />
<glyph unicode="&#xe7;" horiz-adv-x="788" d="M49 508q0 109 26.5 205t81 167.5t134.5 113.5t186 42t163.5 -21.5t100.5 -49.5l-18 -201q-55 37 -109.5 56.5t-117.5 19.5q-102 0 -158.5 -90.5t-56.5 -241.5q0 -150 56 -242t159 -92q63 0 117.5 19.5t109.5 56.5l18 -195q-43 -31 -100.5 -53t-163.5 -22t-186 43 t-134.5 114.5t-81 167.5t-26.5 203zM289 -395l123 270l191 16l-177 -272z" />
<glyph unicode="&#xe8;" horiz-adv-x="907" d="M49 510q0 106 27.5 201.5t81 167t132.5 114.5t181 43q84 0 154.5 -30.5t123 -87t82 -138.5t29.5 -182q0 -63 -14 -127h-563q8 -82 33.5 -138.5t61.5 -92t78 -51t83 -15.5q31 0 67.5 6t73.5 16.5t71.5 23.5t61.5 30l8 -193q-51 -29 -125.5 -53t-169.5 -24q-121 0 -210 43 t-148 114.5t-89 167.5t-30 205zM287 629h344q0 39 -7.5 77.5t-25.5 67.5t-47 47.5t-72 18.5q-82 0 -129 -58.5t-63 -152.5zM288 1331v193l330 -189v-131z" />
<glyph unicode="&#xe9;" horiz-adv-x="907" d="M49 510q0 106 27.5 201.5t81 167t132.5 114.5t181 43q84 0 154.5 -30.5t123 -87t82 -138.5t29.5 -182q0 -63 -14 -127h-563q8 -82 33.5 -138.5t61.5 -92t78 -51t83 -15.5q31 0 67.5 6t73.5 16.5t71.5 23.5t61.5 30l8 -193q-51 -29 -125.5 -53t-169.5 -24q-121 0 -210 43 t-148 114.5t-89 167.5t-30 205zM287 629h344q0 39 -7.5 77.5t-25.5 67.5t-47 47.5t-72 18.5q-82 0 -129 -58.5t-63 -152.5zM288 1204v131l330 189v-193z" />
<glyph unicode="&#xea;" horiz-adv-x="907" d="M49 510q0 106 27.5 201.5t81 167t132.5 114.5t181 43q84 0 154.5 -30.5t123 -87t82 -138.5t29.5 -182q0 -63 -14 -127h-563q8 -82 33.5 -138.5t61.5 -92t78 -51t83 -15.5q31 0 67.5 6t73.5 16.5t71.5 23.5t61.5 30l8 -193q-51 -29 -125.5 -53t-169.5 -24q-121 0 -210 43 t-148 114.5t-89 167.5t-30 205zM194 1210v127l258 195l260 -195v-127l-260 152zM287 629h344q0 39 -7.5 77.5t-25.5 67.5t-47 47.5t-72 18.5q-82 0 -129 -58.5t-63 -152.5z" />
<glyph unicode="&#xeb;" horiz-adv-x="907" d="M49 510q0 106 27.5 201.5t81 167t132.5 114.5t181 43q84 0 154.5 -30.5t123 -87t82 -138.5t29.5 -182q0 -63 -14 -127h-563q8 -82 33.5 -138.5t61.5 -92t78 -51t83 -15.5q31 0 67.5 6t73.5 16.5t71.5 23.5t61.5 30l8 -193q-51 -29 -125.5 -53t-169.5 -24q-121 0 -210 43 t-148 114.5t-89 167.5t-30 205zM234 1221v213h176v-213h-176zM287 629h344q0 39 -7.5 77.5t-25.5 67.5t-47 47.5t-72 18.5q-82 0 -129 -58.5t-63 -152.5zM494 1221v213h176v-213h-176z" />
<glyph unicode="&#xec;" horiz-adv-x="423" d="M49 1331v193l330 -189v-131zM98 0v1018h226v-1018h-226z" />
<glyph unicode="&#xed;" horiz-adv-x="423" d="M49 1204v131l330 189v-193zM98 0v1018h226v-1018h-226z" />
<glyph unicode="&#xee;" horiz-adv-x="423" d="M-45 1210v127l258 195l260 -195v-127l-260 152zM98 0v1018h226v-1018h-226z" />
<glyph unicode="&#xef;" horiz-adv-x="423" d="M-4 1221v213h176v-213h-176zM98 0v1018h226v-1018h-226zM256 1221v213h176v-213h-176z" />
<glyph unicode="&#xf0;" horiz-adv-x="903" d="M37 418q0 82 23.5 163t70.5 145.5t116.5 105t162.5 40.5q72 0 120 -27.5t82 -62.5q-2 33 -12 82t-26.5 98.5t-37 91.5t-40.5 62q-104 -102 -242 -121l-68 140q43 2 99.5 25.5t109.5 68.5q-47 49 -100 71.5t-109 32.5l76 103q137 -4 254 -109q29 35 54.5 65.5t43.5 63.5 l123 -31q-29 -49 -58.5 -94t-64.5 -92q49 -61 90 -140t72 -170t47.5 -192.5t16.5 -208.5q0 -164 -38 -271t-96.5 -170.5t-130 -88.5t-141.5 -25q-84 0 -156.5 33t-126 92.5t-84 141.5t-30.5 178zM248 444q0 -55 11 -104t33.5 -87t59.5 -60.5t86 -22.5q35 0 69 15.5t60.5 47 t43 79.5t16.5 112q0 119 -48.5 188.5t-146.5 69.5q-47 0 -82 -21.5t-57.5 -55.5t-33.5 -76t-11 -85z" />
<glyph unicode="&#xf1;" d="M102 0v1018h215v-76q35 47 84.5 70.5t100.5 23.5q104 0 176 -34.5t116 -99t64.5 -154t20.5 -197.5v-551h-226v551q0 150 -39 219.5t-129 69.5q-53 0 -91 -26t-66 -75v-739h-226zM152 1255q4 51 25.5 89t53.5 63t70.5 37t75.5 12q41 0 68 -14.5t48.5 -30.5t41.5 -30.5 t45 -14.5q41 0 67.5 30.5t30.5 67.5l144 -32q-10 -82 -64.5 -143.5t-146.5 -61.5q-37 0 -66.5 14t-56.5 31.5t-50.5 32t-47.5 14.5q-39 0 -57.5 -32t-22.5 -66z" />
<glyph unicode="&#xf2;" horiz-adv-x="993" d="M49 508q0 106 30 202.5t87 169t141 114.5t191 42q106 0 189 -42t140.5 -114.5t87 -169t29.5 -202.5q0 -109 -29.5 -205t-87 -168t-140.5 -113.5t-189 -41.5t-190.5 41.5t-141.5 113.5t-87 168t-30 205zM281 508q0 -154 56 -244t161 -90q104 0 159.5 90t55.5 244 q0 152 -55.5 242t-159.5 90t-160.5 -90.5t-56.5 -241.5zM331 1331v193l330 -189v-131z" />
<glyph unicode="&#xf3;" horiz-adv-x="993" d="M49 508q0 106 30 202.5t87 169t141 114.5t191 42q106 0 189 -42t140.5 -114.5t87 -169t29.5 -202.5q0 -109 -29.5 -205t-87 -168t-140.5 -113.5t-189 -41.5t-190.5 41.5t-141.5 113.5t-87 168t-30 205zM281 508q0 -154 56 -244t161 -90q104 0 159.5 90t55.5 244 q0 152 -55.5 242t-159.5 90t-160.5 -90.5t-56.5 -241.5zM331 1204v131l330 189v-193z" />
<glyph unicode="&#xf4;" horiz-adv-x="993" d="M49 508q0 106 30 202.5t87 169t141 114.5t191 42q106 0 189 -42t140.5 -114.5t87 -169t29.5 -202.5q0 -109 -29.5 -205t-87 -168t-140.5 -113.5t-189 -41.5t-190.5 41.5t-141.5 113.5t-87 168t-30 205zM237 1210v127l258 195l260 -195v-127l-260 152zM281 508 q0 -154 56 -244t161 -90q104 0 159.5 90t55.5 244q0 152 -55.5 242t-159.5 90t-160.5 -90.5t-56.5 -241.5z" />
<glyph unicode="&#xf5;" horiz-adv-x="993" d="M49 508q0 106 30 202.5t87 169t141 114.5t191 42q106 0 189 -42t140.5 -114.5t87 -169t29.5 -202.5q0 -109 -29.5 -205t-87 -168t-140.5 -113.5t-189 -41.5t-190.5 41.5t-141.5 113.5t-87 168t-30 205zM162 1255q4 51 25.5 89t53.5 63t70.5 37t75.5 12q41 0 68 -14.5 t48.5 -30.5t41.5 -30.5t45 -14.5q41 0 67.5 30.5t30.5 67.5l144 -32q-10 -82 -64.5 -143.5t-146.5 -61.5q-37 0 -66.5 14t-56.5 31.5t-50.5 32t-47.5 14.5q-39 0 -57.5 -32t-22.5 -66zM281 508q0 -154 56 -244t161 -90q104 0 159.5 90t55.5 244q0 152 -55.5 242t-159.5 90 t-160.5 -90.5t-56.5 -241.5z" />
<glyph unicode="&#xf6;" horiz-adv-x="993" d="M49 508q0 106 30 202.5t87 169t141 114.5t191 42q106 0 189 -42t140.5 -114.5t87 -169t29.5 -202.5q0 -109 -29.5 -205t-87 -168t-140.5 -113.5t-189 -41.5t-190.5 41.5t-141.5 113.5t-87 168t-30 205zM279 1221v213h176v-213h-176zM281 508q0 -154 56 -244t161 -90 q104 0 159.5 90t55.5 244q0 152 -55.5 242t-159.5 90t-160.5 -90.5t-56.5 -241.5zM539 1221v213h176v-213h-176z" />
<glyph unicode="&#xf7;" horiz-adv-x="966" d="M78 481v178h811v-178h-811zM365 41v244h223v-244h-223zM365 850v244h223v-244h-223z" />
<glyph unicode="&#xf8;" horiz-adv-x="989" d="M49 510q0 106 30 202.5t87 169t140 114.5t190 42q63 0 112 -18l29 74h201l-68 -148q82 -78 126 -191.5t44 -244.5q0 -109 -29.5 -204t-87 -167.5t-140.5 -114.5t-187 -42q-66 0 -121 18l-27 -74h-194l63 150q-82 76 -125 189.5t-43 244.5zM279 510q0 -63 10 -119.5 t26 -116.5l207 570q-3 6 -26 6q-104 0 -160.5 -95.5t-56.5 -244.5zM461 176q4 -4 13 -5t20 -1q104 0 160.5 96t56.5 244q0 63 -10.5 129t-26.5 106z" />
<glyph unicode="&#xf9;" d="M94 457v561h225v-545q0 -150 40 -222.5t133 -72.5q53 0 92 23.5t69 70.5v746h226v-1018h-211l-4 76q-37 -43 -89.5 -69.5t-99.5 -26.5q-106 0 -179 33.5t-118 95t-64.5 149.5t-19.5 199zM321 1331v193l330 -189v-131z" />
<glyph unicode="&#xfa;" d="M94 457v561h225v-545q0 -150 40 -222.5t133 -72.5q53 0 92 23.5t69 70.5v746h226v-1018h-211l-4 76q-37 -43 -89.5 -69.5t-99.5 -26.5q-106 0 -179 33.5t-118 95t-64.5 149.5t-19.5 199zM321 1204v131l330 189v-193z" />
<glyph unicode="&#xfb;" d="M94 457v561h225v-545q0 -150 40 -222.5t133 -72.5q53 0 92 23.5t69 70.5v746h226v-1018h-211l-4 76q-37 -43 -89.5 -69.5t-99.5 -26.5q-106 0 -179 33.5t-118 95t-64.5 149.5t-19.5 199zM227 1210v127l258 195l260 -195v-127l-260 152z" />
<glyph unicode="&#xfc;" d="M94 457v561h225v-545q0 -150 40 -222.5t133 -72.5q53 0 92 23.5t69 70.5v746h226v-1018h-211l-4 76q-37 -43 -89.5 -69.5t-99.5 -26.5q-106 0 -179 33.5t-118 95t-64.5 149.5t-19.5 199zM269 1221v213h176v-213h-176zM529 1221v213h176v-213h-176z" />
<glyph unicode="&#xfd;" horiz-adv-x="944" d="M-4 1018h252l219 -686l227 686h252l-555 -1514h-223l194 557zM309 1204v131l330 189v-193z" />
<glyph unicode="&#xfe;" horiz-adv-x="1007" d="M102 -496v2032h226v-588q41 43 86 65.5t112 22.5q106 0 187.5 -43t135.5 -114.5t81.5 -168t27.5 -202.5t-27.5 -202.5t-81.5 -168t-135.5 -114.5t-187.5 -43q-66 0 -109.5 22.5t-88.5 67.5v-566h-226zM317 508q0 -147 47.5 -242.5t147.5 -95.5q102 0 158.5 94t56.5 244 q0 147 -56.5 239.5t-158.5 92.5q-100 0 -147.5 -93.5t-47.5 -238.5z" />
<glyph unicode="&#xff;" horiz-adv-x="944" d="M-4 1018h252l219 -686l227 686h252l-555 -1514h-223l194 557zM254 1221v213h176v-213h-176zM514 1221v213h176v-213h-176z" />
<glyph unicode="&#x152;" horiz-adv-x="1871" d="M61 717q0 170 45.5 307t127 234.5t192.5 150.5t244 53q111 0 204 -39t164 -120v131h758v-230h-518v-342h399v-229h-399v-404h534v-229h-774v131q-72 -82 -165 -121t-203 -39q-133 0 -244 53.5t-192.5 150.5t-127 234.5t-45.5 307.5zM315 717q0 -111 22.5 -206t67 -165 t111 -108.5t154.5 -38.5t154.5 38.5t111.5 108.5t67.5 165t22.5 206t-22.5 206t-67.5 164.5t-111.5 108.5t-154.5 39t-154.5 -39t-111 -108.5t-67 -165t-22.5 -205.5z" />
<glyph unicode="&#x153;" horiz-adv-x="1574" d="M49 510q0 109 30 204t87 166.5t140 113.5t190 42q109 0 189.5 -46t139.5 -132q55 86 132 132t184 46q82 0 153.5 -30.5t122.5 -87t81 -137.5t30 -181q0 -66 -15 -129h-563q10 -86 35 -144.5t60.5 -93t77.5 -49t85 -14.5q61 0 139 23.5t134 56.5l8 -197q-49 -29 -125 -51 t-172 -22q-119 0 -210 48t-153 134q-59 -86 -141 -134t-192 -48q-106 0 -189.5 41.5t-140.5 114.5t-87 169t-30 205zM281 508q0 -154 56 -244t159 -90q51 0 91 25.5t67.5 69.5t43 105.5t15.5 135.5q0 147 -56.5 238.5t-160.5 91.5q-102 0 -158.5 -90.5t-56.5 -241.5z M954 629h344q0 41 -7 78.5t-23.5 67.5t-46 47.5t-72.5 17.5q-86 0 -132 -56.5t-63 -154.5z" />
<glyph unicode="&#x178;" horiz-adv-x="1026" d="M-27 1434h246l297 -576l295 576h248l-428 -791v-643h-232v643zM295 1637v213h176v-213h-176zM555 1637v213h176v-213h-176z" />
<glyph unicode="&#x2c6;" horiz-adv-x="784" d="M133 1210v127l258 195l260 -195v-127l-260 152z" />
<glyph unicode="&#x2dc;" horiz-adv-x="929" d="M129 1255q4 51 25.5 89t53.5 63t70.5 37t75.5 12q41 0 68 -14.5t48.5 -30.5t41.5 -30.5t45 -14.5q41 0 67.5 30.5t30.5 67.5l144 -32q-10 -82 -64.5 -143.5t-146.5 -61.5q-37 0 -66.5 14t-56.5 31.5t-50.5 32t-47.5 14.5q-39 0 -57.5 -32t-22.5 -66z" />
<glyph unicode="&#x2000;" horiz-adv-x="981" />
<glyph unicode="&#x2001;" horiz-adv-x="1962" />
<glyph unicode="&#x2002;" horiz-adv-x="981" />
<glyph unicode="&#x2003;" horiz-adv-x="1962" />
<glyph unicode="&#x2004;" horiz-adv-x="654" />
<glyph unicode="&#x2005;" horiz-adv-x="490" />
<glyph unicode="&#x2006;" horiz-adv-x="327" />
<glyph unicode="&#x2007;" horiz-adv-x="327" />
<glyph unicode="&#x2008;" horiz-adv-x="245" />
<glyph unicode="&#x2009;" horiz-adv-x="392" />
<glyph unicode="&#x200a;" horiz-adv-x="109" />
<glyph unicode="&#x2010;" horiz-adv-x="718" d="M86 475v189h547v-189h-547z" />
<glyph unicode="&#x2011;" horiz-adv-x="718" d="M86 475v189h547v-189h-547z" />
<glyph unicode="&#x2012;" horiz-adv-x="718" d="M86 475v189h547v-189h-547z" />
<glyph unicode="&#x2013;" horiz-adv-x="856" d="M86 475v189h684v-189h-684z" />
<glyph unicode="&#x2014;" horiz-adv-x="1017" d="M86 475v189h846v-189h-846z" />
<glyph unicode="&#x2018;" horiz-adv-x="417" d="M96 1073v238l178 225l45 -29l-57 -176l60 -20v-238h-226z" />
<glyph unicode="&#x2019;" horiz-adv-x="415" d="M94 1102l60 176l-58 20v238h223v-238l-178 -225z" />
<glyph unicode="&#x201a;" horiz-adv-x="415" d="M94 -197l60 177l-58 20v238h223v-238l-178 -225z" />
<glyph unicode="&#x201c;" horiz-adv-x="788" d="M96 1073v238l178 225l45 -29l-57 -176l60 -20v-238h-226zM467 1073v238l176 225l47 -29l-59 -176l59 -20v-238h-223z" />
<glyph unicode="&#x201d;" horiz-adv-x="786" d="M94 1102l60 176l-58 20v238h223v-238l-178 -225zM465 1102l59 176l-59 20v238h223v-238l-178 -225z" />
<glyph unicode="&#x201e;" horiz-adv-x="800" d="M94 -197l60 177l-58 20v238h223v-238l-178 -225zM500 0v238h223v-238l-176 -225l-47 28l59 177z" />
<glyph unicode="&#x2022;" horiz-adv-x="522" d="M70 569q0 45 15 86t41 72t60.5 48.5t75.5 17.5q39 0 74 -17.5t60.5 -48.5t41 -72t15.5 -86q0 -47 -15.5 -87t-41 -70.5t-60.5 -48t-74 -17.5q-41 0 -75.5 17.5t-60.5 48t-41 70.5t-15 87z" />
<glyph unicode="&#x2026;" horiz-adv-x="1247" d="M94 0v238h225v-238h-225zM510 0v238h225v-238h-225zM926 0v238h225v-238h-225z" />
<glyph unicode="&#x202f;" horiz-adv-x="392" />
<glyph unicode="&#x2039;" horiz-adv-x="612" d="M20 582l267 422h266l-266 -422l266 -422h-266z" />
<glyph unicode="&#x203a;" horiz-adv-x="612" d="M59 160l267 422l-267 422h267l266 -422l-266 -422h-267z" />
<glyph unicode="&#x205f;" horiz-adv-x="490" />
<glyph unicode="&#x20ac;" horiz-adv-x="1232" d="M55 432l54 166h161q-4 29 -5 68t-1 73h-164l58 168h127q25 115 74 206t119.5 154.5t158.5 97.5t188 34q86 0 169 -18.5t151 -55.5l-25 -221q-74 35 -142.5 57.5t-152.5 22.5q-123 0 -197.5 -74t-105.5 -203h441l-58 -168h-407v-34.5t1 -40t2 -38t5 -28.5h424l-56 -166 h-319q78 -182 270 -182q84 0 153 22.5t142 57.5l25 -221q-68 -37 -151 -55.5t-169 -18.5q-180 0 -316 104.5t-200 292.5h-254z" />
<glyph unicode="&#x2122;" horiz-adv-x="1302" d="M59 1292v142h500l-18 -142h-166v-602h-146v602h-170zM541 690l88 744h92l158 -324l153 324h96l86 -744h-151l-45 469l-131 -276h-21l-127 278l-47 -471h-151z" />
<glyph unicode="&#x25fc;" horiz-adv-x="1013" d="M0 0v1014h1014v-1014h-1014z" />
</font>
</defs>
</svg>
