<?xml version="1.0" standalone="no"?>
<!DOCTYPE svg PUBLIC "-//W3C//DTD SVG 1.1//EN" "http://www.w3.org/Graphics/SVG/1.1/DTD/svg11.dtd" >
<svg xmlns="http://www.w3.org/2000/svg" xmlns:xlink="http://www.w3.org/1999/xlink" version="1.1">
<metadata></metadata>
<defs>
<font id="cabinregular" horiz-adv-x="1261" >
<font-face units-per-em="2048" ascent="1638" descent="-410" />
<missing-glyph horiz-adv-x="460" />
<glyph horiz-adv-x="0" />
<glyph horiz-adv-x="682" />
<glyph unicode=" "  horiz-adv-x="460" />
<glyph unicode="&#x09;" horiz-adv-x="460" />
<glyph unicode="&#xa0;" horiz-adv-x="460" />
<glyph unicode="!" horiz-adv-x="495" d="M121 1536h254l-62 -1126h-131zM162 0v176h172v-176h-172z" />
<glyph unicode="&#x22;" horiz-adv-x="823" d="M82 1536h192l-41 -614h-110zM553 1536h188l-41 -614h-106z" />
<glyph unicode="#" horiz-adv-x="1441" d="M68 442l75 172h236l98 252h-258l60 172h264l151 396h164l-151 -396h272l154 396h163l-151 -396h231l-59 -172h-238l-98 -252h262l-78 -172h-250l-178 -465h-164l179 465h-273l-178 -465h-164l176 465h-245zM545 614h270l98 252h-270z" />
<glyph unicode="$" horiz-adv-x="1052" d="M86 975q0 57 21.5 111.5t67.5 96.5t119 70.5t173 38.5l-35 240h184l-32 -240q221 -12 329 -75l-18 -197q-209 98 -342 98q-248 0 -248 -119q0 -55 50.5 -87.5t125 -56.5t161.5 -48.5t162 -63t125 -101t50 -163.5q0 -45 -14.5 -95t-57.5 -94t-120.5 -78t-202.5 -44 l30 -234h-182l35 232q-240 12 -361 78l25 223q143 -119 381 -119q225 0 225 129q0 59 -48 96t-120.5 64t-156.5 51.5t-157 59t-121 88t-48 139.5z" />
<glyph unicode="%" horiz-adv-x="1720" d="M72 1055q0 94 24.5 166.5t67.5 122t99 75t118 25.5q63 0 117.5 -24.5t94.5 -72t63.5 -116t23.5 -158.5q0 -94 -23.5 -166.5t-64.5 -123t-97 -76t-124 -25.5q-131 0 -215 96t-84 277zM186 1055q0 -123 55.5 -195t131.5 -72q82 0 137 77t55 208q0 59 -14 108.5t-41 84 t-60.5 53t-70.5 18.5q-39 0 -74 -19.5t-61.5 -56t-42 -90t-15.5 -116.5zM332 -25l862 1459h152l-861 -1459h-153zM1040 344q0 94 25 167t68 122t99 74.5t118 25.5q63 0 117.5 -24.5t94.5 -71.5t63.5 -115.5t23.5 -159.5q0 -94 -23.5 -166.5t-64.5 -122.5t-97.5 -76 t-124.5 -26q-131 0 -215 96.5t-84 276.5zM1155 344q0 -123 55.5 -194.5t130.5 -71.5q82 0 137.5 76.5t55.5 207.5q0 59 -14.5 108.5t-41 84.5t-60 53.5t-70.5 18.5q-39 0 -74 -19.5t-61.5 -56.5t-42 -90t-15.5 -117z" />
<glyph unicode="&#x26;" horiz-adv-x="1251" d="M74 332q0 236 258 418q-154 186 -154 348q0 80 32 142.5t86 107.5t127 68.5t155 23.5q147 0 219.5 -71t72.5 -187q0 -244 -335 -453l389 -399q66 84 80 389h165q-8 -319 -133 -514l178 -205h-188l-90 94q-90 -78 -178 -109.5t-207 -31.5q-123 0 -212 27.5t-148.5 78 t-88 120t-28.5 153.5zM252 346q0 -113 77 -183.5t226 -70.5q180 0 289 123l-426 426q-166 -117 -166 -295zM344 1094q0 -125 113 -263l108 84l41 35q59 51 84 96.5t25 98.5q0 74 -44 113.5t-118 39.5q-88 0 -148.5 -53t-60.5 -151z" />
<glyph unicode="'" horiz-adv-x="372" d="M84 1536h205l-37 -614h-131z" />
<glyph unicode="(" horiz-adv-x="534" d="M86 629q0 156 14.5 282.5t44 235t74.5 203t105 186.5h161q-252 -410 -252 -907q0 -500 252 -908h-161q-61 92 -106.5 187.5t-74 204t-43 235.5t-14.5 281z" />
<glyph unicode=")" horiz-adv-x="534" d="M49 -279q252 408 252 908q0 498 -252 907h162q59 -92 104 -186.5t75 -203t44.5 -235.5t14.5 -282q0 -154 -14.5 -281t-44.5 -235.5t-74 -204t-105 -187.5h-162z" />
<glyph unicode="*" horiz-adv-x="872" d="M68 1307l47 84l303 -177l-27 320h94l-32 -320l305 177l47 -86l-324 -129l232 -236l-68 -66l-209 273l-205 -279l-65 66l221 240z" />
<glyph unicode="+" horiz-adv-x="948" d="M94 487v177h297v262h164v-262h297v-177h-297v-278h-164v278h-297z" />
<glyph unicode="," horiz-adv-x="442" d="M117 -197l71 179l-69 18v176h205v-176l-160 -223z" />
<glyph unicode="-" horiz-adv-x="868" d="M117 487v177h635v-177h-635z" />
<glyph unicode="." horiz-adv-x="417" d="M117 0v176h184v-176h-184z" />
<glyph unicode="/" horiz-adv-x="1089" d="M39 -174l774 1608h205l-774 -1608h-205z" />
<glyph unicode="0" horiz-adv-x="1462" d="M129 692q0 170 47 312.5t130 244t195.5 157.5t241.5 56q127 0 235.5 -54t187.5 -150.5t123 -231.5t44 -295q0 -172 -44 -312t-125 -239.5t-194.5 -154t-250.5 -54.5q-133 0 -241.5 51.5t-185.5 145.5t-120 227t-43 297zM336 692q0 -270 104.5 -407.5t282.5 -137.5 q186 0 296.5 146.5t110.5 437.5q0 131 -29.5 234.5t-81.5 174t-124 108.5t-156 38t-157.5 -40t-128 -115.5t-86 -186t-31.5 -252.5z" />
<glyph unicode="1" horiz-adv-x="727" d="M70 1210q43 14 87 38t84 53.5t73.5 63.5t56.5 69h149v-1434h-205v1153q-111 -92 -213 -125z" />
<glyph unicode="2" horiz-adv-x="1073" d="M102 1264q14 27 50 61.5t88.5 65t121 51t148.5 20.5q113 0 189.5 -35.5t122.5 -92t65.5 -127t19.5 -138.5q0 -74 -23.5 -159t-75.5 -190.5t-136 -238.5t-205 -305h496v-176h-848q186 264 305 447.5t176 289.5q115 213 115 312q0 111 -66.5 171t-183.5 60 q-190 0 -334 -190z" />
<glyph unicode="3" horiz-adv-x="1120" d="M82 80l47 180q57 -31 100 -51.5t81 -34.5t77 -20.5t86 -6.5q61 0 117.5 15.5t97.5 50.5t65.5 90t24.5 133q0 61 -17.5 110.5t-57 84.5t-104 53t-161.5 18h-149l20 156h76q186 0 264 59.5t78 176.5q0 193 -244 192q-174 0 -276 -84l-35 166q33 33 118 63.5t214 30.5 q135 0 220 -35.5t133 -90t65.5 -119t17.5 -123.5q0 -86 -41 -157t-145 -142q238 -80 237 -357q0 -111 -41 -197.5t-111.5 -147t-166 -91.5t-201.5 -31q-61 0 -123.5 11.5t-117 29t-94.5 36t-54 32.5z" />
<glyph unicode="4" horiz-adv-x="1144" d="M29 389l659 1045h162v-869h174v-176h-174v-389h-205v389h-616zM332 565h313v520z" />
<glyph unicode="5" horiz-adv-x="1107" d="M104 51l48 182q147 -86 297 -86q72 0 133 26t107 70t72.5 103.5t26.5 128.5q0 129 -101 190.5t-331 61.5h-174l86 707h652l-19 -177h-477l-41 -356q166 0 283.5 -25.5t191.5 -76.5t108.5 -130t34.5 -186q0 -115 -45 -209t-119.5 -161.5t-174.5 -104.5t-211 -37 q-45 0 -100.5 7.5t-106.5 19.5t-89 26.5t-51 26.5z" />
<glyph unicode="6" horiz-adv-x="1163" d="M127 492q0 201 62.5 372.5t155.5 297.5t200.5 198t195.5 74l133 -78q-82 -37 -159.5 -84t-145 -118t-124 -173t-95.5 -250q94 129 289 129q92 0 172 -27.5t138.5 -80t91 -130t32.5 -176.5q0 -100 -36 -186t-101.5 -150.5t-156.5 -101.5t-204 -37q-102 0 -184 31 t-141.5 94.5t-91 161.5t-31.5 234zM332 412q0 -68 20.5 -118t57 -84t86 -51.5t104.5 -17.5q68 0 119 24.5t86 65.5t52 94.5t17 112.5q0 49 -13 95.5t-44 82t-78.5 57t-117.5 21.5q-59 0 -111.5 -20.5t-91.5 -57t-62.5 -89t-23.5 -115.5z" />
<glyph unicode="7" horiz-adv-x="1028" d="M80 1257v177h928l-621 -1434h-205l543 1257h-645z" />
<glyph unicode="8" horiz-adv-x="1247" d="M121 387q0 238 274 383q-190 147 -190 336q0 74 24.5 139.5t75.5 112.5t131 74.5t195 27.5q111 0 188.5 -25.5t127.5 -69.5t73.5 -103.5t23.5 -124.5q0 -55 -11 -97.5t-38.5 -81t-74 -77.5t-115.5 -88q166 -57 242.5 -148.5t76.5 -238.5q0 -82 -33.5 -160t-99 -139.5 t-163 -98.5t-222.5 -37q-123 0 -214 34t-151.5 91.5t-90 132t-29.5 158.5zM334 387q0 -119 72.5 -179.5t207.5 -60.5q66 0 121.5 19.5t96 54.5t63.5 83t23 104q0 104 -81 178.5t-210 105.5q-135 -27 -214 -101.5t-79 -203.5zM383 1094q0 -70 61.5 -131.5t165.5 -100.5 q119 35 179.5 103.5t60.5 150.5q0 80 -59.5 125t-169.5 45q-111 0 -174.5 -50t-63.5 -142z" />
<glyph unicode="9" horiz-adv-x="1167" d="M92 985q0 104 37 191.5t102.5 151t156.5 99t202 35.5q86 0 167 -24.5t143.5 -84t100 -158.5t37.5 -249q0 -225 -62.5 -401t-153.5 -297t-194.5 -184.5t-185.5 -63.5l-149 78q84 39 169 91t156.5 125t123 169t69.5 225q-41 -55 -119 -86t-166 -31q-205 0 -319.5 104.5 t-114.5 309.5zM291 995q0 -49 13 -96t43 -82t78 -56.5t120 -21.5q61 0 113.5 20.5t91 58.5t61.5 90.5t23 117.5q0 63 -21.5 113.5t-57.5 84t-85 51t-105 17.5q-68 0 -119 -24.5t-85.5 -65.5t-52 -95t-17.5 -112z" />
<glyph unicode=":" horiz-adv-x="417" d="M117 0v176h184v-176h-184zM117 725v176h184v-176h-184z" />
<glyph unicode=";" horiz-adv-x="442" d="M117 -197l71 179l-69 18v176h205v-178l-160 -221zM119 725v176h205v-176h-205z" />
<glyph unicode="&#x3c;" horiz-adv-x="829" d="M68 582l442 422h195l-443 -422l443 -422h-195z" />
<glyph unicode="=" horiz-adv-x="1028" d="M135 328v155h758v-155h-758zM135 651v156h758v-156h-758z" />
<glyph unicode="&#x3e;" horiz-adv-x="827" d="M123 160l442 422l-442 422h194l443 -422l-443 -422h-194z" />
<glyph unicode="?" horiz-adv-x="903" d="M61 1399q39 59 127 98t199 39q98 0 177 -34t134.5 -89t85 -123.5t29.5 -136.5q0 -72 -36 -149.5t-87 -143.5l-104 -133q-53 -68 -89 -135.5t-34 -126.5v-55h-121q-6 82 -6 92q0 63 22.5 117.5t57.5 104.5t73.5 98t73.5 98.5t57.5 106.5t22.5 122q0 61 -21.5 108.5 t-57.5 79t-83 48t-100 16.5q-45 0 -89 -13.5t-80 -34t-62.5 -45t-36.5 -46.5zM313 0v176h187v-176h-187z" />
<glyph unicode="@" horiz-adv-x="1478" d="M100 348q0 164 61.5 307.5t168 249t246 167t296.5 61.5q119 0 214.5 -37t161 -104.5t100 -164t34.5 -215.5q0 -53 -5 -110.5t-21.5 -109.5t-50 -95t-91.5 -70q-80 -35 -135 -34q-76 0 -75 108q0 27 10 76t26.5 111.5t36 136t39.5 151.5q-104 109 -250 109 q-94 0 -187 -51.5t-167 -132t-120 -184t-46 -208.5q0 -98 45 -162.5t150 -64.5q43 0 94 17.5t100 49t93 74.5t73 96q0 -2 -1 -11t-2 -19t-2 -20.5t-1 -12.5q0 -66 26.5 -118t86.5 -52q31 0 67.5 11.5t73.5 29.5t71.5 42t59.5 48q-49 -88 -121 -160.5t-160 -125t-187 -81 t-204 -28.5q-117 0 -211 36t-160.5 103.5t-101.5 165.5t-35 221zM510 348q0 80 35 155t89 131t116.5 91t117.5 35q96 0 111 -45q-12 -80 -54 -167t-97.5 -161t-116 -122t-111.5 -48q-45 0 -67.5 37t-22.5 94z" />
<glyph unicode="A" d="M14 0l514 1434h205l514 -1434h-205l-137 387h-549l-137 -387h-205zM418 563h426l-213 598z" />
<glyph unicode="B" horiz-adv-x="1222" d="M164 0v1434h323q133 0 234.5 -14.5t169 -54.5t102.5 -108.5t35 -177.5q0 -55 -3 -96t-15.5 -76t-36 -68.5t-62.5 -74.5q133 -51 186.5 -133t53.5 -205q0 -137 -44 -221t-114.5 -129t-160 -60.5t-177.5 -15.5h-491zM358 176h201q92 0 164 7t122 32t76.5 70t26.5 123 q0 72 -20.5 119.5t-57 77.5t-89.5 43.5t-119 13.5h-304v-486zM358 838h242q49 0 90 7t72 29.5t48 67.5t17 123q0 68 -23.5 106.5t-62.5 58t-90 25t-108 5.5h-185v-422z" />
<glyph unicode="C" d="M80 717q0 166 53 303t148.5 235.5t226.5 152.5t289 54q219 0 397 -84l-20 -180l-117 41q-117 47 -260 47q-121 0 -214.5 -43t-158 -118.5t-98 -180t-33.5 -227.5q0 -121 32.5 -225.5t97 -181.5t160 -120t218.5 -43q31 0 59.5 2.5t59.5 8.5l51 10q16 2 55 16l47 15 q10 2 53 18l48 16l20 -180q-178 -82 -395 -82q-158 0 -290 53.5t-227.5 151.5t-148.5 235.5t-53 305.5z" />
<glyph unicode="D" horiz-adv-x="1488" d="M164 0v1434h530q156 0 287 -49.5t226.5 -142.5t147.5 -226t52 -299t-52 -299t-145.5 -225.5t-224.5 -142.5t-291 -50h-530zM358 176h336q119 0 212 38t157.5 108.5t97.5 171t33 223.5t-33 223t-97.5 171t-157.5 108.5t-212 37.5h-336v-1081z" />
<glyph unicode="E" horiz-adv-x="1134" d="M164 0v1434h874v-177h-680v-419h541v-176h-541v-486h699v-176h-893z" />
<glyph unicode="F" horiz-adv-x="1071" d="M164 0v1434h874v-177h-680v-419h525v-176h-525v-662h-194z" />
<glyph unicode="G" horiz-adv-x="1376" d="M80 719q0 168 53 305t148.5 234.5t227.5 150.5t290 53q242 0 426 -82l-19 -170q-215 76 -401 76q-125 0 -221.5 -42t-161 -116.5t-97 -180t-32.5 -230.5q0 -129 34.5 -234.5t103.5 -179.5t170 -115t237 -41q147 0 239 39v357h-225v176h420v-639q-41 -23 -101.5 -42.5 t-127 -34.5t-135.5 -23.5t-126 -8.5q-152 0 -280.5 54.5t-223 152.5t-146.5 235.5t-52 305.5z" />
<glyph unicode="H" horiz-adv-x="1527" d="M164 0v1434h194v-592h811v592h195v-1434h-195v657h-811v-657h-194z" />
<glyph unicode="I" horiz-adv-x="522" d="M164 0v1434h194v-1434h-194z" />
<glyph unicode="J" horiz-adv-x="522" d="M-35 -238h8q55 0 92 12.5t58.5 40t31 71.5t9.5 108v1440h194v-1500q0 -286 -340 -286h-32z" />
<glyph unicode="K" horiz-adv-x="1181" d="M164 0v1434h194v-1434h-194zM438 760l531 674h205l-531 -674l531 -760h-205z" />
<glyph unicode="L" horiz-adv-x="1026" d="M164 0v1434h194v-1258h658v-176h-852z" />
<glyph unicode="M" horiz-adv-x="1662" d="M98 0l193 1434h166l377 -711l372 711h168l191 -1434h-205l-135 1083l-389 -743l-398 743l-135 -1083h-205z" />
<glyph unicode="N" horiz-adv-x="1441" d="M164 0v1434h211l706 -1074v1074h197v-1434h-166l-754 1133v-1133h-194z" />
<glyph unicode="O" horiz-adv-x="1572" d="M80 717q0 170 53 307t146.5 234.5t223.5 150.5t283 53q154 0 284 -53t224.5 -151.5t146.5 -235.5t52 -305q0 -338 -199 -543q-197 -203 -508 -203q-156 0 -285.5 53.5t-223 150.5t-145.5 234.5t-52 307.5zM293 717q0 -123 32.5 -227.5t95 -180.5t155 -119t210.5 -43 q119 0 211.5 43t156 120t95 180.5t31.5 226.5q0 249 -129 409q-127 160 -365 160q-119 0 -211 -43t-154.5 -118.5t-95 -180t-32.5 -227.5z" />
<glyph unicode="P" horiz-adv-x="1171" d="M164 0v1434h459q100 0 190 -15.5t158.5 -63.5t109.5 -136.5t41 -231.5q0 -139 -42 -232t-107.5 -149.5t-143 -80t-149.5 -23.5h-311v-502h-205zM369 676h274q150 0 213.5 79t63.5 224q0 76 -16.5 130t-55.5 87t-103.5 48.5t-158.5 15.5h-217v-584z" />
<glyph unicode="Q" horiz-adv-x="1572" d="M80 717q0 170 53 307t146.5 234.5t223.5 150.5t283 53q154 0 284 -53t224.5 -151.5t146.5 -235.5t52 -305q0 -264 -152 -490l123 -100l-102 -121l-133 111q-205 -145 -443 -146q-156 0 -285.5 53.5t-223 150.5t-145.5 234.5t-52 307.5zM293 717q0 -123 31.5 -227.5 t93 -180.5t154 -119t214.5 -43q197 0 310 82l-211 172l102 125l215 -190q98 154 98 381q0 123 -34.5 226.5t-101 180t-162 119.5t-216.5 43t-212 -42t-154.5 -117.5t-95 -180t-31.5 -229.5z" />
<glyph unicode="R" horiz-adv-x="1234" d="M164 0v1434h465q119 0 212 -22.5t155.5 -73t95 -130.5t32.5 -194q0 -135 -68.5 -240.5t-193.5 -163.5l334 -610h-209l-317 559h-301v-559h-205zM369 748h309q49 0 93 16t78 49t53.5 83t19.5 118q0 125 -74 193.5t-221 68.5h-258v-528z" />
<glyph unicode="S" horiz-adv-x="1196" d="M82 1049q0 61 24.5 133.5t83 135t157.5 103.5t251 41q61 0 127 -8t126 -21.5t111.5 -32t86.5 -36.5l-21 -207q-258 129 -412 129q-59 0 -117.5 -12t-103.5 -39t-72.5 -66t-27.5 -94q0 -90 77 -140t232 -99q43 -14 62.5 -18.5t38 -9.5t50 -16.5t101.5 -41.5l70 -37 q27 -14 44 -24.5t27 -20.5l52 -54q47 -49 62 -106t22 -137q0 -61 -18.5 -130t-78 -128.5t-169.5 -99.5t-294 -42q-297 0 -469 92l27 228q193 -143 447 -144q74 0 136 13.5t108 41t72 69.5t26 98q0 57 -27 99t-75 74.5t-116.5 59.5t-152.5 55l-143 48q-174 57 -249 142 t-75 202z" />
<glyph unicode="T" horiz-adv-x="1091" d="M31 1257v177h1030v-177h-418v-1257h-194v1257h-418z" />
<glyph unicode="U" horiz-adv-x="1482" d="M147 608v826h195v-732q0 -104 14.5 -203.5t56.5 -178t120.5 -126t207.5 -47.5t208 49.5t122 127t56.5 177t13.5 201.5v732h194v-826q0 -303 -148.5 -470t-445.5 -167t-445.5 167t-148.5 470z" />
<glyph unicode="V" horiz-adv-x="1318" d="M8 1434h205l449 -1211l444 1211h205l-549 -1434h-205z" />
<glyph unicode="W" horiz-adv-x="1988" d="M29 1434h204l318 -1213l358 1184h176l363 -1182l315 1211h205l-420 -1434h-215l-338 1176l-350 -1176h-215z" />
<glyph unicode="X" horiz-adv-x="1226" d="M18 0l482 715l-482 719h226l368 -560l398 560h204l-512 -695l515 -739h-205l-414 586l-375 -586h-205z" />
<glyph unicode="Y" horiz-adv-x="1161" d="M-6 1434h205l381 -596l381 596h204l-483 -772v-662h-203v662z" />
<glyph unicode="Z" horiz-adv-x="1124" d="M18 0l770 1257h-677v177h999l-772 -1258h680v-176h-1000z" />
<glyph unicode="[" horiz-adv-x="669" d="M143 -276v1812h527v-139h-357v-1534h357v-139h-527z" />
<glyph unicode="\" horiz-adv-x="1075" d="M72 1434h190l774 -1608h-190z" />
<glyph unicode="]" horiz-adv-x="669" d="M0 -137h356v1534h-356v139h526v-1812h-526v139z" />
<glyph unicode="^" horiz-adv-x="1046" d="M100 895v217l422 442l422 -442v-217l-422 442z" />
<glyph unicode="_" horiz-adv-x="1159" d="M6 -74h1147v-176h-1147v176z" />
<glyph unicode="`" horiz-adv-x="620" d="M119 1352v147l383 -194v-84z" />
<glyph unicode="a" horiz-adv-x="983" d="M49 270q0 104 56.5 172t143.5 109t193.5 58.5t206.5 19.5q0 135 -52 183t-167 48q-131 0 -264 -90l-27 150q135 104 340 104q96 0 164 -25.5t110 -82t61.5 -148.5t19.5 -225v-205q0 -119 20 -165t94 -46h19l-29 -147h-14q-61 0 -102.5 7t-70 24.5t-48 46t-37.5 69.5 q-127 -147 -308 -147q-141 0 -225 80.5t-84 209.5zM238 281q0 -154 155 -154q74 0 142.5 37t113.5 98v240q-221 -8 -316 -58.5t-95 -162.5z" />
<glyph unicode="b" horiz-adv-x="1136" d="M123 0v1536h184v-641q106 129 311 129q100 0 184.5 -42t144 -113.5t92 -167t32.5 -199.5q0 -109 -35 -204t-96 -166t-144.5 -111.5t-179.5 -40.5q-37 0 -79.5 10t-85.5 28.5t-81 46t-63 62.5l-20 -127h-164zM297 502q0 -88 23.5 -155.5t64.5 -113t95.5 -68t115.5 -22.5 q66 0 119 29t90 78t57.5 114.5t20.5 137.5q0 76 -20.5 141.5t-58.5 113.5t-91.5 75.5t-116.5 27.5q-59 0 -113.5 -23.5t-95.5 -69.5t-65.5 -112.5t-24.5 -152.5z" />
<glyph unicode="c" horiz-adv-x="929" d="M68 504q0 115 32.5 210t95 164.5t155.5 107.5t214 38q201 0 309 -59l-28 -166q-127 61 -260 61q-166 0 -248 -92t-82 -264t82 -267.5t248 -95.5q135 0 262 62l24 -148q-112 -75 -305 -75q-121 0 -213 39.5t-156.5 110.5t-97 166t-32.5 208z" />
<glyph unicode="d" horiz-adv-x="1136" d="M66 502q0 104 32.5 199.5t93 167t144.5 113.5t186 42q203 0 307 -127v639h185v-1536h-164l-21 127q-25 -35 -62.5 -61.5t-79.5 -46t-85 -29.5t-80 -10q-96 0 -180 40.5t-145.5 111.5t-96 166t-34.5 204zM254 502q0 -74 19.5 -139.5t55.5 -113.5t88 -77t120 -29 q61 0 117.5 21.5t100.5 65.5t69.5 111t25.5 155q0 86 -26.5 153.5t-70.5 114.5t-100.5 71.5t-115.5 24.5q-66 0 -118 -26.5t-89 -73.5t-56.5 -112.5t-19.5 -145.5z" />
<glyph unicode="e" horiz-adv-x="1048" d="M63 510q0 109 35 203t98.5 162.5t154.5 108.5t204 40q96 0 176 -28.5t136.5 -84t88 -134.5t31.5 -177q0 -57 -8 -98h-727q33 -358 377 -359q154 0 289 60l24 -146q-176 -77 -332 -77h-4q-127 0 -228.5 40.5t-171 111.5t-106.5 168t-37 210zM268 629h529q0 111 -61.5 171 t-184.5 60q-223 0 -283 -231z" />
<glyph unicode="f" horiz-adv-x="677" d="M20 860l25 144h150v253q0 125 60 202t173 77q131 0 209 -27l-29 -155q-59 18 -123 18q-35 0 -55 -7t-31.5 -32.5t-15.5 -75t-4 -131.5v-122h270v-144h-270v-860h-184v860h-175z" />
<glyph unicode="g" horiz-adv-x="1019" d="M53 -209q0 160 178 225q-102 49 -102 127q0 35 27.5 77t91.5 73q-174 125 -174 328q0 86 27.5 159.5t79.5 128t129 85t173 30.5q135 0 256 -74q106 57 244 58h16l-22 -123h-47q-63 0 -119 -15q92 -111 92 -239q0 -80 -28.5 -151.5t-81 -127t-127 -88.5t-168.5 -33 q-80 0 -144 19q-49 -29 -49 -62q0 -18 11.5 -31.5t45 -23.5t94 -21.5t160.5 -29.5q68 -12 139.5 -30.5t130 -49.5t97.5 -79t43 -120q0 -63 -35 -120.5t-99.5 -100.5t-158.5 -68.5t-211 -25.5q-119 0 -207 24.5t-146 66.5t-87 97.5t-29 114.5zM229 -205q0 -72 80 -118 t221 -46q147 0 228.5 48.5t81.5 111.5q-1 107 -269 156q-35 0 -182 24q-70 -20 -115 -71.5t-45 -104.5zM250 627q0 -117 66.5 -185.5t172.5 -68.5q111 0 174.5 73.5t63.5 186.5q0 117 -65.5 180.5t-176.5 63.5q-113 0 -174 -69t-61 -181z" />
<glyph unicode="h" horiz-adv-x="1110" d="M123 0v1536h186v-641q100 129 291 129q395 0 395 -487v-537h-184v537q0 178 -53 250.5t-187 72.5q-180 0 -262 -131v-729h-186z" />
<glyph unicode="i" horiz-adv-x="434" d="M125 0v1004h184v-1004h-184zM125 1229v205h184v-205h-184z" />
<glyph unicode="j" horiz-adv-x="434" d="M-25 -354q45 4 74 14t45.5 31.5t23.5 59.5t7 99v1154h184v-1223q0 -66 -20.5 -112t-54 -77.5t-80 -50t-97.5 -26.5l-61 -11zM125 1229v205h184v-205h-184z" />
<glyph unicode="k" horiz-adv-x="917" d="M123 0v1536h184v-985l369 453h225l-414 -463l424 -541h-225l-379 510v-510h-184z" />
<glyph unicode="l" horiz-adv-x="483" d="M123 221v1315h184v-1208q0 -63 5 -103.5t21.5 -62t48.5 -28.5t87 -7l-27 -147h-59q-135 0 -197.5 68.5t-62.5 172.5z" />
<glyph unicode="m" horiz-adv-x="1796" d="M125 0v1004h143l21 -107q82 74 149.5 100.5t151.5 26.5q229 0 340 -201q104 201 366 201q385 0 385 -432v-592h-184v590q0 141 -55.5 205.5t-179.5 64.5q-266 0 -267 -278v-582h-184v553q0 172 -60.5 239.5t-175.5 67.5q-193 0 -266 -131v-729h-184z" />
<glyph unicode="n" horiz-adv-x="1144" d="M125 0v1004h143l21 -107q143 127 332 127q410 0 409 -471v-553h-184v553q0 162 -60.5 234.5t-201.5 72.5q-201 0 -275 -131v-729h-184z" />
<glyph unicode="o" horiz-adv-x="1126" d="M66 502q0 113 34.5 208t99 164.5t157 109.5t206.5 40q115 0 207 -40t156.5 -110.5t99.5 -166t35 -205.5q0 -225 -135 -375q-133 -147 -363 -147q-117 0 -209 39.5t-156.5 109.5t-98 166t-33.5 207zM254 502q0 -172 81 -265.5t228 -93.5q150 0 229.5 96.5t79.5 266.5 q0 167 -81 260q-80 94 -228 94q-147 0 -228 -93t-81 -265z" />
<glyph unicode="p" horiz-adv-x="1140" d="M125 -496v1500h143l21 -144q70 84 145.5 124t192.5 40q102 0 184 -42t140.5 -114.5t90 -167t31.5 -198.5q0 -113 -29.5 -209t-86 -166t-140 -108.5t-192.5 -38.5q-37 0 -81 10t-87 28.5t-82 46t-66 62.5v-623h-184zM299 502q0 -90 24.5 -156.5t66.5 -112t97.5 -68 t116.5 -22.5q63 0 115.5 28t89.5 75t56.5 112.5t19.5 143.5q0 80 -19.5 145.5t-56.5 112.5t-89.5 73.5t-115.5 26.5q-59 0 -114.5 -24.5t-97.5 -70.5t-67.5 -112.5t-25.5 -150.5z" />
<glyph unicode="q" horiz-adv-x="1140" d="M68 502q0 106 31.5 200.5t90 166t140.5 113.5t184 42q117 0 192.5 -40t145.5 -124l20 144h144v-1500h-185v623q-25 -33 -63.5 -60.5t-81.5 -47t-87 -29.5t-83 -10q-109 0 -192.5 38.5t-141 108.5t-86 166t-28.5 209zM256 502q0 -78 19.5 -143.5t56.5 -112.5t88 -75 t117 -28q61 0 117.5 23.5t97.5 69t65.5 113t24.5 153.5q0 84 -25.5 150.5t-67.5 112.5t-97.5 70.5t-114.5 24.5q-66 0 -117 -26.5t-88 -73.5t-56.5 -112.5t-19.5 -145.5z" />
<glyph unicode="r" horiz-adv-x="657" d="M125 0v1004h151l23 -166q94 106 171 154t169 48h16l-41 -202h-63q-31 0 -65.5 -11.5t-66.5 -30t-58.5 -41t-38.5 -46.5v-709h-197z" />
<glyph unicode="s" horiz-adv-x="847" d="M66 68l22 178q41 -37 126 -70t187 -33q201 0 201 125q0 113 -201 166q-61 14 -115.5 33.5t-97.5 51.5t-70.5 81t-31.5 123q0 129 92 215t285 86q137 0 272 -66l-22 -167q-106 88 -246 88q-195 0 -195 -136q0 -33 10.5 -55t37 -39.5t71.5 -34t115 -36.5q43 -12 93 -34 t93 -56.5t72 -86t29 -122.5q0 -49 -16.5 -102.5t-59.5 -96.5t-117.5 -71.5t-189.5 -28.5q-219 0 -344 88z" />
<glyph unicode="t" horiz-adv-x="690" d="M37 860l16 144h156v247l184 19v-266h264v-144h-264v-528q0 -72 4 -113t23.5 -61.5t62.5 -25.5t121 -5h47l-14 -147h-166q-133 0 -197.5 69.5t-64.5 169.5v641h-172z" />
<glyph unicode="u" horiz-adv-x="1073" d="M115 420v584h184v-533q0 -328 233 -328q160 0 232 115v746h184v-1004h-164l-20 111q-94 -131 -279 -131q-371 0 -370 440z" />
<glyph unicode="v" horiz-adv-x="1007" d="M18 1004h205l281 -801l278 801h207l-381 -1004h-207z" />
<glyph unicode="w" horiz-adv-x="1484" d="M25 1004h217l192 -801l213 770h191l215 -770l192 801h217l-303 -1004h-207l-209 741l-211 -741h-206z" />
<glyph unicode="x" horiz-adv-x="970" d="M23 0l350 500l-342 504h207l251 -398l232 398h215l-330 -488l342 -516h-207l-254 395l-258 -395h-206z" />
<glyph unicode="y" horiz-adv-x="1034" d="M14 1004h205l313 -746l283 746h205l-614 -1500h-205l231 541z" />
<glyph unicode="z" horiz-adv-x="964" d="M45 0l535 860h-514v144h847l-534 -861h524v-143h-858z" />
<glyph unicode="{" horiz-adv-x="612" d="M39 629q78 53 112.5 123.5t34.5 181.5q0 20 -3 63t-6 89.5t-5 87t-2 55.5q0 145 99.5 222t338.5 85v-141q-109 -2 -167 -22.5t-84.5 -61.5t-32 -106.5t-5.5 -160.5q0 -10 1.5 -34.5t2.5 -52t2 -52t1 -37.5q0 -37 -7.5 -68.5t-26 -59t-51 -54.5t-85.5 -57 q53 -29 86.5 -54.5t52 -51t25 -54.5t6.5 -61q0 -10 -1 -36t-2 -55.5t-2.5 -58.5t-1.5 -43q0 -111 8.5 -176.5t38 -102t87 -51t155.5 -20.5v-141q-236 8 -337 83t-101 222q0 14 2 55t5 88t6 90t3 64q0 111 -32.5 181.5t-114.5 121.5z" />
<glyph unicode="|" horiz-adv-x="468" d="M143 -428v1964h183v-1964h-183z" />
<glyph unicode="}" horiz-adv-x="612" d="M4 -135q111 2 170 22.5t85 63.5t30 108.5t4 155.5q0 14 -1 42t-2 57.5t-2 55t-1 38.5q0 35 7 63.5t25.5 53t51 50t86.5 54.5q-53 31 -86 57.5t-51.5 54t-25.5 59t-7 68.5q0 12 1 37t2 52.5t2 52t1 34.5q0 111 -8.5 176.5t-38 102.5t-87 51.5t-155.5 20.5v141 q240 -8 339 -85t99 -222q0 -14 -3 -55t-6 -87.5t-5 -89.5t-2 -63q0 -111 35 -181.5t112 -123.5q-82 -51 -114.5 -122t-32.5 -181q0 -20 2 -63.5t5 -90.5t6 -88t3 -55q0 -147 -101 -222t-337 -83v141z" />
<glyph unicode="~" horiz-adv-x="931" d="M111 389q12 45 34.5 80t51 58.5t61.5 34.5t64 11q27 0 63.5 -15t83.5 -34.5t80 -35t59 -15.5q86 0 142 105l69 -19q-23 -88 -82 -140t-137 -52q-25 0 -59.5 16t-79.5 35.5t-78 36t-53 16.5q-109 0 -146 -100z" />
<glyph unicode="&#xa1;" horiz-adv-x="458" d="M102 -512l62 1126h131l61 -1126h-254zM143 848v176h172v-176h-172z" />
<glyph unicode="&#xa2;" horiz-adv-x="976" d="M70 709q0 100 28.5 191t84 162t136 118t185.5 61l-35 291h184l-32 -287q88 -6 146 -21.5t105 -43.5l-16 -160q-61 33 -124.5 50t-129.5 17q-84 0 -146.5 -29.5t-104.5 -80.5t-63.5 -120t-21.5 -146q0 -168 90 -270.5t250 -102.5q125 0 250 65l16 -159q-35 -23 -84 -41.5 t-165 -24.5l30 -241h-184l35 245q-94 12 -174 55.5t-137.5 111t-90 158.5t-32.5 202z" />
<glyph unicode="&#xa3;" horiz-adv-x="1024" d="M70 0q51 72 88 141.5t61.5 144t40.5 159.5t27 188h-195l29 176h178v235q0 82 13.5 157t52 133.5t109.5 93t183 34.5q141 0 219 -50t107 -126l-131 -121q-29 59 -75 87t-101 28q-63 0 -99 -16.5t-54.5 -51t-22.5 -87t-4 -126.5v-190h393l-31 -176h-375q-6 -78 -11 -133.5 t-15.5 -105.5t-27.5 -100t-44 -118h535v-176h-850z" />
<glyph unicode="&#xa4;" horiz-adv-x="1282" d="M125 713q0 225 164 395l-160 209l57 49l160 -211q156 78 295 78q145 0 293 -80l164 213l57 -49l-160 -211q162 -168 162 -393q0 -221 -164 -398l162 -206l-59 -50l-162 211q-143 -78 -293 -77q-152 0 -293 77l-162 -211l-57 50l158 208q-162 168 -162 396zM309 713 q0 -86 22.5 -159t64.5 -125t103.5 -81t141.5 -29t141.5 30t103.5 83t64.5 125t22.5 156q0 173 -88 282q-86 111 -244 111q-80 0 -141.5 -29.5t-103.5 -82t-64.5 -124t-22.5 -157.5z" />
<glyph unicode="&#xa5;" horiz-adv-x="1380" d="M61 1434h191l440 -629l441 629h190l-530 -787h362l-43 -110h-321v-127h364l-43 -111h-321v-299h-197v299h-365l43 111h322v127h-365l43 110h320z" />
<glyph unicode="&#xa6;" horiz-adv-x="475" d="M147 334h181v-764h-181v764zM147 631v905h181v-905h-181z" />
<glyph unicode="&#xa7;" horiz-adv-x="933" d="M76 676q0 238 223 305q-80 57 -105.5 109.5t-25.5 111.5q0 72 19.5 133.5t61.5 105.5t105.5 69.5t151.5 25.5q176 0 301 -82l-27 -129q-139 88 -266 88q-92 0 -145.5 -51t-53.5 -125q0 -63 40 -101t100.5 -65t131 -52.5t131 -66.5t100.5 -105.5t40 -168.5 q0 -203 -213 -293q43 -33 66.5 -59.5t36 -54t15.5 -58.5t3 -72q0 -61 -20.5 -118.5t-62.5 -100.5t-107.5 -68.5t-153.5 -25.5t-170 22.5t-123 57.5l27 129q139 -84 268 -84q98 0 154.5 42t56.5 128q0 72 -41 111.5t-103.5 64.5t-135 46.5t-135 59t-103.5 100t-41 171.5z M215 700q0 -166 332 -251q74 20 117 79.5t43 135.5q0 165 -289 233q-29 -2 -65 -13.5t-66.5 -35t-51 -60t-20.5 -88.5z" />
<glyph unicode="&#xa8;" horiz-adv-x="864" d="M178 1229v205h144v-205h-144zM543 1229v205h143v-205h-143z" />
<glyph unicode="&#xa9;" horiz-adv-x="1474" d="M100 748q0 152 47.5 275.5t132.5 211.5t201.5 136t255.5 48t256 -48t201 -137t131 -213t47 -273q0 -150 -47 -273t-131 -212t-200.5 -138t-256.5 -49q-139 0 -257 49t-201.5 137t-131 212t-47.5 274zM207 748q0 -129 33.5 -235.5t101.5 -183.5t167 -119t228 -42t227.5 43 t166 120t101.5 183.5t34 233.5t-35 233t-101.5 183t-165 120t-227.5 43t-227 -42t-166 -118.5t-102.5 -183t-34.5 -235.5zM432 743q0 78 23.5 141.5t66.5 107.5t102.5 68.5t131.5 24.5q98 0 184 -38l-14 -123q-92 39 -170 39q-92 0 -139.5 -60.5t-47.5 -159.5 q0 -98 47.5 -158.5t139.5 -60.5q76 0 170 41l14 -121q-78 -41 -184 -41q-72 0 -131.5 25t-102.5 69t-66.5 106.5t-23.5 139.5z" />
<glyph unicode="&#xaa;" horiz-adv-x="714" d="M68 1063q0 59 35.5 98t89 62.5t113 34t106.5 12.5q-4 86 -109 86q-66 0 -170 -41l-12 123q111 47 223 47q223 0 223 -221v-164q0 -61 9.5 -73.5t44.5 -12.5h20l-14 -125h-56q-98 0 -137 63q-63 -63 -188 -63q-76 0 -127 47t-51 127zM229 1069q0 -66 82 -65q56 -1 103 34 v129q-72 -2 -128.5 -27.5t-56.5 -70.5z" />
<glyph unicode="&#xab;" horiz-adv-x="1153" d="M31 582l301 422h205l-301 -422l301 -422h-205zM563 582l301 422h207l-303 -422l303 -422h-207z" />
<glyph unicode="&#xac;" horiz-adv-x="1220" d="M135 709v122h942v-522h-112v400h-830z" />
<glyph unicode="&#xad;" horiz-adv-x="868" d="M117 471v193h635v-193h-635z" />
<glyph unicode="&#xae;" horiz-adv-x="1474" d="M100 748q0 152 47.5 275.5t132.5 211.5t201.5 136t255.5 48t256 -48t201 -137t131 -213t47 -273q0 -150 -47 -273t-131 -212t-200.5 -138t-256.5 -49q-139 0 -257 49t-201.5 137t-131 212t-47.5 274zM205 748q0 -127 33.5 -234.5t101.5 -185.5t167 -120t230 -42 q129 0 228.5 42t166 120t101.5 185.5t35 234.5t-35 234.5t-102.5 184t-166 119.5t-227.5 43t-228 -43t-167 -119.5t-102.5 -184.5t-34.5 -234zM500 430v657h241q111 0 168.5 -46t57.5 -158q0 -104 -111 -178l145 -275h-129l-133 240h-112v-240h-127zM627 784h82 q125 0 125 103q0 49 -26.5 74.5t-94.5 25.5h-86v-203z" />
<glyph unicode="&#xb0;" horiz-adv-x="681" d="M70 1266q0 61 18 112.5t54 88t86.5 58t111.5 21.5t112.5 -21.5t86 -59.5t54 -89t19.5 -110q1 -121 -73 -201q-74 -78 -199 -78q-129 0 -199.5 79t-70.5 200zM160 1266q0 -98 50 -162t140 -64q43 0 74 19.5t52.5 51.5t31.5 69t10 86q0 45 -11 86t-33.5 72.5t-55.5 50 t-78 18.5q-43 0 -76 -18.5t-56.5 -49t-35.5 -72.5t-12 -87z" />
<glyph unicode="&#xb1;" horiz-adv-x="1019" d="M131 86v137h758v-137h-758zM131 670v137h313v283h131v-283h314v-137h-314v-295h-131v295h-313z" />
<glyph unicode="&#xb2;" horiz-adv-x="622" d="M51 655q117 158 184.5 257.5t101.5 161t42 92t8 48.5q0 51 -30.5 80t-86.5 29q-104 0 -190 -121l-19 133q23 39 85.5 75t154.5 36q61 0 104.5 -16.5t71 -45t40.5 -66.5t13 -81q0 -139 -217 -438h246v-144h-508z" />
<glyph unicode="&#xb3;" horiz-adv-x="634" d="M39 700l37 136q66 -53 180 -54q160 0 160 107q0 61 -32 96t-120 35h-106l12 113h55q158 0 158 98q0 90 -123 90q-100 0 -145 -35l-23 109q53 51 187 51q74 0 123 -18.5t78.5 -47t43 -65.5t13.5 -76q0 -109 -80 -154q111 -66 110 -190q0 -61 -24.5 -108.5t-66.5 -80 t-97.5 -50t-116.5 -17.5q-35 0 -70.5 6t-66.5 15.5t-54.5 19.5t-31.5 20z" />
<glyph unicode="&#xb4;" horiz-adv-x="620" d="M119 1221v84l383 194v-147z" />
<glyph unicode="&#xb5;" horiz-adv-x="1210" d="M150 -496v1500h182v-529q0 -172 54 -253t196 -81q78 0 129 27t108 92v744h178v-656q0 -117 19.5 -169t77.5 -52h45l-33 -147h-53q-162 0 -219 149q-68 -78 -126.5 -115t-148.5 -37q-66 0 -114 15.5t-115 62.5v-551h-180z" />
<glyph unicode="&#xb6;" horiz-adv-x="1273" d="M68 971q0 92 38.5 176t113.5 147.5t185.5 101.5t251.5 38h531v-138h-154v-1296h-98v1296h-207v-1296h-84v498q-143 8 -250.5 49t-180.5 105.5t-109.5 146.5t-36.5 172z" />
<glyph unicode="&#xb7;" horiz-adv-x="487" d="M117 436v266h254v-266h-254z" />
<glyph unicode="&#xb8;" horiz-adv-x="620" d="M295 -393l139 270l135 12l-180 -272z" />
<glyph unicode="&#xb9;" horiz-adv-x="442" d="M47 1309q18 2 43 15t46.5 29.5t40 37t24.5 39.5h116v-775h-153v566q-66 -29 -105 -35z" />
<glyph unicode="&#xba;" horiz-adv-x="757" d="M68 1188q0 61 21.5 115.5t61 94.5t98 63.5t130.5 23.5t129 -23.5t98 -63.5t62.5 -94.5t21.5 -115.5q0 -125 -86 -213q-84 -86 -225 -86q-72 0 -129 23.5t-97 63.5t-62.5 94t-22.5 118zM225 1188q0 -78 41 -127t113 -49t112.5 49t40.5 127q1 76 -40 127q-41 49 -113 49 t-113 -50t-41 -126z" />
<glyph unicode="&#xbb;" horiz-adv-x="1153" d="M84 160l303 422l-303 422h207l301 -422l-301 -422h-207zM616 160l302 422l-302 422h205l301 -422l-301 -422h-205z" />
<glyph unicode="&#xbc;" horiz-adv-x="1468" d="M80 1309q18 2 43 15t46.5 29.5t40 37t24.5 39.5h116v-775h-153v566q-66 -29 -105 -35zM125 -174l774 1608h205l-774 -1608h-205zM788 213l383 564h127v-447h101v-117h-101v-211h-151v211h-359zM995 330h152v225z" />
<glyph unicode="&#xbd;" horiz-adv-x="1492" d="M74 1309q18 2 43 15t46.5 29.5t40 37t24.5 39.5h116v-775h-153v566q-66 -29 -105 -35zM119 -174l774 1608h205l-774 -1608h-205zM913 0q117 158 184.5 257.5t101.5 161t42 92t8 48.5q0 51 -30.5 80t-86.5 29q-104 0 -190 -121l-19 133q23 39 85.5 75t154.5 36 q61 0 104.5 -16.5t71 -45t40.5 -66.5t13 -81q0 -139 -217 -438h246v-144h-508z" />
<glyph unicode="&#xbe;" horiz-adv-x="1812" d="M66 700l37 136q66 -53 180 -54q160 0 160 107q0 61 -32 96t-120 35h-106l12 113h55q158 0 158 98q0 90 -123 90q-100 0 -145 -35l-23 109q53 51 187 51q74 0 123 -18.5t78.5 -47t43 -65.5t13.5 -76q0 -109 -80 -154q111 -66 110 -190q0 -61 -24.5 -108.5t-66.5 -80 t-97.5 -50t-116.5 -17.5q-35 0 -70.5 6t-66.5 15.5t-54.5 19.5t-31.5 20zM473 -174l774 1608h205l-774 -1608h-205zM1132 213l383 564h127v-447h101v-117h-101v-211h-151v211h-359zM1339 330h152v225z" />
<glyph unicode="&#xbf;" horiz-adv-x="919" d="M127 -129q0 72 36 149.5t87 143.5l102 133q53 68 90 134.5t35 127.5v55h121q6 -84 6 -92q0 -63 -22.5 -117.5t-57.5 -104.5t-73.5 -98t-73.5 -98.5t-57.5 -106.5t-22.5 -122q0 -61 21.5 -108.5t57.5 -79t83 -48t100 -16.5q45 0 88 13.5t80 34t63.5 45t36.5 46.5l52 -137 q-39 -59 -127 -98t-199 -39q-96 0 -175 34t-134.5 87t-86 121.5t-30.5 140.5zM440 848v176h187v-176h-187z" />
<glyph unicode="&#xc0;" d="M14 0l514 1434h205l514 -1434h-205l-137 387h-549l-137 -387h-205zM418 563h426l-213 598zM441 1780v147l383 -194v-84z" />
<glyph unicode="&#xc1;" d="M14 0l514 1434h205l514 -1434h-205l-137 387h-549l-137 -387h-205zM418 563h426l-213 598zM441 1649v84l383 194v-147z" />
<glyph unicode="&#xc2;" d="M14 0l514 1434h205l514 -1434h-205l-137 387h-549l-137 -387h-205zM332 1663v74l301 217l301 -217v-74l-301 168zM418 563h426l-213 598z" />
<glyph unicode="&#xc3;" d="M14 0l514 1434h205l514 -1434h-205l-137 387h-549l-137 -387h-205zM278 1677q12 45 33 80t51.5 58.5t63.5 35t63 11.5q27 0 64 -15.5t84 -35t83 -35t56 -15.5q86 0 141 105l70 -19q-23 -88 -82 -140t-137 -52q-25 0 -61.5 16.5t-78.5 35.5t-75 35.5t-55 16.5 q-109 0 -146 -100zM418 563h426l-213 598z" />
<glyph unicode="&#xc4;" d="M14 0l514 1434h205l514 -1434h-205l-137 387h-549l-137 -387h-205zM379 1657v205h144v-205h-144zM418 563h426l-213 598zM744 1657v205h143v-205h-143z" />
<glyph unicode="&#xc5;" d="M14 0l514 1434h205l514 -1434h-205l-137 387h-549l-137 -387h-205zM418 563h426l-213 598zM420 1790q0 80 59.5 132t165.5 52q49 0 87 -15t62.5 -42t37 -59.5t12.5 -67.5q0 -70 -49 -126t-148 -56h-14q-100 0 -156.5 53t-56.5 129zM510 1790q0 -55 37 -89t86 -34t86 34 t37 89q0 53 -36 87t-87 34t-87 -34t-36 -87z" />
<glyph unicode="&#xc6;" horiz-adv-x="1771" d="M-14 0l700 1434h989v-179h-639v-417h494v-176h-494v-486h660v-176h-893v369h-438l-189 -369h-190zM453 557h350v694z" />
<glyph unicode="&#xc7;" d="M80 717q0 166 53 303t148.5 235.5t226.5 152.5t289 54q219 0 397 -84l-20 -180l-117 41q-117 47 -260 47q-121 0 -214.5 -43t-158 -118.5t-98 -180t-33.5 -227.5q0 -121 32.5 -225.5t97 -181.5t160 -120t218.5 -43q31 0 59.5 2.5t59.5 8.5l51 10q16 2 55 16l47 15 q10 2 53 18l48 16l20 -180q-178 -82 -395 -82q-158 0 -290 53.5t-227.5 151.5t-148.5 235.5t-53 305.5zM492 -393l139 270l135 12l-180 -272z" />
<glyph unicode="&#xc8;" horiz-adv-x="1134" d="M164 0v1434h874v-177h-680v-419h541v-176h-541v-486h699v-176h-893zM377 1780v147l383 -194v-84z" />
<glyph unicode="&#xc9;" horiz-adv-x="1134" d="M164 0v1434h874v-177h-680v-419h541v-176h-541v-486h699v-176h-893zM375 1649v84l383 194v-147z" />
<glyph unicode="&#xca;" horiz-adv-x="1134" d="M164 0v1434h874v-177h-680v-419h541v-176h-541v-486h699v-176h-893zM265 1663v74l301 217l301 -217v-74l-301 168z" />
<glyph unicode="&#xcb;" horiz-adv-x="1134" d="M164 0v1434h874v-177h-680v-419h541v-176h-541v-486h699v-176h-893zM311 1657v205h144v-205h-144zM676 1657v205h143v-205h-143z" />
<glyph unicode="&#xcc;" horiz-adv-x="522" d="M72 1780v147l383 -194v-84zM164 0v1434h194v-1434h-194z" />
<glyph unicode="&#xcd;" horiz-adv-x="522" d="M74 1649v84l383 194v-147zM164 0v1434h194v-1434h-194z" />
<glyph unicode="&#xce;" horiz-adv-x="522" d="M-32 1663v74l301 217l301 -217v-74l-301 168zM164 0v1434h194v-1434h-194z" />
<glyph unicode="&#xcf;" horiz-adv-x="522" d="M10 1657v205h144v-205h-144zM164 0v1434h194v-1434h-194zM375 1657v205h143v-205h-143z" />
<glyph unicode="&#xd0;" horiz-adv-x="1488" d="M-23 641v131h199v662h524q156 0 286 -50.5t224.5 -142.5t145.5 -225t51 -299t-51 -298t-143.5 -225.5t-222.5 -143.5t-290 -50h-524v641h-199zM360 178h340q242 0 370 143.5t128 395.5q0 125 -32.5 225t-95 170t-156 107.5t-214.5 37.5h-340v-485h273v-131h-273v-463z " />
<glyph unicode="&#xd1;" horiz-adv-x="1441" d="M164 0v1434h211l706 -1074v1074h197v-1434h-166l-754 1133v-1133h-194zM366 1677q12 45 33 80t51.5 58.5t63.5 35t63 11.5q27 0 64 -15.5t84 -35t83 -35t56 -15.5q86 0 141 105l70 -19q-23 -88 -82 -140t-137 -52q-25 0 -61.5 16.5t-78.5 35.5t-75 35.5t-55 16.5 q-109 0 -146 -100z" />
<glyph unicode="&#xd2;" horiz-adv-x="1572" d="M80 717q0 170 53 307t146.5 234.5t223.5 150.5t283 53q154 0 284 -53t224.5 -151.5t146.5 -235.5t52 -305q0 -338 -199 -543q-197 -203 -508 -203q-156 0 -285.5 53.5t-223 150.5t-145.5 234.5t-52 307.5zM293 717q0 -123 32.5 -227.5t95 -180.5t155 -119t210.5 -43 q119 0 211.5 43t156 120t95 180.5t31.5 226.5q0 249 -129 409q-127 160 -365 160q-119 0 -211 -43t-154.5 -118.5t-95 -180t-32.5 -227.5zM596 1780v147l383 -194v-84z" />
<glyph unicode="&#xd3;" horiz-adv-x="1572" d="M80 717q0 170 53 307t146.5 234.5t223.5 150.5t283 53q154 0 284 -53t224.5 -151.5t146.5 -235.5t52 -305q0 -338 -199 -543q-197 -203 -508 -203q-156 0 -285.5 53.5t-223 150.5t-145.5 234.5t-52 307.5zM293 717q0 -123 32.5 -227.5t95 -180.5t155 -119t210.5 -43 q119 0 211.5 43t156 120t95 180.5t31.5 226.5q0 249 -129 409q-127 160 -365 160q-119 0 -211 -43t-154.5 -118.5t-95 -180t-32.5 -227.5zM594 1649v84l383 194v-147z" />
<glyph unicode="&#xd4;" horiz-adv-x="1572" d="M80 717q0 170 53 307t146.5 234.5t223.5 150.5t283 53q154 0 284 -53t224.5 -151.5t146.5 -235.5t52 -305q0 -338 -199 -543q-197 -203 -508 -203q-156 0 -285.5 53.5t-223 150.5t-145.5 234.5t-52 307.5zM293 717q0 -123 32.5 -227.5t95 -180.5t155 -119t210.5 -43 q119 0 211.5 43t156 120t95 180.5t31.5 226.5q0 249 -129 409q-127 160 -365 160q-119 0 -211 -43t-154.5 -118.5t-95 -180t-32.5 -227.5zM486 1663v74l301 217l301 -217v-74l-301 168z" />
<glyph unicode="&#xd5;" horiz-adv-x="1572" d="M80 717q0 170 53 307t146.5 234.5t223.5 150.5t283 53q154 0 284 -53t224.5 -151.5t146.5 -235.5t52 -305q0 -338 -199 -543q-197 -203 -508 -203q-156 0 -285.5 53.5t-223 150.5t-145.5 234.5t-52 307.5zM293 717q0 -123 32.5 -227.5t95 -180.5t155 -119t210.5 -43 q119 0 211.5 43t156 120t95 180.5t31.5 226.5q0 249 -129 409q-127 160 -365 160q-119 0 -211 -43t-154.5 -118.5t-95 -180t-32.5 -227.5zM432 1677q12 45 33 80t51.5 58.5t63.5 35t63 11.5q27 0 64 -15.5t84 -35t83 -35t56 -15.5q86 0 141 105l70 -19q-23 -88 -82 -140 t-137 -52q-25 0 -61.5 16.5t-78.5 35.5t-75 35.5t-55 16.5q-109 0 -146 -100z" />
<glyph unicode="&#xd6;" horiz-adv-x="1572" d="M80 717q0 170 53 307t146.5 234.5t223.5 150.5t283 53q154 0 284 -53t224.5 -151.5t146.5 -235.5t52 -305q0 -338 -199 -543q-197 -203 -508 -203q-156 0 -285.5 53.5t-223 150.5t-145.5 234.5t-52 307.5zM293 717q0 -123 32.5 -227.5t95 -180.5t155 -119t210.5 -43 q119 0 211.5 43t156 120t95 180.5t31.5 226.5q0 249 -129 409q-127 160 -365 160q-119 0 -211 -43t-154.5 -118.5t-95 -180t-32.5 -227.5zM532 1657v205h144v-205h-144zM897 1657v205h143v-205h-143z" />
<glyph unicode="&#xd7;" horiz-adv-x="899" d="M125 317l252 250l-252 250l74 74l250 -252l251 252l74 -74l-254 -250l254 -250l-74 -73l-251 252l-250 -252z" />
<glyph unicode="&#xd8;" horiz-adv-x="1572" d="M80 717q0 170 53 307t146.5 234.5t223.5 150.5t283 53q176 0 353 -86l63 90h189l-125 -182q227 -227 227 -569q0 -166 -52 -302.5t-145.5 -233.5t-224.5 -150.5t-287 -53.5q-186 0 -360 88l-86 -124h-191l150 215q-217 231 -217 563zM301 715q0 -201 113 -396l616 904 q-135 57 -246 57q-117 0 -207 -42t-151 -118t-93 -179t-32 -226zM532 215q141 -59 254 -59q119 0 210 42t152.5 117.5t92.5 179t31 226.5q0 258 -119 401z" />
<glyph unicode="&#xd9;" horiz-adv-x="1486" d="M147 608v826h195v-732q0 -104 14.5 -203.5t56.5 -178t120.5 -126t207.5 -47.5t208 49.5t122 127t56.5 177t13.5 201.5v732h194v-826q0 -303 -148.5 -470t-445.5 -167t-445.5 167t-148.5 470zM551 1780v147l383 -194v-84z" />
<glyph unicode="&#xda;" horiz-adv-x="1486" d="M147 608v826h195v-732q0 -104 14.5 -203.5t56.5 -178t120.5 -126t207.5 -47.5t208 49.5t122 127t56.5 177t13.5 201.5v732h194v-826q0 -303 -148.5 -470t-445.5 -167t-445.5 167t-148.5 470zM551 1649v84l383 194v-147z" />
<glyph unicode="&#xdb;" horiz-adv-x="1486" d="M147 608v826h195v-732q0 -104 14.5 -203.5t56.5 -178t120.5 -126t207.5 -47.5t208 49.5t122 127t56.5 177t13.5 201.5v732h194v-826q0 -303 -148.5 -470t-445.5 -167t-445.5 167t-148.5 470zM441 1663v74l301 217l301 -217v-74l-301 168z" />
<glyph unicode="&#xdc;" horiz-adv-x="1486" d="M147 608v826h195v-732q0 -104 14.5 -203.5t56.5 -178t120.5 -126t207.5 -47.5t208 49.5t122 127t56.5 177t13.5 201.5v732h194v-826q0 -303 -148.5 -470t-445.5 -167t-445.5 167t-148.5 470zM489 1657v205h144v-205h-144zM854 1657v205h143v-205h-143z" />
<glyph unicode="&#xdd;" horiz-adv-x="1161" d="M-6 1434h205l381 -596l381 596h204l-483 -772v-662h-203v662zM414 1649v84l383 194v-147z" />
<glyph unicode="&#xde;" horiz-adv-x="1167" d="M164 0v1434h205v-246h254q100 0 190 -15.5t158.5 -63.5t109.5 -136t41 -232q0 -139 -42 -232t-107.5 -149.5t-143 -80t-149.5 -23.5h-311v-256h-205zM369 430h274q150 0 213.5 79t63.5 224q0 76 -16.5 130.5t-55.5 87t-103.5 48t-158.5 15.5h-217v-584z" />
<glyph unicode="&#xdf;" horiz-adv-x="1140" d="M33 860l24 144h150v178q0 86 31.5 151.5t87 110.5t129 68.5t157.5 23.5q72 0 141.5 -18.5t124 -58.5t87 -103.5t32.5 -155.5t-31.5 -162.5t-68.5 -122t-68.5 -86t-31.5 -55.5q0 -16 24.5 -39.5t61.5 -53.5t80 -69t79.5 -87t61 -105.5t24.5 -126.5q0 -86 -38.5 -145.5 t-102 -96.5t-146.5 -54t-169 -17q-37 0 -57.5 2t-45.5 4v157q86 0 156 3.5t117 16.5t72.5 43t25.5 85q0 57 -25.5 105t-64.5 90t-84 78t-84 70t-64.5 64.5t-25.5 61.5q0 37 33.5 80t75.5 95t76 116.5t34 144.5q0 53 -16.5 87t-44 54.5t-64.5 27.5t-78 7q-111 0 -164 -52 t-53 -198v-1401h-184v1139h-174z" />
<glyph unicode="&#xe0;" horiz-adv-x="983" d="M49 270q0 104 56.5 172t143.5 109t193.5 58.5t206.5 19.5q0 135 -52 183t-167 48q-131 0 -264 -90l-27 150q135 104 340 104q96 0 164 -25.5t110 -82t61.5 -148.5t19.5 -225v-205q0 -119 20 -165t94 -46h19l-29 -147h-14q-61 0 -102.5 7t-70 24.5t-48 46t-37.5 69.5 q-127 -147 -308 -147q-141 0 -225 80.5t-84 209.5zM238 281q0 -154 155 -154q74 0 142.5 37t113.5 98v240q-221 -8 -316 -58.5t-95 -162.5zM301 1352v147l383 -194v-84z" />
<glyph unicode="&#xe1;" horiz-adv-x="983" d="M49 270q0 104 56.5 172t143.5 109t193.5 58.5t206.5 19.5q0 135 -52 183t-167 48q-131 0 -264 -90l-27 150q135 104 340 104q96 0 164 -25.5t110 -82t61.5 -148.5t19.5 -225v-205q0 -119 20 -165t94 -46h19l-29 -147h-14q-61 0 -102.5 7t-70 24.5t-48 46t-37.5 69.5 q-127 -147 -308 -147q-141 0 -225 80.5t-84 209.5zM238 281q0 -154 155 -154q74 0 142.5 37t113.5 98v240q-221 -8 -316 -58.5t-95 -162.5zM299 1221v84l383 194v-147z" />
<glyph unicode="&#xe2;" horiz-adv-x="983" d="M49 270q0 104 56.5 172t143.5 109t193.5 58.5t206.5 19.5q0 135 -52 183t-167 48q-131 0 -264 -90l-27 150q135 104 340 104q96 0 164 -25.5t110 -82t61.5 -148.5t19.5 -225v-205q0 -119 20 -165t94 -46h19l-29 -147h-14q-61 0 -102.5 7t-70 24.5t-48 46t-37.5 69.5 q-127 -147 -308 -147q-141 0 -225 80.5t-84 209.5zM191 1235v74l301 217l301 -217v-74l-301 168zM238 281q0 -154 155 -154q74 0 142.5 37t113.5 98v240q-221 -8 -316 -58.5t-95 -162.5z" />
<glyph unicode="&#xe3;" horiz-adv-x="983" d="M49 270q0 104 56.5 172t143.5 109t193.5 58.5t206.5 19.5q0 135 -52 183t-167 48q-131 0 -264 -90l-27 150q135 104 340 104q96 0 164 -25.5t110 -82t61.5 -148.5t19.5 -225v-205q0 -119 20 -165t94 -46h19l-29 -147h-14q-61 0 -102.5 7t-70 24.5t-48 46t-37.5 69.5 q-127 -147 -308 -147q-141 0 -225 80.5t-84 209.5zM131 1249q12 45 33 80t51.5 58.5t63.5 35t63 11.5q27 0 64 -15.5t84 -35t83 -35t56 -15.5q86 0 141 105l70 -19q-23 -88 -82 -140t-137 -52q-25 0 -61.5 16.5t-78.5 35.5t-75 35.5t-55 16.5q-109 0 -146 -100zM238 281 q0 -154 155 -154q74 0 142.5 37t113.5 98v240q-221 -8 -316 -58.5t-95 -162.5z" />
<glyph unicode="&#xe4;" horiz-adv-x="983" d="M49 270q0 104 56.5 172t143.5 109t193.5 58.5t206.5 19.5q0 135 -52 183t-167 48q-131 0 -264 -90l-27 150q135 104 340 104q96 0 164 -25.5t110 -82t61.5 -148.5t19.5 -225v-205q0 -119 20 -165t94 -46h19l-29 -147h-14q-61 0 -102.5 7t-70 24.5t-48 46t-37.5 69.5 q-127 -147 -308 -147q-141 0 -225 80.5t-84 209.5zM237 1229v205h144v-205h-144zM238 281q0 -154 155 -154q74 0 142.5 37t113.5 98v240q-221 -8 -316 -58.5t-95 -162.5zM602 1229v205h143v-205h-143z" />
<glyph unicode="&#xe5;" horiz-adv-x="983" d="M49 270q0 104 56.5 172t143.5 109t193.5 58.5t206.5 19.5q0 135 -52 183t-167 48q-131 0 -264 -90l-27 150q135 104 340 104q96 0 164 -25.5t110 -82t61.5 -148.5t19.5 -225v-205q0 -119 20 -165t94 -46h19l-29 -147h-14q-61 0 -102.5 7t-70 24.5t-48 46t-37.5 69.5 q-127 -147 -308 -147q-141 0 -225 80.5t-84 209.5zM238 281q0 -154 155 -154q74 0 142.5 37t113.5 98v240q-221 -8 -316 -58.5t-95 -162.5zM281 1362q0 80 59.5 132t165.5 52q49 0 87 -15t62.5 -42t37 -59.5t12.5 -67.5q0 -70 -49 -126t-148 -56h-14q-100 0 -156.5 53 t-56.5 129zM371 1362q0 -55 37 -89t86 -34t86 34t37 89q0 53 -36 87t-87 34t-87 -34t-36 -87z" />
<glyph unicode="&#xe6;" horiz-adv-x="1634" d="M45 242q0 356 617 387q-18 125 -72.5 178t-169.5 53q-109 0 -250 -59l-16 143q172 80 319 80q41 0 92 -11.5t99.5 -39t85 -74.5t49.5 -121q20 63 58 109.5t88 77t110.5 45t126.5 14.5q180 0 285.5 -106.5t105.5 -303.5q0 -23 -2 -51t-6 -61h-688q0 -184 92 -279.5 t245 -95.5q37 0 64 3t56.5 12.5t65.5 23.5t89 37l35 -142q-178 -82 -334 -81q-303 0 -412 231q-53 -117 -165.5 -178.5t-260.5 -61.5q-154 0 -230.5 71t-76.5 200zM233 258q0 -131 160 -131q57 0 109.5 17.5t92.5 52t63.5 87t23.5 122.5q0 29 -1 53.5t-3 42.5 q-74 0 -151.5 -12.5t-143.5 -42t-108 -75.5t-42 -114zM893 629h504q0 231 -223 231q-219 0 -281 -231z" />
<glyph unicode="&#xe7;" horiz-adv-x="929" d="M68 504q0 115 32.5 210t95 164.5t155.5 107.5t214 38q201 0 309 -59l-28 -166q-127 61 -260 61q-166 0 -248 -92t-82 -264t82 -267.5t248 -95.5q135 0 262 62l24 -148q-112 -75 -305 -75q-121 0 -213 39.5t-156.5 110.5t-97 166t-32.5 208zM393 -393l139 270l135 12 l-180 -272z" />
<glyph unicode="&#xe8;" horiz-adv-x="1048" d="M63 510q0 109 35 203t98.5 162.5t154.5 108.5t204 40q96 0 176 -28.5t136.5 -84t88 -134.5t31.5 -177q0 -57 -8 -98h-727q33 -358 377 -359q154 0 289 60l24 -146q-178 -78 -336 -77q-127 0 -228.5 40.5t-171 111.5t-106.5 168t-37 210zM268 629h529q0 111 -61.5 171 t-184.5 60q-223 0 -283 -231zM330 1352v147l383 -194v-84z" />
<glyph unicode="&#xe9;" horiz-adv-x="1048" d="M63 510q0 109 35 203t98.5 162.5t154.5 108.5t204 40q96 0 176 -28.5t136.5 -84t88 -134.5t31.5 -177q0 -57 -8 -98h-727q33 -358 377 -359q154 0 289 60l24 -146q-178 -78 -336 -77q-127 0 -228.5 40.5t-171 111.5t-106.5 168t-37 210zM268 629h529q0 111 -61.5 171 t-184.5 60q-223 0 -283 -231zM332 1221v84l383 194v-147z" />
<glyph unicode="&#xea;" horiz-adv-x="1048" d="M63 510q0 109 35 203t98.5 162.5t154.5 108.5t204 40q96 0 176 -28.5t136.5 -84t88 -134.5t31.5 -177q0 -57 -8 -98h-727q33 -358 377 -359q154 0 289 60l24 -146q-178 -78 -336 -77q-127 0 -228.5 40.5t-171 111.5t-106.5 168t-37 210zM222 1235v74l301 217l301 -217 v-74l-301 168zM268 629h529q0 111 -61.5 171t-184.5 60q-223 0 -283 -231z" />
<glyph unicode="&#xeb;" horiz-adv-x="1048" d="M63 510q0 109 35 203t98.5 162.5t154.5 108.5t204 40q96 0 176 -28.5t136.5 -84t88 -134.5t31.5 -177q0 -57 -8 -98h-727q33 -358 377 -359q154 0 289 60l24 -146q-178 -78 -336 -77q-127 0 -228.5 40.5t-171 111.5t-106.5 168t-37 210zM268 629h529q0 111 -61.5 171 t-184.5 60q-223 0 -283 -231zM268 1229v205h144v-205h-144zM633 1229v205h143v-205h-143z" />
<glyph unicode="&#xec;" horiz-adv-x="434" d="M27 1352v147l383 -194v-84zM125 0v1004h184v-1004h-184z" />
<glyph unicode="&#xed;" horiz-adv-x="434" d="M29 1221v84l383 194v-147zM125 0v1004h184v-1004h-184z" />
<glyph unicode="&#xee;" horiz-adv-x="434" d="M-80 1235v74l301 217l301 -217v-74l-301 168zM125 0v1004h184v-1004h-184z" />
<glyph unicode="&#xef;" horiz-adv-x="434" d="M-35 1229v205h144v-205h-144zM125 0v1004h184v-1004h-184zM330 1229v205h143v-205h-143z" />
<glyph unicode="&#xf0;" horiz-adv-x="1058" d="M57 412q0 86 29 169t83 147.5t135 104t185 39.5q176 0 277 -112q-8 49 -24.5 105.5t-40 110.5t-52 100t-59.5 71q-158 -109 -289 -127l-61 113q133 18 262 106q-123 111 -248 111l65 86q147 0 306 -113q63 57 120 131l95 -24q-47 -68 -142 -173q66 -59 120 -142t92 -179 t59.5 -200.5t21.5 -209.5q0 -158 -44 -264t-113.5 -169.5t-155.5 -90.5t-168 -27q-98 0 -181 33t-143.5 91.5t-94.5 138t-34 174.5zM262 430q0 -61 18.5 -112.5t52.5 -90.5t81 -60.5t104 -21.5q111 0 178.5 79t67.5 202t-66.5 199.5t-177.5 76.5q-59 0 -106 -21.5t-81 -59 t-52.5 -87t-18.5 -104.5z" />
<glyph unicode="&#xf1;" horiz-adv-x="1144" d="M125 0v1004h143l21 -107q143 127 332 127q410 0 409 -471v-553h-184v553q0 162 -60.5 234.5t-201.5 72.5q-201 0 -275 -131v-729h-184zM219 1249q12 45 33 80t51.5 58.5t63.5 35t63 11.5q27 0 64 -15.5t84 -35t83 -35t56 -15.5q86 0 141 105l70 -19q-23 -88 -82 -140 t-137 -52q-25 0 -61.5 16.5t-78.5 35.5t-75 35.5t-55 16.5q-109 0 -146 -100z" />
<glyph unicode="&#xf2;" horiz-adv-x="1126" d="M66 502q0 113 34.5 208t99 164.5t157 109.5t206.5 40q115 0 207 -40t156.5 -110.5t99.5 -166t35 -205.5q0 -225 -135 -375q-133 -147 -363 -147q-117 0 -209 39.5t-156.5 109.5t-98 166t-33.5 207zM254 502q0 -172 81 -265.5t228 -93.5q150 0 229.5 96.5t79.5 262.5 q1 170 -81 264q-80 94 -228 94q-147 0 -228 -93t-81 -265zM371 1352v147l383 -194v-84z" />
<glyph unicode="&#xf3;" horiz-adv-x="1126" d="M66 502q0 113 34.5 208t99 164.5t157 109.5t206.5 40q115 0 207 -40t156.5 -110.5t99.5 -166t35 -205.5q0 -225 -135 -375q-133 -147 -363 -147q-117 0 -209 39.5t-156.5 109.5t-98 166t-33.5 207zM254 502q0 -172 81 -265.5t228 -93.5q150 0 229.5 96.5t79.5 262.5 q1 170 -81 264q-80 94 -228 94q-147 0 -228 -93t-81 -265zM371 1221v84l383 194v-147z" />
<glyph unicode="&#xf4;" horiz-adv-x="1126" d="M66 502q0 113 34.5 208t99 164.5t157 109.5t206.5 40q115 0 207 -40t156.5 -110.5t99.5 -166t35 -205.5q0 -225 -135 -375q-133 -147 -363 -147q-117 0 -209 39.5t-156.5 109.5t-98 166t-33.5 207zM254 502q0 -172 81 -265.5t228 -93.5q150 0 229.5 96.5t79.5 262.5 q1 170 -81 264q-80 94 -228 94q-147 0 -228 -93t-81 -265zM262 1235v74l301 217l301 -217v-74l-301 168z" />
<glyph unicode="&#xf5;" horiz-adv-x="1126" d="M66 502q0 113 34.5 208t99 164.5t157 109.5t206.5 40q115 0 207 -40t156.5 -110.5t99.5 -166t35 -205.5q0 -225 -135 -375q-133 -147 -363 -147q-117 0 -209 39.5t-156.5 109.5t-98 166t-33.5 207zM208 1249q12 45 33 80t51.5 58.5t63.5 35t63 11.5q27 0 64 -15.5t84 -35 t83 -35t56 -15.5q86 0 141 105l70 -19q-23 -88 -82 -140t-137 -52q-25 0 -61.5 16.5t-78.5 35.5t-75 35.5t-55 16.5q-109 0 -146 -100zM254 502q0 -172 81 -265.5t228 -93.5q150 0 229.5 96.5t79.5 262.5q1 170 -81 264q-80 94 -228 94q-147 0 -228 -93t-81 -265z" />
<glyph unicode="&#xf6;" horiz-adv-x="1126" d="M66 502q0 113 34.5 208t99 164.5t157 109.5t206.5 40q115 0 207 -40t156.5 -110.5t99.5 -166t35 -205.5q0 -225 -135 -375q-133 -147 -363 -147q-117 0 -209 39.5t-156.5 109.5t-98 166t-33.5 207zM254 502q0 -172 81 -265.5t228 -93.5q150 0 229.5 96.5t79.5 262.5 q1 170 -81 264q-80 94 -228 94q-147 0 -228 -93t-81 -265zM309 1229v205h144v-205h-144zM674 1229v205h143v-205h-143z" />
<glyph unicode="&#xf7;" horiz-adv-x="1212" d="M135 502v151h942v-151h-942zM506 41v192h182v-192h-182zM506 901v193h182v-193h-182z" />
<glyph unicode="&#xf8;" horiz-adv-x="1167" d="M68 500q0 111 35.5 207t103 166.5t163 111.5t214.5 41q74 0 172 -25l39 82h151l-69 -135q227 -172 227 -450q0 -111 -36 -207t-103.5 -167t-163.5 -111t-215 -40q-68 0 -176 23l-39 -78h-146l66 135q-223 166 -223 447zM266 498q0 -139 94 -303l330 673q-77 15 -108 15 q-74 0 -132.5 -29t-99.5 -80t-62.5 -121.5t-21.5 -154.5zM475 129q86 -12 113 -12q76 0 135 29.5t99 81t61.5 121t21.5 149.5q0 43 -6 90t-18.5 89t-29.5 76t-42 52z" />
<glyph unicode="&#xf9;" horiz-adv-x="1073" d="M115 420v584h184v-533q0 -328 233 -328q160 0 232 115v746h184v-1004h-164l-20 111q-94 -131 -279 -131q-371 0 -370 440zM379 1352v147l383 -194v-84z" />
<glyph unicode="&#xfa;" horiz-adv-x="1073" d="M115 420v584h184v-533q0 -328 233 -328q160 0 232 115v746h184v-1004h-164l-20 111q-94 -131 -279 -131q-371 0 -370 440zM379 1221v84l383 194v-147z" />
<glyph unicode="&#xfb;" horiz-adv-x="1073" d="M115 420v584h184v-533q0 -328 233 -328q160 0 232 115v746h184v-1004h-164l-20 111q-94 -131 -279 -131q-371 0 -370 440zM271 1235v74l301 217l301 -217v-74l-301 168z" />
<glyph unicode="&#xfc;" horiz-adv-x="1073" d="M115 420v584h184v-533q0 -328 233 -328q160 0 232 115v746h184v-1004h-164l-20 111q-94 -131 -279 -131q-371 0 -370 440zM317 1229v205h144v-205h-144zM682 1229v205h143v-205h-143z" />
<glyph unicode="&#xfd;" horiz-adv-x="1034" d="M14 1004h205l313 -746l283 746h205l-614 -1500h-205l231 541zM326 1221v84l383 194v-147z" />
<glyph unicode="&#xfe;" horiz-adv-x="1187" d="M123 -494v2030h184v-639q127 127 324 127q113 0 203 -41t154.5 -111.5t99 -166t34.5 -203.5q0 -109 -33.5 -204t-98 -166t-159 -111.5t-213.5 -40.5q-211 0 -311 135v-609h-184zM293 502q0 -168 75.5 -271.5t233.5 -103.5q160 0 247 103.5t87 271.5q0 166 -87 262 t-247 96t-234.5 -96t-74.5 -262z" />
<glyph unicode="&#xff;" horiz-adv-x="1034" d="M14 1004h205l313 -746l283 746h205l-614 -1500h-205l231 541zM260 1229v205h144v-205h-144zM625 1229v205h143v-205h-143z" />
<glyph unicode="&#x152;" horiz-adv-x="2193" d="M82 717q0 168 51 306t143.5 235.5t219.5 150.5t278 53q127 0 245 -45t259 -153v168h821v-175h-635v-419h488v-176h-488v-486h654v-176h-840v170q-141 -109 -259 -154t-245 -45q-154 0 -280.5 53.5t-219 151.5t-142.5 235.5t-50 305.5zM287 717q0 -123 30.5 -227.5 t92 -180.5t152.5 -119t212 -43q119 0 210 43t152.5 119t92.5 180.5t31 227.5q0 125 -32 229.5t-93.5 180t-152.5 117.5t-208 42q-119 0 -210 -42t-152.5 -117.5t-93 -180t-31.5 -229.5z" />
<glyph unicode="&#x153;" horiz-adv-x="1847" d="M66 512q0 111 35.5 205t102 161.5t162 106.5t212.5 39q57 0 117.5 -13.5t114.5 -40t95 -65.5t64 -90q27 49 69.5 88t93 65.5t106.5 41t112 14.5q98 0 179 -28.5t137 -83t88 -131t32 -175.5q0 -63 -8 -104h-703q0 -117 33 -189.5t82 -114.5t105.5 -56.5t103.5 -14.5 q172 0 317 76l21 -158q-147 -66 -314 -65q-190 0 -294.5 54t-151.5 165q-45 -104 -157.5 -161.5t-250.5 -57.5q-117 0 -210 40.5t-158.5 112.5t-100 169t-34.5 210zM254 502q0 -174 81 -266.5t240 -92.5q154 0 233 101.5t79 263.5q0 160 -81 256t-228 96q-160 0 -242 -93 t-82 -265zM1079 629h518q-8 111 -73 171t-176 60q-219 0 -269 -231z" />
<glyph unicode="&#x178;" horiz-adv-x="1161" d="M-6 1434h205l381 -596l381 596h204l-483 -772v-662h-203v662zM352 1657v205h144v-205h-144zM717 1657v205h143v-205h-143z" />
<glyph unicode="&#x2c6;" horiz-adv-x="913" d="M156 1235v74l301 217l301 -217v-74l-301 168z" />
<glyph unicode="&#x2dc;" horiz-adv-x="1081" d="M188 1249q12 45 33 80t51.5 58.5t63.5 35t63 11.5q27 0 64 -15.5t84 -35t83 -35t56 -15.5q86 0 141 105l70 -19q-23 -88 -82 -140t-137 -52q-25 0 -61.5 16.5t-78.5 35.5t-75 35.5t-55 16.5q-109 0 -146 -100z" />
<glyph unicode="&#x2000;" horiz-adv-x="987" />
<glyph unicode="&#x2001;" horiz-adv-x="1974" />
<glyph unicode="&#x2002;" horiz-adv-x="987" />
<glyph unicode="&#x2003;" horiz-adv-x="1974" />
<glyph unicode="&#x2004;" horiz-adv-x="658" />
<glyph unicode="&#x2005;" horiz-adv-x="493" />
<glyph unicode="&#x2006;" horiz-adv-x="329" />
<glyph unicode="&#x2007;" horiz-adv-x="329" />
<glyph unicode="&#x2008;" horiz-adv-x="246" />
<glyph unicode="&#x2009;" horiz-adv-x="394" />
<glyph unicode="&#x200a;" horiz-adv-x="109" />
<glyph unicode="&#x2010;" horiz-adv-x="868" d="M117 487v177h635v-177h-635z" />
<glyph unicode="&#x2011;" horiz-adv-x="868" d="M117 487v177h635v-177h-635z" />
<glyph unicode="&#x2012;" horiz-adv-x="868" d="M117 487v177h635v-177h-635z" />
<glyph unicode="&#x2013;" horiz-adv-x="1028" d="M117 487v177h794v-177h-794z" />
<glyph unicode="&#x2014;" horiz-adv-x="1216" d="M117 487v177h983v-177h-983z" />
<glyph unicode="&#x2018;" horiz-adv-x="380" d="M88 1137v176l160 223l47 -27l-72 -178l70 -18v-176h-205z" />
<glyph unicode="&#x2019;" horiz-adv-x="346" d="M86 1163l72 178l-70 19v176h205v-176l-160 -223z" />
<glyph unicode="&#x201a;" horiz-adv-x="442" d="M117 -197l71 179l-69 18v176h205v-176l-160 -223z" />
<glyph unicode="&#x201c;" horiz-adv-x="811" d="M88 1137v176l160 223l47 -27l-72 -178l70 -18v-176h-205zM518 1137v176l160 223l47 -27l-72 -178l70 -18v-176h-205z" />
<glyph unicode="&#x201d;" horiz-adv-x="776" d="M86 1163l72 178l-70 19v176h205v-176l-160 -223zM516 1163l72 178l-70 19v176h205v-176l-160 -223z" />
<glyph unicode="&#x201e;" horiz-adv-x="913" d="M117 -197l71 179l-69 18v176h205v-176l-160 -223zM588 -197l71 179l-69 18v176h205v-176l-160 -223z" />
<glyph unicode="&#x2022;" horiz-adv-x="626" d="M90 569q0 45 18.5 85t49 71t70.5 49.5t85 18.5t85 -18.5t71 -49.5t49.5 -71t18.5 -85q0 -43 -16.5 -83.5t-49.5 -73.5q-35 -35 -75 -50.5t-83 -15.5q-45 0 -85 18.5t-70.5 49t-49 70.5t-18.5 85z" />
<glyph unicode="&#x2026;" horiz-adv-x="1384" d="M117 0v176h184v-176h-184zM600 0v176h184v-176h-184zM1083 0v176h185v-176h-185z" />
<glyph unicode="&#x202f;" horiz-adv-x="394" />
<glyph unicode="&#x2039;" horiz-adv-x="659" d="M29 582l325 422h224l-326 -422l326 -422h-224z" />
<glyph unicode="&#x203a;" horiz-adv-x="661" d="M84 160l326 422l-326 422h223l326 -422l-326 -422h-223z" />
<glyph unicode="&#x205f;" horiz-adv-x="493" />
<glyph unicode="&#x20ac;" horiz-adv-x="1439" d="M68 440l49 142h202q-4 39 -6 72.5t-2 62.5v39h-182l45 141h156q29 117 87 210t140 157.5t185.5 99.5t220.5 35q213 0 360 -70l-25 -201q-186 78 -335 78q-299 0 -394 -309h529l-49 -141h-500v-39q0 -35 3 -69t7 -66h498l-49 -142h-406q121 -213 361 -213q150 0 335 78 l25 -201q-147 -70 -360 -69q-209 0 -369 106t-238 299h-288z" />
<glyph unicode="&#x2122;" horiz-adv-x="1488" d="M63 1331v103h531l-12 -103h-205v-641h-105v641h-209zM627 690l96 744h59l215 -367l213 367h60l98 -744h-111l-63 549l-193 -332h-12l-188 334l-68 -551h-106z" />
<glyph unicode="&#x25fc;" horiz-adv-x="1003" d="M0 0v1004h1004v-1004h-1004z" />
</font>
</defs>
</svg>
