<?xml version="1.0" standalone="no"?>
<!DOCTYPE svg PUBLIC "-//W3C//DTD SVG 1.1//EN" "http://www.w3.org/Graphics/SVG/1.1/DTD/svg11.dtd" >
<svg xmlns="http://www.w3.org/2000/svg">
<metadata></metadata>
<defs>
<font id="blocktasticregular" horiz-adv-x="1024" >
<font-face units-per-em="2048" ascent="1638" descent="-410" />
<missing-glyph horiz-adv-x="823" />
<glyph horiz-adv-x="0" />
<glyph horiz-adv-x="0" />
<glyph horiz-adv-x="682" />
<glyph unicode="&#xd;" horiz-adv-x="681" />
<glyph unicode=" "  horiz-adv-x="823" />
<glyph unicode="&#x09;" horiz-adv-x="823" />
<glyph unicode="&#xa0;" horiz-adv-x="823" />
<glyph unicode="!" horiz-adv-x="378" d="M49 1405h281l-25 -1077h-231zM80 -2v215h225v-215h-225z" />
<glyph unicode="&#x22;" horiz-adv-x="661" d="M49 1399h244l-64 -438h-133zM377 1399h244l-64 -438h-133z" />
<glyph unicode="#" d="M39 479v187h184v200h-184v187h184v176h187v-176h198v176h189v-176h178v-187h-178v-200h178v-187h-178v-186h-189v186h-198v-186h-187v186h-184zM410 666h198v200h-198v-200z" />
<glyph unicode="$" horiz-adv-x="976" d="M43 -2v244l283 170v-152h108v264h-297l-94 56v772l94 57h297v139h90v-139h385v-246l-282 -170v152h-103v-377h291l94 -55v-639l-94 -76h-291v-152h-90v152h-391zM344 768h90v377h-90v-377zM524 260h84v264h-84v-264z" />
<glyph unicode="%" horiz-adv-x="1404" d="M41 694l51 -53h371l41 53v668l-41 51h-371l-51 -51v-668zM98 66l1020 1376l123 -113l-1012 -1374zM195 786v484h155v-484h-155zM883 53l51 -53h371l41 53v668l-41 51h-371l-51 -51v-668zM1036 145v484h156v-484h-156z" />
<glyph unicode="&#x26;" horiz-adv-x="804" d="M74 66v462l61 129l-61 136v557l61 65h223v137h160v-137h207l-39 -264h-330v-358h377l-39 -265h-338v-262h385l-55 -264h-168v-121h-162v121h-221z" />
<glyph unicode="'" horiz-adv-x="350" d="M49 1399h244l-64 -438h-133z" />
<glyph unicode="(" horiz-adv-x="468" d="M49 -227v1874l12 41l33 32l41 9h410v-242h-215v-1546h215v-250h-416l-41 16l-22 23z" />
<glyph unicode=")" horiz-adv-x="434" d="M-123 -59h215v1546h-215v242h410l41 -9l32 -32l13 -41v-1874l-17 -43l-22 -23l-41 -16h-416v250z" />
<glyph unicode="*" horiz-adv-x="782" d="M43 987v178h137l-125 121l113 111l131 -131v151h178v-139l119 119l106 -105l-124 -127h159v-178h-162l125 -125l-104 -106l-119 118v-151h-178v158l-127 -127l-109 112l121 121h-141z" />
<glyph unicode="+" horiz-adv-x="1220" d="M43 596v281h403v397h281v-397h412v-281h-412v-418h-281v418h-403z" />
<glyph unicode="," horiz-adv-x="409" d="M84 6v213h244v-217l-111 -221h-123l107 225h-117z" />
<glyph unicode="-" d="M55 600v281h891v-281h-891z" />
<glyph unicode="." horiz-adv-x="360" d="M59 0v213h244v-213h-244z" />
<glyph unicode="/" d="M37 88l807 1380l192 -75l-813 -1407z" />
<glyph unicode="0" horiz-adv-x="954" d="M41 96v1223l94 94h678l76 -94v-1223l-76 -96h-678zM324 264h282v885h-282v-885z" />
<glyph unicode="1" horiz-adv-x="522" d="M29 1114v135l143 156h281v-1403h-281v1112h-143z" />
<glyph unicode="2" horiz-adv-x="954" d="M45 74v639l94 55h471v377h-565l61 264h711l94 -57v-772l-94 -56h-471v-264h283h282l-61 -262h-711z" />
<glyph unicode="3" horiz-adv-x="876" d="M41 2l49 264h438v262h-338l-2 265h340v358h-473l43 264h713v-1413h-770z" />
<glyph unicode="4" d="M49 571v842h281v-618h301v618h282v-618h101l-101 -256v-537h-282v508h-477z" />
<glyph unicode="5" horiz-adv-x="964" d="M43 -2v244l283 170v-152h282v264h-565v885h866v-264h-565v-377h471l94 -55v-639l-94 -76h-772z" />
<glyph unicode="6" horiz-adv-x="948" d="M43 98v1223l96 94h752v-246l-283 -168v150h-280v-356h563v-793h-752zM328 248h280v282h-280v-282z" />
<glyph unicode="7" horiz-adv-x="960" d="M41 2l469 1149h-469l57 242h809l-581 -1391h-285z" />
<glyph unicode="8" horiz-adv-x="954" d="M47 96v504l94 100l-94 93v522l94 98h678l94 -94v-526l-94 -93l94 -96v-506l-94 -96h-678zM348 266h281v320h-281v-320zM348 831h281v320h-281v-320z" />
<glyph unicode="9" horiz-adv-x="964" d="M59 8v246l283 168v-150h281v275h-564v792l62 82h786v-1319l-96 -94h-752zM342 811h281v365h-281v-365z" />
<glyph unicode=":" horiz-adv-x="397" d="M84 184v213h244v-213h-244zM84 676v213h244v-213h-244z" />
<glyph unicode=";" horiz-adv-x="409" d="M84 6v213h244v-217l-111 -221h-123l107 225h-117zM84 498v213h244v-213h-244z" />
<glyph unicode="&#x3c;" horiz-adv-x="1232" d="M29 608v320l1124 413v-319l-864 -246l864 -264v-317z" />
<glyph unicode="=" d="M55 375v280h891v-280h-891zM55 805v280h891v-280h-891z" />
<glyph unicode="&#x3e;" horiz-adv-x="1239" d="M51 195v317l864 264l-864 246v319l1125 -413v-320z" />
<glyph unicode="?" horiz-adv-x="948" d="M61 1169v226h752l94 -76v-485l-94 -74l-330 -242v-227h-235v364l379 287v207h-283v-150zM248 0v213h244v-213h-244z" />
<glyph unicode="@" horiz-adv-x="1155" d="M39 135v1168l137 104h813l109 -104v-1168l-109 -106h-813zM225 184h686v86h-624v441l59 57h377v272h-291v-125h-145v201l55 58h522v-764h47v819h-686v-1045zM426 410h307v219h-307v-219z" />
<glyph unicode="A" horiz-adv-x="1218" d="M49 2l395 1393h338l396 -1393h-320l-94 301h-320l-75 -301h-320zM520 549h170l-76 319z" />
<glyph unicode="B" horiz-adv-x="1073" d="M41 1151l76 262h772l94 -94v-526l-94 -93l94 -96v-506l-94 -96h-772v1149h-76zM418 266h280v320h-280v-320zM418 831h280v320h-280v-320z" />
<glyph unicode="C" horiz-adv-x="983" d="M43 76v1243l94 76h752v-226l-283 -170v150h-282v-903h583l-92 -244h-678z" />
<glyph unicode="D" horiz-adv-x="1077" d="M45 1151l92 262h772l95 -92v-1225l-95 -94h-772v1149h-92zM422 266h301v885h-301v-885z" />
<glyph unicode="E" horiz-adv-x="929" d="M41 1151l94 264h754l-39 -264h-432v-358h377l-39 -265h-338v-262h487l-55 -264h-715v1149h-94z" />
<glyph unicode="F" horiz-adv-x="958" d="M51 1169l94 244h773l-58 -262h-432v-358h375l-37 -244h-338v-547h-283v1167h-94z" />
<glyph unicode="G" horiz-adv-x="976" d="M43 98v1223l96 94h752v-246l-283 -168v150h-280v-903h280v282h-131l58 265h356v-793h-752z" />
<glyph unicode="H" horiz-adv-x="1013" d="M49 2v1411h281v-618h301v618h282v-1411h-282v508h-301v-508h-281z" />
<glyph unicode="I" horiz-adv-x="712" d="M49 -2l57 264h113v885h-170l57 262h566l-58 -262h-112v-885h170l-58 -264h-565z" />
<glyph unicode="J" horiz-adv-x="882" d="M55 2v490l264 75v-301h168v924h-151l96 225h338v-1319l-74 -94h-641z" />
<glyph unicode="K" horiz-adv-x="935" d="M43 2v1391h283v-564l280 564h285l-361 -697l361 -694h-285l-280 563v-563h-283z" />
<glyph unicode="L" horiz-adv-x="704" d="M43 -2v1411h283v-1165h338l-56 -246h-565z" />
<glyph unicode="M" horiz-adv-x="1280" d="M43 2v1393h283l301 -621l282 621h283v-1393h-283v772l-282 -772l-301 772v-772h-283z" />
<glyph unicode="N" horiz-adv-x="976" d="M43 2v1411h283l282 -706v706h283v-1411h-283l-282 707v-707h-283z" />
<glyph unicode="O" horiz-adv-x="964" d="M41 96v1223l94 94h678l76 -94v-1223l-76 -96h-678zM324 264h282v885h-282v-885z" />
<glyph unicode="P" horiz-adv-x="1073" d="M33 1149l94 246h772l94 -39v-789l-94 -59h-489v-506h-283v1147h-94zM410 772h301v377h-301v-377z" />
<glyph unicode="Q" horiz-adv-x="976" d="M43 96v1223l94 94h678l92 -94v-1223l-37 -37l37 -94l-262 -96l-76 133h-432zM326 266h94l-58 74l244 94v715h-280v-883z" />
<glyph unicode="R" horiz-adv-x="1026" d="M43 1151l94 262h772l76 -55v-791l-76 -57h-18l94 -508h-301l-94 508h-170v-508h-283v1149h-94zM420 774h280v377h-280v-377z" />
<glyph unicode="S" horiz-adv-x="989" d="M43 -2v244l283 170v-152h282v264h-471l-94 56v772l94 57h772v-246l-282 -170v152h-283v-377h471l94 -55v-639l-94 -76h-772z" />
<glyph unicode="T" horiz-adv-x="950" d="M43 1151l76 262h790l-75 -262h-207v-1149h-283v1149h-301z" />
<glyph unicode="U" horiz-adv-x="976" d="M43 74v1319h281v-1149h284v1149h281v-1319l-74 -74h-678z" />
<glyph unicode="V" horiz-adv-x="1232" d="M41 1413h319l246 -864l264 864h318l-414 -1411h-319z" />
<glyph unicode="W" horiz-adv-x="1906" d="M43 1413h319l183 -864l246 864h299l241 -864l207 864h320l-375 -1411h-320l-223 848l-225 -848h-320z" />
<glyph unicode="X" horiz-adv-x="935" d="M27 -6l272 663l-260 756h278l142 -442l153 436h273l-279 -750l285 -669h-273l-159 405l-148 -399h-284z" />
<glyph unicode="Y" horiz-adv-x="1036" d="M39 1415h305l176 -536l170 536h299l-323 -905l-2 -508h-283v508z" />
<glyph unicode="Z" horiz-adv-x="954" d="M41 2l469 1149h-469l57 242h809l-489 -1145h489l-76 -246h-790z" />
<glyph unicode="[" horiz-adv-x="444" d="M49 -309v2038h281h215v-242h-215v-1546h215v-250h-215h-281z" />
<glyph unicode="\" d="M37 1393l192 75l807 -1380l-186 -102z" />
<glyph unicode="]" horiz-adv-x="456" d="M-94 -59h215v1546h-215v242h215h280v-2038h-280h-215v250z" />
<glyph unicode="^" horiz-adv-x="970" d="M33 735l327 684h254l328 -684h-254l-194 420l-209 -420h-252z" />
<glyph unicode="_" horiz-adv-x="976" d="M45 -72h891v-280h-891v280z" />
<glyph unicode="`" horiz-adv-x="479" d="M39 1405l203 133l190 -399l-110 -74z" />
<glyph unicode="a" horiz-adv-x="1218" d="M49 2l395 1393h338l396 -1393h-320l-94 301h-320l-75 -301h-320zM520 549h170l-76 319z" />
<glyph unicode="b" horiz-adv-x="1073" d="M41 1151l76 262h772l94 -94v-526l-94 -93l94 -96v-506l-94 -96h-772v1149h-76zM418 266h280v320h-280v-320zM418 831h280v320h-280v-320z" />
<glyph unicode="c" horiz-adv-x="983" d="M43 76v1243l94 76h752v-226l-283 -170v150h-282v-903h583l-92 -244h-678z" />
<glyph unicode="d" horiz-adv-x="1077" d="M45 1151l92 262h772l95 -92v-1225l-95 -94h-772v1149h-92zM422 266h301v885h-301v-885z" />
<glyph unicode="e" horiz-adv-x="929" d="M41 1151l94 264h754l-39 -264h-432v-358h377l-39 -265h-338v-262h487l-55 -264h-715v1149h-94z" />
<glyph unicode="f" horiz-adv-x="958" d="M51 1169l94 244h773l-58 -262h-432v-358h375l-37 -244h-338v-547h-283v1167h-94z" />
<glyph unicode="g" horiz-adv-x="976" d="M43 98v1223l96 94h752v-246l-283 -168v150h-280v-903h280v282h-131l58 265h356v-793h-752z" />
<glyph unicode="h" horiz-adv-x="1013" d="M49 2v1411h281v-639h301v639h282v-1411h-282v528h-301v-528h-281z" />
<glyph unicode="i" horiz-adv-x="413" d="M49 2v1403h281v-1403h-281z" />
<glyph unicode="j" horiz-adv-x="882" d="M55 2v490l264 75v-301h168v924h-151l96 225h338v-1319l-74 -94h-641z" />
<glyph unicode="k" horiz-adv-x="976" d="M43 2v1391h283v-564l280 564h326l-402 -697l402 -694h-326l-280 563v-563h-283z" />
<glyph unicode="l" horiz-adv-x="704" d="M43 -2v1411h283v-1165h338l-56 -246h-565z" />
<glyph unicode="m" horiz-adv-x="1280" d="M43 2v1393h283l301 -621l282 621h283v-1393h-283v772l-282 -772l-301 772v-772h-283z" />
<glyph unicode="n" horiz-adv-x="976" d="M43 2v1411h283l282 -706v706h283v-1411h-283l-282 707v-707h-283z" />
<glyph unicode="o" horiz-adv-x="964" d="M41 96v1223l94 94h678l76 -94v-1223l-76 -96h-678zM324 264h282v885h-282v-885z" />
<glyph unicode="p" horiz-adv-x="1073" d="M33 1149l94 246h772l94 -39v-789l-94 -59h-489v-506h-283v1147h-94zM410 772h301v377h-301v-377z" />
<glyph unicode="q" horiz-adv-x="976" d="M43 96v1223l94 94h678l92 -94v-1223l-37 -37l37 -94l-262 -96l-76 133h-432zM326 266h94l-58 74l244 94v715h-280v-883z" />
<glyph unicode="r" horiz-adv-x="1026" d="M43 1151l94 262h772l76 -55v-791l-76 -57h-18l94 -508h-301l-94 508h-170v-508h-283v1149h-94zM420 774h280v377h-280v-377z" />
<glyph unicode="s" horiz-adv-x="989" d="M43 -2v244l283 170v-152h282v264h-471l-94 56v772l94 57h772v-246l-282 -170v152h-283v-377h471l94 -55v-639l-94 -76h-772z" />
<glyph unicode="t" horiz-adv-x="950" d="M43 1151l76 262h790l-75 -262h-207v-1149h-283v1149h-301z" />
<glyph unicode="u" horiz-adv-x="976" d="M43 74v1319h281v-1149h284v1149h281v-1319l-74 -74h-678z" />
<glyph unicode="v" horiz-adv-x="1232" d="M41 1413h319l246 -864l264 864h318l-414 -1411h-319z" />
<glyph unicode="w" horiz-adv-x="1906" d="M43 1413h319l183 -864l246 864h299l241 -864l207 864h320l-375 -1411h-320l-223 848l-225 -848h-320z" />
<glyph unicode="x" horiz-adv-x="935" d="M27 -6l272 663l-260 756h278l142 -442l153 436h273l-279 -750l285 -669h-273l-159 405l-148 -399h-284z" />
<glyph unicode="y" horiz-adv-x="1036" d="M39 1415h305l176 -536l170 536h299l-323 -905l-2 -508h-283v508z" />
<glyph unicode="z" horiz-adv-x="954" d="M41 2l469 1149h-469l57 242h809l-489 -1145h489l-76 -246h-790z" />
<glyph unicode="{" horiz-adv-x="1067" d="M18 600v281h891v-281h-891zM76 186l844 287l90 -264l-844 -289zM80 1309l92 262l842 -297l-94 -266z" />
<glyph unicode="|" horiz-adv-x="385" d="M49 -209v1854h281v-1854h-281z" />
<glyph unicode="}" d="M18 1274l842 297l92 -262l-839 -301zM23 209l90 264l843 -287l-90 -266zM123 600v281h891v-281h-891z" />
<glyph unicode="~" horiz-adv-x="763" d="M10 1532q33 49 90 90q117 88 228 18q8 -4 41.5 -25.5t50 -30.5t44.5 -18.5t48 -6.5q18 0 63.5 53t49.5 80l120 -131q-41 -94 -108.5 -152.5t-159.5 -32.5q-23 6 -100.5 53.5t-110.5 53.5q-59 16 -114 -35q-4 -4 -16.5 -14.5t-22 -20.5t-13.5 -18z" />
<glyph unicode="&#xa1;" horiz-adv-x="413" d="M61 6l25 1077h231l25 -1077h-281zM86 1198v215h225v-215h-225z" />
<glyph unicode="&#xa2;" horiz-adv-x="745" d="M43 453v651l72 39h209v39h90v-39h276v-117l-217 -90v78h-59v-471h291l-70 -129h-221v-43h-90v43h-209zM258 543h66v471h-66v-471z" />
<glyph unicode="&#xa3;" horiz-adv-x="1214" d="M16 68v139l74 76h143l70 -74v442h-215v119h215v641l498 -82l-64 -225l-151 20v-354h213v-119h-213v-389h250l131 199l235 -76l-246 -387h-579l-74 70l-55 -70h-170zM117 94h90v86h-90v-86z" />
<glyph unicode="&#xa4;" horiz-adv-x="1261" d="M37 238l184 186v565l-180 182l145 146l189 -191h518l201 199l143 -145l-205 -207v-531l191 -192l-144 -144l-172 170h-545l-182 -182zM469 532h317v345h-317v-345z" />
<glyph unicode="&#xa5;" d="M39 1415h305l176 -536l170 536h299l-258 -723h240v-129h-287l-18 -53v-53h249v-107h-251v-348h-283v348h-275v107h275v53l-21 53h-307v129h258z" />
<glyph unicode="&#xa6;" horiz-adv-x="385" d="M49 -209v754h281v-754h-281zM49 858v787h281v-787h-281z" />
<glyph unicode="&#xa8;" horiz-adv-x="745" d="M59 1188v213h244v-213h-244zM449 1188v213h243v-213h-243z" />
<glyph unicode="&#xa9;" horiz-adv-x="864" d="M39 285v860l100 76h598l80 -76v-860l-80 -78h-598zM176 322h504v768h-504v-768zM229 408v583l45 37h353v-106l-133 -80v69h-134v-424h275l-43 -114h-318z" />
<glyph unicode="&#xab;" d="M49 438v164l443 313v-184l-273 -207l334 -217v-205zM479 438v164l443 313v-184l-273 -207l334 -217v-205z" />
<glyph unicode="&#xac;" horiz-adv-x="1499" d="M43 750v280h1409v-538h-250v258h-1159z" />
<glyph unicode="&#xad;" d="M55 600v281h891v-281h-891z" />
<glyph unicode="&#xae;" d="M39 285v860l100 76h598l80 -76v-860l-80 -78h-598zM176 322h504v768h-504v-768zM190 926l46 125h370l37 -27v-379l-37 -27h-10l47 -243h-145l-45 243h-80v-243h-137v551h-46zM373 743h133v183h-133v-183z" />
<glyph unicode="&#xaf;" d="M55 1460v281h891v-281h-891z" />
<glyph unicode="&#xb0;" horiz-adv-x="563" d="M41 981v381l51 51h371l41 -51v-381l-41 -53h-371zM195 1073h155v197h-155v-197z" />
<glyph unicode="&#xb1;" horiz-adv-x="1185" d="M37 51v281h409v407h-403v281h403v397h281v-397h412v-281h-412v-407h406v-281h-1096z" />
<glyph unicode="&#xb2;" horiz-adv-x="598" d="M45 651v363l53 33h267v213h-320l35 149h403l54 -33v-438l-54 -31h-268v-149h162h160l-35 -150h-404z" />
<glyph unicode="&#xb3;" horiz-adv-x="557" d="M61 610l29 152h248v149h-191l-2 150h193v205h-268l24 149h406v-805h-439z" />
<glyph unicode="&#xb4;" horiz-adv-x="462" d="M39 1139l190 399l203 -133l-282 -340z" />
<glyph unicode="&#xb5;" horiz-adv-x="948" d="M43 74v1319h281v-1149h284v1149h281v-1319l-74 -74h-487l51 -156v-211h-225v213h108l-59 154h-66z" />
<glyph unicode="&#xb7;" horiz-adv-x="360" d="M59 614v213h244v-213h-244z" />
<glyph unicode="&#xb8;" d="M221 -387l92 111l43 -58l82 -22q4 0 33 6t31 6l24 82l-71 41l-90 -6l-3 123l91 18l10 61h151l-32 -57q-2 -63 4 -63l71 -72l2 -166l-77 -100l-123 -19l-144 25z" />
<glyph unicode="&#xb9;" horiz-adv-x="331" d="M29 1241v76l80 88h159v-791h-159v627h-80z" />
<glyph unicode="&#xba;" horiz-adv-x="563" d="M41 981v381l51 51h371l41 -51v-381l-41 -53h-371zM195 1073h155v197h-155v-197z" />
<glyph unicode="&#xbb;" d="M49 102v205l334 217l-272 207v184l442 -313v-164zM479 102v205l334 217l-272 207v184l442 -313v-164z" />
<glyph unicode="&#xbc;" horiz-adv-x="1427" d="M29 1241h80v-627h159v791h-159l-80 -88v-76zM37 88l807 1380l192 -75l-813 -1407zM807 340v500h166v-367h180v367h168v-367h59l-59 -151v-320h-168v301h-285z" />
<glyph unicode="&#xbd;" horiz-adv-x="1314" d="M29 1241h80v-627h159v791h-159l-80 -88v-76zM37 88l807 1380l192 -75l-813 -1407zM762 57v363l53 33h266v213h-319l35 149h403l53 -33v-438l-53 -31h-268v-149h162h159l-34 -150h-404z" />
<glyph unicode="&#xbe;" horiz-adv-x="1615" d="M57 610h439v805h-406l-24 -149h268v-205h-193l2 -150h191v-149h-248zM238 88l806 1380l193 -75l-813 -1407zM1008 340v500h166v-367h180v367h168v-367h59l-59 -151v-320h-168v301h-285z" />
<glyph unicode="&#xbf;" d="M78 88v485l94 74l330 242v227h235v-364l-379 -287v-207h283v150l283 61v-457h-752zM494 1194v213h243v-213h-243z" />
<glyph unicode="&#xc0;" horiz-adv-x="1218" d="M49 2l395 1393h338l396 -1393h-320l-94 301h-320l-75 -301h-320zM317 1710l203 133l191 -399l-111 -74zM520 549h170l-76 319z" />
<glyph unicode="&#xc1;" horiz-adv-x="1218" d="M49 2l395 1393h338l396 -1393h-320l-94 301h-320l-75 -301h-320zM506 1470l190 400l203 -133l-283 -340zM520 549h170l-76 319z" />
<glyph unicode="&#xc2;" horiz-adv-x="1218" d="M49 2l395 1393h338l396 -1393h-320l-94 301h-320l-75 -301h-320zM319 1454l203 324h160l203 -324h-199l-80 160l-90 -160h-197zM520 549h170l-76 319z" />
<glyph unicode="&#xc3;" horiz-adv-x="1218" d="M49 2l395 1393h338l396 -1393h-320l-94 301h-320l-75 -301h-320zM236 1614q33 49 90 90q117 88 227 18q8 -4 42 -25.5t50.5 -30.5t44 -18.5t47.5 -7.5q18 0 63.5 53.5t49.5 80.5l121 -132q-39 -86 -112 -139t-167 -26q-20 6 -94 44t-106 44q-59 16 -115 -35 q-4 -4 -16.5 -14.5t-21.5 -20.5t-13 -18zM520 549h170l-76 319z" />
<glyph unicode="&#xc4;" horiz-adv-x="1218" d="M49 2l395 1393h338l396 -1393h-320l-94 301h-320l-75 -301h-320zM297 1454v213h244v-213h-244zM520 549h170l-76 319zM686 1454v213h244v-213h-244z" />
<glyph unicode="&#xc5;" horiz-adv-x="1218" d="M49 2l395 1393h338l396 -1393h-320l-94 301h-320l-75 -301h-320zM375 1448v381l51 51h371l41 -51v-381l-41 -53h-371zM520 549h170l-76 319zM528 1540h156v197h-156v-197z" />
<glyph unicode="&#xc6;" horiz-adv-x="1681" d="M49 2l690 1393h867l-39 -265h-432v-337h376l-38 -265h-338v-262h487l-55 -264h-756v301h-303l-139 -301h-320zM635 549h168v319z" />
<glyph unicode="&#xc7;" horiz-adv-x="948" d="M43 76v1243l94 76h752v-226l-283 -170v150h-282v-903h583l-92 -244h-223l-33 -57q-2 -63 4 -64l72 -71l2 -166l-78 -101l-123 -18l-143 24l-94 91l92 110l43 -57l82 -23q2 0 30.5 6.5t32.5 6.5l25 81l-72 41l-90 -6l-2 123l90 19l10 61h-303z" />
<glyph unicode="&#xc8;" horiz-adv-x="929" d="M41 1151l94 264h754l-39 -264h-432v-358h377l-39 -265h-338v-262h487l-55 -264h-715v1149h-94zM203 1712l203 133l190 -399l-111 -74z" />
<glyph unicode="&#xc9;" horiz-adv-x="929" d="M41 1151l94 264h754l-39 -264h-432v-358h377l-39 -265h-338v-262h487l-55 -264h-715v1149h-94zM365 1493l190 399l203 -133l-283 -340z" />
<glyph unicode="&#xca;" horiz-adv-x="929" d="M41 1151l94 264h754l-39 -264h-432v-358h377l-39 -265h-338v-262h487l-55 -264h-715v1149h-94zM201 1454l202 324h160l203 -324h-199l-80 160l-90 -160h-196z" />
<glyph unicode="&#xcb;" horiz-adv-x="929" d="M41 1151l94 264h754l-39 -264h-432v-358h377l-39 -265h-338v-262h487l-55 -264h-715v1149h-94zM174 1454v213h244v-213h-244zM563 1454v213h244v-213h-244z" />
<glyph unicode="&#xcc;" horiz-adv-x="712" d="M49 -2l57 264h113v885h-170l57 262h566l-58 -262h-112v-885h170l-58 -264h-565zM82 1714l203 133l190 -399l-110 -74z" />
<glyph unicode="&#xcd;" horiz-adv-x="712" d="M49 -2l57 264h113v885h-170l57 262h566l-58 -262h-112v-885h170l-58 -264h-565zM254 1483l190 399l203 -133l-282 -340z" />
<glyph unicode="&#xce;" horiz-adv-x="712" d="M49 -2l57 264h113v885h-170l57 262h566l-58 -262h-112v-885h170l-58 -264h-565zM74 1454l202 324h160l203 -324h-199l-80 160l-90 -160h-196z" />
<glyph unicode="&#xcf;" horiz-adv-x="712" d="M41 1454v213h244v-213h-244zM49 -2l57 264h113v885h-170l57 262h566l-58 -262h-112v-885h170l-58 -264h-565zM430 1454v213h244v-213h-244z" />
<glyph unicode="&#xd0;" horiz-adv-x="1054" d="M6 563v207h131v381h-92l92 262h772l95 -92v-1225l-95 -94h-772v561h-131zM422 266h301v885h-301v-381h117v-207h-117v-297z" />
<glyph unicode="&#xd1;" horiz-adv-x="960" d="M43 2v1411h283l282 -706v706h283v-1411h-283l-282 707v-707h-283zM72 1614q33 49 90 90q117 88 227 18q8 -4 42 -25.5t50.5 -30.5t44 -18.5t47.5 -7.5q18 0 63.5 53.5t49.5 80.5l121 -132q-39 -86 -111.5 -139t-167.5 -26q-20 6 -94 44t-106 44q-59 16 -115 -35 q-4 -4 -16.5 -14.5t-21.5 -20.5t-13 -18z" />
<glyph unicode="&#xd2;" horiz-adv-x="954" d="M41 96l94 -96h678l76 96v1223l-76 94h-678l-94 -94v-1223zM186 1751l203 133l191 -399l-111 -74zM324 264v885h282v-885h-282z" />
<glyph unicode="&#xd3;" horiz-adv-x="964" d="M41 96v1223l94 94h678l76 -94v-1223l-76 -96h-678zM324 264h282v885h-282v-885zM362 1483l191 399l203 -133l-283 -340z" />
<glyph unicode="&#xd4;" horiz-adv-x="964" d="M41 96v1223l94 94h678l76 -94v-1223l-76 -96h-678zM197 1454l202 324h160l203 -324h-199l-80 160l-90 -160h-196zM324 264h282v885h-282v-885z" />
<glyph unicode="&#xd5;" horiz-adv-x="964" d="M41 96v1223l94 94h678l76 -94v-1223l-76 -96h-678zM109 1614q33 49 90 90q117 88 227 18q8 -4 42 -25.5t50.5 -30.5t44 -18.5t47.5 -7.5q18 0 63.5 53.5t49.5 80.5l121 -132q-39 -86 -112 -139t-167 -26q-20 6 -94 44t-106 44q-59 16 -115 -35q-4 -4 -16.5 -14.5 t-21.5 -20.5t-13 -18zM324 264h282v885h-282v-885z" />
<glyph unicode="&#xd6;" horiz-adv-x="964" d="M41 96l94 -96h678l76 96v1223l-76 94h-678l-94 -94v-1223zM170 1458v213h244v-213h-244zM324 264v885h282v-885h-282zM559 1458v213h244v-213h-244z" />
<glyph unicode="&#xd7;" horiz-adv-x="1060" d="M39 463l295 297l-285 284l197 199l286 -285l281 281l199 -199l-281 -280l291 -291l-199 -199l-291 291l-296 -295z" />
<glyph unicode="&#xd8;" d="M-74 240l156 157v922l94 94h678l76 -94v-66l49 52l90 -95l-139 -166v-948l-76 -96h-678l-94 96v90l-49 -49zM365 264h282v494l-282 -285v-209zM365 682l282 287v180h-282v-467z" />
<glyph unicode="&#xd9;" horiz-adv-x="929" d="M43 74l94 -74h678l74 74v1319h-281v-1149h-284v1149h-281v-1319zM195 1710l202 133l191 -399l-111 -74z" />
<glyph unicode="&#xda;" horiz-adv-x="929" d="M43 74v1319h281v-1149h284v1149h281v-1319l-74 -74h-678zM383 1470l190 400l203 -133l-282 -340z" />
<glyph unicode="&#xdb;" horiz-adv-x="929" d="M43 74v1319h281v-1149h284v1149h281v-1319l-74 -74h-678zM176 1454l203 324h160l202 -324h-198l-80 160l-90 -160h-197z" />
<glyph unicode="&#xdc;" horiz-adv-x="929" d="M43 74l94 -74h678l74 74v1319h-281v-1149h-284v1149h-281v-1319zM152 1454v213h243v-213h-243zM541 1454v213h243v-213h-243z" />
<glyph unicode="&#xdd;" horiz-adv-x="1036" d="M39 1415h305l176 -536l170 536h299l-323 -905l-2 -508h-283v508zM426 1470l190 400l203 -133l-282 -340z" />
<glyph unicode="&#xde;" horiz-adv-x="960" d="M45 -485v1147v245v389v144h281v-533h491l94 -39v-788l-94 -60h-489v-505h-283zM328 285h301v377h-301v-377z" />
<glyph unicode="&#xe0;" horiz-adv-x="1218" d="M49 2l395 1393h338l396 -1393h-320l-94 301h-320l-75 -301h-320zM317 1710l203 133l191 -399l-111 -74zM520 549h170l-76 319z" />
<glyph unicode="&#xe1;" horiz-adv-x="1218" d="M49 2l395 1393h338l396 -1393h-320l-94 301h-320l-75 -301h-320zM506 1470l190 400l203 -133l-283 -340zM520 549h170l-76 319z" />
<glyph unicode="&#xe2;" horiz-adv-x="1218" d="M49 2l395 1393h338l396 -1393h-320l-94 301h-320l-75 -301h-320zM319 1454l203 324h160l203 -324h-199l-80 160l-90 -160h-197zM520 549h170l-76 319z" />
<glyph unicode="&#xe3;" horiz-adv-x="1218" d="M49 2l395 1393h338l396 -1393h-320l-94 301h-320l-75 -301h-320zM236 1614q33 49 90 90q117 88 227 18q8 -4 42 -25.5t50.5 -30.5t44 -18.5t47.5 -7.5q18 0 63.5 53.5t49.5 80.5l121 -132q-39 -86 -112 -139t-167 -26q-20 6 -94 44t-106 44q-59 16 -115 -35 q-4 -4 -16.5 -14.5t-21.5 -20.5t-13 -18zM520 549h170l-76 319z" />
<glyph unicode="&#xe4;" horiz-adv-x="1218" d="M49 2l395 1393h338l396 -1393h-320l-94 301h-320l-75 -301h-320zM297 1454v213h244v-213h-244zM520 549h170l-76 319zM686 1454v213h244v-213h-244z" />
<glyph unicode="&#xe5;" horiz-adv-x="1218" d="M49 2l395 1393h338l396 -1393h-320l-94 301h-320l-75 -301h-320zM375 1448v381l51 51h371l41 -51v-381l-41 -53h-371zM520 549h170l-76 319zM528 1540h156v197h-156v-197z" />
<glyph unicode="&#xe6;" horiz-adv-x="1681" d="M49 2l690 1393h867l-39 -265h-432v-337h376l-38 -265h-338v-262h487l-55 -264h-756v301h-303l-139 -301h-320zM635 549h168v319z" />
<glyph unicode="&#xe7;" horiz-adv-x="948" d="M43 76v1243l94 76h752v-226l-283 -170v150h-282v-903h583l-92 -244h-223l-33 -57q-2 -63 4 -64l72 -71l2 -166l-78 -101l-123 -18l-143 24l-94 91l92 110l43 -57l82 -23q2 0 30.5 6.5t32.5 6.5l25 81l-72 41l-90 -6l-2 123l90 19l10 61h-303z" />
<glyph unicode="&#xe8;" horiz-adv-x="929" d="M41 1151l94 264h754l-39 -264h-432v-358h377l-39 -265h-338v-262h487l-55 -264h-715v1149h-94zM203 1712l203 133l190 -399l-111 -74z" />
<glyph unicode="&#xe9;" horiz-adv-x="929" d="M41 1151l94 264h754l-39 -264h-432v-358h377l-39 -265h-338v-262h487l-55 -264h-715v1149h-94zM365 1493l190 399l203 -133l-283 -340z" />
<glyph unicode="&#xea;" horiz-adv-x="929" d="M41 1151l94 264h754l-39 -264h-432v-358h377l-39 -265h-338v-262h487l-55 -264h-715v1149h-94zM201 1454l202 324h160l203 -324h-199l-80 160l-90 -160h-196z" />
<glyph unicode="&#xeb;" horiz-adv-x="929" d="M41 1151l94 264h754l-39 -264h-432v-358h377l-39 -265h-338v-262h487l-55 -264h-715v1149h-94zM174 1454v213h244v-213h-244zM563 1454v213h244v-213h-244z" />
<glyph unicode="&#xec;" horiz-adv-x="712" d="M49 -2l57 264h113v885h-170l57 262h566l-58 -262h-112v-885h170l-58 -264h-565zM82 1714l203 133l190 -399l-110 -74z" />
<glyph unicode="&#xed;" horiz-adv-x="712" d="M49 -2l57 264h113v885h-170l57 262h566l-58 -262h-112v-885h170l-58 -264h-565zM254 1483l190 399l203 -133l-282 -340z" />
<glyph unicode="&#xee;" horiz-adv-x="712" d="M49 -2l57 264h113v885h-170l57 262h566l-58 -262h-112v-885h170l-58 -264h-565zM74 1454l202 324h160l203 -324h-199l-80 160l-90 -160h-196z" />
<glyph unicode="&#xef;" horiz-adv-x="712" d="M41 1454v213h244v-213h-244zM49 -2l57 264h113v885h-170l57 262h566l-58 -262h-112v-885h170l-58 -264h-565zM430 1454v213h244v-213h-244z" />
<glyph unicode="&#xf1;" horiz-adv-x="960" d="M43 2v1411h283l282 -706v706h283v-1411h-283l-282 707v-707h-283zM72 1614q33 49 90 90q117 88 227 18q8 -4 42 -25.5t50.5 -30.5t44 -18.5t47.5 -7.5q18 0 63.5 53.5t49.5 80.5l121 -132q-39 -86 -111.5 -139t-167.5 -26q-20 6 -94 44t-106 44q-59 16 -115 -35 q-4 -4 -16.5 -14.5t-21.5 -20.5t-13 -18z" />
<glyph unicode="&#xf2;" horiz-adv-x="954" d="M41 96l94 -96h678l76 96v1223l-76 94h-678l-94 -94v-1223zM186 1751l203 133l191 -399l-111 -74zM324 264v885h282v-885h-282z" />
<glyph unicode="&#xf3;" horiz-adv-x="964" d="M41 96v1223l94 94h678l76 -94v-1223l-76 -96h-678zM324 264h282v885h-282v-885zM362 1483l191 399l203 -133l-283 -340z" />
<glyph unicode="&#xf4;" horiz-adv-x="964" d="M41 96v1223l94 94h678l76 -94v-1223l-76 -96h-678zM197 1454l202 324h160l203 -324h-199l-80 160l-90 -160h-196zM324 264h282v885h-282v-885z" />
<glyph unicode="&#xf5;" horiz-adv-x="964" d="M41 96v1223l94 94h678l76 -94v-1223l-76 -96h-678zM109 1614q33 49 90 90q117 88 227 18q8 -4 42 -25.5t50.5 -30.5t44 -18.5t47.5 -7.5q18 0 63.5 53.5t49.5 80.5l121 -132q-39 -86 -112 -139t-167 -26q-20 6 -94 44t-106 44q-59 16 -115 -35q-4 -4 -16.5 -14.5 t-21.5 -20.5t-13 -18zM324 264h282v885h-282v-885z" />
<glyph unicode="&#xf6;" horiz-adv-x="964" d="M41 96l94 -96h678l76 96v1223l-76 94h-678l-94 -94v-1223zM170 1458v213h244v-213h-244zM324 264v885h282v-885h-282zM559 1458v213h244v-213h-244z" />
<glyph unicode="&#xf7;" horiz-adv-x="1196" d="M43 596v281h1096v-281h-1096zM446 178v273h281v-273h-281zM446 1020v254h281v-254h-281z" />
<glyph unicode="&#xf8;" d="M-74 240l156 157v922l94 94h678l76 -94v-66l49 52l90 -95l-139 -166v-948l-76 -96h-678l-94 96v90l-49 -49zM365 264h282v494l-282 -285v-209zM365 682l282 287v180h-282v-467z" />
<glyph unicode="&#xf9;" horiz-adv-x="929" d="M43 74l94 -74h678l74 74v1319h-281v-1149h-284v1149h-281v-1319zM195 1710l202 133l191 -399l-111 -74z" />
<glyph unicode="&#xfa;" horiz-adv-x="929" d="M43 74v1319h281v-1149h284v1149h281v-1319l-74 -74h-678zM383 1470l190 400l203 -133l-282 -340z" />
<glyph unicode="&#xfb;" horiz-adv-x="929" d="M43 74v1319h281v-1149h284v1149h281v-1319l-74 -74h-678zM176 1454l203 324h160l202 -324h-198l-80 160l-90 -160h-197z" />
<glyph unicode="&#xfc;" horiz-adv-x="929" d="M43 74l94 -74h678l74 74v1319h-281v-1149h-284v1149h-281v-1319zM152 1454v213h243v-213h-243zM541 1454v213h243v-213h-243z" />
<glyph unicode="&#xfd;" horiz-adv-x="1036" d="M39 1415h305l176 -536l170 536h299l-323 -905l-2 -508h-283v508zM426 1470l190 400l203 -133l-282 -340z" />
<glyph unicode="&#xfe;" horiz-adv-x="960" d="M45 -485v1147v245v389v144h281v-533h491l94 -39v-788l-94 -60h-489v-505h-283zM328 285h301v377h-301v-377z" />
<glyph unicode="&#xff;" horiz-adv-x="1036" d="M39 1415l342 -905v-508h283l2 508l323 905h-299l-170 -536l-176 536h-305zM182 1499v213h244v-213h-244zM571 1499v213h244v-213h-244z" />
<glyph unicode="&#x152;" horiz-adv-x="1730" d="M41 96v1223l94 94h678l76 -94v-29l45 125h754l-39 -264h-432v-358h376l-39 -265h-337v-262h487l-55 -264h-715v1147h-45v-1053l-76 -96h-678zM324 264h282v885h-282v-885z" />
<glyph unicode="&#x153;" horiz-adv-x="1730" d="M41 96v1223l94 94h678l76 -94v-29l45 125h754l-39 -264h-432v-358h376l-39 -265h-337v-262h487l-55 -264h-715v1147h-45v-1053l-76 -96h-678zM324 264h282v885h-282v-885z" />
<glyph unicode="&#x178;" horiz-adv-x="1036" d="M39 1415l342 -905v-508h283l2 508l323 905h-299l-170 -536l-176 536h-305zM182 1499v213h244v-213h-244zM571 1499v213h244v-213h-244z" />
<glyph unicode="&#x2c6;" horiz-adv-x="663" d="M33 1004l203 426h159l203 -426h-158l-121 262l-131 -262h-155z" />
<glyph unicode="&#x2dc;" horiz-adv-x="763" d="M10 1532q33 49 90 90q117 88 228 18q8 -4 41.5 -25.5t50 -30.5t44.5 -18.5t48 -6.5q18 0 63.5 53t49.5 80l120 -131q-41 -94 -108.5 -152.5t-159.5 -32.5q-23 6 -100.5 53.5t-110.5 53.5q-59 16 -114 -35q-4 -4 -16.5 -14.5t-22 -20.5t-13.5 -18z" />
<glyph unicode="&#x2000;" horiz-adv-x="946" />
<glyph unicode="&#x2001;" horiz-adv-x="1892" />
<glyph unicode="&#x2002;" horiz-adv-x="946" />
<glyph unicode="&#x2003;" horiz-adv-x="1892" />
<glyph unicode="&#x2004;" horiz-adv-x="630" />
<glyph unicode="&#x2005;" horiz-adv-x="473" />
<glyph unicode="&#x2006;" horiz-adv-x="315" />
<glyph unicode="&#x2007;" horiz-adv-x="315" />
<glyph unicode="&#x2008;" horiz-adv-x="236" />
<glyph unicode="&#x2009;" horiz-adv-x="378" />
<glyph unicode="&#x200a;" horiz-adv-x="105" />
<glyph unicode="&#x2010;" d="M55 600v281h891v-281h-891z" />
<glyph unicode="&#x2011;" d="M55 600v281h891v-281h-891z" />
<glyph unicode="&#x2012;" d="M55 600v281h891v-281h-891z" />
<glyph unicode="&#x2013;" horiz-adv-x="2009" d="M55 600v281h891v-281h-891zM1059 600v281h891v-281h-891z" />
<glyph unicode="&#x2014;" horiz-adv-x="3026" d="M55 600v281h891v-281h-891zM1059 600v281h891v-281h-891zM2062 600v281h891v-281h-891z" />
<glyph unicode="&#x2018;" horiz-adv-x="360" d="M55 1182v217h244v-213h-117l107 -225h-123z" />
<glyph unicode="&#x2019;" horiz-adv-x="337" d="M53 1186v213h244v-217l-111 -221h-123l107 225h-117z" />
<glyph unicode="&#x201a;" horiz-adv-x="409" d="M84 6v213h244v-217l-111 -221h-123l107 225h-117z" />
<glyph unicode="&#x201c;" horiz-adv-x="698" d="M55 1182v217h244v-213h-117l107 -225h-123zM403 1182v217h244v-213h-117l107 -225h-123z" />
<glyph unicode="&#x201d;" horiz-adv-x="698" d="M53 1186v213h244v-217l-111 -221h-123l107 225h-117zM401 1186v213h244v-217l-110 -221h-123l106 225h-117z" />
<glyph unicode="&#x201e;" horiz-adv-x="698" d="M53 39v213h244v-217l-111 -221h-123l107 225h-117zM401 39v213h244v-217l-110 -221h-123l106 225h-117z" />
<glyph unicode="&#x2022;" horiz-adv-x="585" d="M63 580v360l52 51h370l41 -51v-360l-41 -54h-370z" />
<glyph unicode="&#x2026;" horiz-adv-x="1142" d="M59 0v213h244v-213h-244zM449 0v213h243v-213h-243zM817 0v213h244v-213h-244z" />
<glyph unicode="&#x202f;" horiz-adv-x="378" />
<glyph unicode="&#x2039;" horiz-adv-x="591" d="M49 438v164l443 313v-184l-273 -207l334 -217v-205z" />
<glyph unicode="&#x203a;" horiz-adv-x="579" d="M49 102v205l334 217l-272 207v184l442 -313v-164z" />
<glyph unicode="&#x205f;" horiz-adv-x="473" />
<glyph unicode="&#x20ac;" horiz-adv-x="1001" d="M14 723l41 88h92v543l62 65h692l-39 -264h-432v-344h537l-29 -88h-508v-88h490l-29 -96h-461v-269h488l-56 -264h-653l-62 64v469h-110l41 96h69v88h-133z" />
<glyph unicode="&#x2122;" horiz-adv-x="1261" d="M47 1243l43 150h442l-43 -150h-114v-645h-160v645h-168zM561 598h160v434l168 -434l162 434v-434h155v780h-155l-162 -346l-168 346h-160v-780z" />
<glyph unicode="&#x25fc;" horiz-adv-x="1413" d="M0 0v1413h1413v-1413h-1413z" />
</font>
</defs>
</svg>
