<?xml version="1.0" standalone="no"?>
<!DOCTYPE svg PUBLIC "-//W3C//DTD SVG 1.1//EN" "http://www.w3.org/Graphics/SVG/1.1/DTD/svg11.dtd" >
<svg xmlns="http://www.w3.org/2000/svg" xmlns:xlink="http://www.w3.org/1999/xlink" version="1.1">
<metadata></metadata>
<defs>
<font id="bevanregular" horiz-adv-x="1643" >
<font-face units-per-em="2048" ascent="1638" descent="-410" />
<missing-glyph horiz-adv-x="480" />
<glyph horiz-adv-x="0" />
<glyph unicode="&#xd;" horiz-adv-x="682" />
<glyph unicode=" "  horiz-adv-x="480" />
<glyph unicode="&#x09;" horiz-adv-x="480" />
<glyph unicode="&#xa0;" horiz-adv-x="480" />
<glyph unicode="!" horiz-adv-x="802" d="M107 1331v299h587v-299l-84 -773l-421 -2zM122 213q0 -113 77.5 -179t199.5 -66q127 0 207 66t80 179q0 115 -82.5 182.5t-204.5 67.5q-119 0 -198 -67.5t-79 -182.5z" />
<glyph unicode="&#x22;" horiz-adv-x="1147" d="M44 1624h480l-100 -679h-300zM631 1624h480l-100 -679h-300z" />
<glyph unicode="#" horiz-adv-x="1413" d="M59 286l63 299h140l80 362h-136l63 299h140l84 377h324l-87 -377h158l84 377h324l-87 -377h140l-63 -299h-145l-83 -362h144l-63 -299h-150l-65 -286h-313l63 286h-164l-65 -286h-313l63 286h-136zM579 585h162l80 362h-159z" />
<glyph unicode="$" horiz-adv-x="1358" d="M89 1053q0 207 137.5 327.5t364.5 132.5v191h227v-210q52 -18 144 -60l16 16l27 27h157q2 0 9 -2t8 -2l2.5 -2.5l2.5 -2.5t1 -2v-426l-6 -6l-121 -4q-1 0 -25.5 -1t-31.5 -1q-11 0 -37 2l-10 10q-23 96 -107 174q-10 11 -20 11q-11 0 -11 -6v-228q82 -22 146.5 -47 t127.5 -64.5t105.5 -88.5t69.5 -118.5t29 -154.5q3 -127 -61 -236.5t-175 -175t-242 -71.5v-201h-231v214q-139 28 -251 80l-44 -62h-195v479h247q7 -85 88.5 -166t154.5 -81v288q-66 18 -113 33t-102.5 38t-93.5 47.5t-76 59.5t-60.5 75.5t-36.5 95t-14 118.5zM475 1180 q0 -44 31.5 -77t82.5 -44v211q-43 2 -78.5 -25.5t-35.5 -64.5zM816 307q37 0 68.5 29t31.5 63q5 42 -20 81t-80 47v-220z" />
<glyph unicode="%" horiz-adv-x="2728" d="M56 1078q0 158 59 288t173 208.5t262 78.5q243 0 372 -148t129 -393q0 -113 -30 -214t-87 -182t-150 -129t-210 -48q-246 0 -382 145.5t-136 393.5zM460 1097q0 -208 93 -208q22 0 39 8t27 23t17 31.5t9.5 39.5t3.5 40t1 39l1 26q0 27 -0.5 41.5t-2.5 43.5t-8.5 47.5 t-16.5 39t-27 31.5t-40 13q-57 -2 -80 -62q-16 -42 -16 -153zM938 0l341 1623h504l-342 -1623h-503zM1675 521q0 158 59 288t173 208.5t262 78.5q243 0 372 -148t129 -393q0 -113 -30 -214t-87 -182t-150 -129t-210 -48q-246 0 -382 145.5t-136 393.5zM2079 540 q0 -208 93 -208q22 0 39 8t27 23t17 31.5t9.5 39.5t3.5 40t1 39v27q1 26 0.5 40.5t-2.5 43.5t-8.5 47.5t-16.5 39t-27 31.5t-40 13q-56 -3 -80 -62q-16 -42 -16 -153z" />
<glyph unicode="&#x26;" horiz-adv-x="1728" d="M30 380q3 154 80.5 258t233.5 171q-116 127 -119 302q0 96 38.5 173.5t104.5 127.5t153 76.5t185 26.5q77 0 152 -23t136 -65.5t98.5 -110t37.5 -147.5q0 -61 -8 -103.5t-31 -80.5t-50 -66t-80 -75l179 -175l27 24q26 24 53 55.5t27 47.5q0 35 -27 35h-47v295h483v-289 q-70 -24 -107 -50.5t-101 -92.5l-170 -176q5 -2 148 -150h230v-368h-539q-49 49 -173 183q-185 -204 -461 -210q-194 2 -321.5 109t-131.5 298zM487 487q0 -66 44 -109t110 -43q62 0 114 40l-207 214l-7 -5q-6 -4 -15 -13.5t-17.5 -21.5t-15 -28.5t-6.5 -33.5zM678 1175 q0 -30 18 -59.5t37 -47.5t51 -43q48 33 70 59.5t22 67.5q0 51 -26.5 86t-77.5 35q-39 0 -66.5 -29.5t-27.5 -68.5z" />
<glyph unicode="'" horiz-adv-x="559" d="M44 1624h480l-100 -679h-300z" />
<glyph unicode="(" horiz-adv-x="966" d="M50 819q0 207 48 359.5t150.5 260t268 161t395.5 53.5v-332q-77 -2 -137 -22.5t-98 -59t-63.5 -83t-38 -105t-17 -113t-4.5 -118.5q0 -78 8.5 -145t32 -135.5t61.5 -116.5t102 -78.5t148 -30.5v-331q-173 0 -315.5 45t-241.5 123t-167.5 184.5t-100 228t-31.5 255.5z" />
<glyph unicode=")" horiz-adv-x="966" d="M54 1321v332q230 0 395.5 -53.5t268 -161t150.5 -260t48 -359.5q0 -134 -31.5 -255.5t-100 -228t-167.5 -184.5t-241.5 -123t-315.5 -45v331q84 0 148 30.5t102 78.5t61.5 116.5t32 135.5t8.5 145q0 66 -4.5 118.5t-17 113t-38 105t-63.5 83t-98 59t-137 22.5z" />
<glyph unicode="*" horiz-adv-x="1347" d="M71.5 637q-3.5 41 18.5 84t69 74q48 31 117 57.5t161.5 54t124.5 38.5q-29 10 -124 38t-163 54t-116 58q-47 31 -69 74t-18.5 84t26.5 75q35 55 98.5 68t140.5 -32q33 -22 73 -60.5t63 -64t71.5 -83.5t58.5 -70q-5 16 -26 87.5t-30 105.5t-19 88t-10 94q0 84 48 132 t113 48t113 -48t48 -132q0 -32 -5 -69t-16 -80.5t-19.5 -73.5t-24 -81.5t-21.5 -70.5q15 17 60 70.5t70 82t64.5 66t72.5 59.5q77 45 140.5 32t98.5 -68q23 -34 26.5 -75t-18.5 -84t-69 -74q-48 -32 -116.5 -58t-163.5 -54t-124 -38q33 -12 125.5 -39t161.5 -53.5t117 -57.5 q47 -31 69 -74t18.5 -84t-26.5 -75q-35 -55 -98.5 -68t-140.5 32q-33 22 -73 60t-63.5 64.5t-71 83t-59.5 70.5q4 -13 26.5 -87.5t31 -106.5t18.5 -86.5t10 -94.5q0 -84 -48 -132t-113 -48t-113 48t-48 132q0 40 10 93.5t19 89t29.5 104t26.5 88.5q-5 -6 -58 -69.5t-73 -86 t-61 -61.5t-74 -61q-77 -45 -140.5 -32t-98.5 68q-23 34 -26.5 75z" />
<glyph unicode="+" horiz-adv-x="910" d="M59 517v245h272v289h255v-289h265v-245h-265v-279h-255v279h-272z" />
<glyph unicode="," horiz-adv-x="716" d="M95 0v366h510q24 -154 24 -277q0 -278 -130 -407.5t-404 -129.5v225q45 0 78 6.5t53.5 22t32.5 31.5t17.5 46t6.5 52.5t1 64.5h-189z" />
<glyph unicode="-" horiz-adv-x="838" d="M95 537v299h647v-299h-647z" />
<glyph unicode="." horiz-adv-x="678" d="M58 223q0 113 77.5 179t199.5 66q127 0 207 -66t80 -179q0 -115 -82.5 -182.5t-204.5 -67.5q-119 0 -198 67.5t-79 182.5z" />
<glyph unicode="/" horiz-adv-x="954" d="M52 0l491 1623h364l-502 -1623h-353z" />
<glyph unicode="0" horiz-adv-x="1370" d="M68 695q0 142 43.5 264.5t122.5 212t195.5 141t256.5 52.5q138 -1 254.5 -52.5t195.5 -141t122.5 -212t43.5 -264.5q0 -216 -66.5 -376t-207 -253t-342.5 -92q-204 -1 -344.5 92t-207 253t-66.5 376zM553 669q0 -46 1.5 -81t9.5 -83t21 -79.5t39 -54t61 -22.5 q44 0 72.5 31t40.5 86t15.5 99.5t3.5 103.5v28q0 27 0.5 55.5t-2.5 58t-7 56.5t-14 51t-24 42t-35.5 28t-49.5 10q-32 0 -56.5 -13.5t-38 -37t-22.5 -54t-11 -64t-4 -67.5t0 -65v-28z" />
<glyph unicode="1" horiz-adv-x="924" d="M62 950v258l662 167l6 -1051h96v-324h-689l-1 325l90 -1v627z" />
<glyph unicode="2" horiz-adv-x="1330" d="M80 950q-3 -106 34.5 -201t113.5 -163l226 174q-7 7 -17.5 18.5t-27.5 45.5t-17 65q0 62 35 102t100 40q53 0 93 -47.5t44 -124.5q0 -63 -16.5 -115.5t-52.5 -99.5t-67.5 -78t-88.5 -79q-129 -110 -322 -184v-303h1143v471h-173q0 -45 -17 -74.5t-49.5 -44.5t-67 -21 t-82.5 -7h-161q87 65 128 96.5t116 98.5t116 120q106 136 106 289q0 106 -41 192.5t-112.5 143t-165.5 88t-203 35.5q-81 3 -162.5 -13.5t-155.5 -53t-131.5 -88.5t-91.5 -125t-33 -157z" />
<glyph unicode="3" horiz-adv-x="1274" d="M70 899l194 -1q21 80 36 102q29 41 101 41h220v-10l-342 -291v-158l1 -5q6 -5 20 -5q6 0 47 10t80 10q45 0 86 -8t79 -26t61 -52.5t23 -81.5q0 -41 -21 -70.5t-55.5 -45.5t-71 -23t-75.5 -7q-189 0 -370 146v-346q89 -60 202.5 -78t271.5 -18q300 0 474.5 128t174.5 364 q0 140 -103.5 252t-247.5 125q284 234 284 237v264h-1069v-453z" />
<glyph unicode="4" horiz-adv-x="1281" d="M11 419v269l551 654l439 -1v-666l227 2v-257h-228v-132h122v-288h-705v288h127v132zM355 678l189 -1v234z" />
<glyph unicode="5" horiz-adv-x="1167" d="M112 566l12 -11q86 64 178 64q59 0 114 -16t96.5 -57t41.5 -100q0 -48 -26 -83t-65.5 -51.5t-74 -23.5t-63.5 -7q-34 0 -87 16.5t-89 32.5l-36 17v-272q46 -45 156 -69t209 -24q102 0 193.5 19t171 61t137 103t90.5 150t33 198q0 184 -137.5 306t-337.5 122 q-56 0 -108.5 -4.5t-77.5 -8.5l-25 -4v139h611v297h-916v-794z" />
<glyph unicode="6" horiz-adv-x="1355" d="M55 534q0 -164 84.5 -291t226.5 -194t316 -67q162 0 303.5 72t228.5 202t88 288q2 211 -127.5 339.5t-345.5 139.5q10 27 82.5 105.5t142.5 147t70 69.5h-536q-14 -14 -54.5 -53t-65 -63t-68 -69t-72.5 -77.5t-68.5 -81t-65.5 -88.5t-54.5 -90.5t-45.5 -95.5t-28 -95 t-11 -98zM571 550q0 38 1 62t7.5 58t18 54t34.5 35t56 16q30 0 51.5 -19t31 -42t15 -62t6 -57.5t0.5 -50.5q0 -217 -116 -217q-34 0 -56.5 24.5t-32 64t-13 70.5t-3.5 64z" />
<glyph unicode="7" horiz-adv-x="1232" d="M63 878h218q0 85 31 113.5t100 28.5h241l-505 -1020h532l526 1067v270h-1143v-459z" />
<glyph unicode="8" horiz-adv-x="1322" d="M61 375q0 255 261 355q-87 33 -135.5 107t-48.5 173q0 86 36 153t90.5 106.5t127.5 64.5t138 34t132 10q65 -1 130 -10t138 -34t127.5 -64.5t90.5 -106.5t36 -153q0 -99 -48.5 -173t-135.5 -107q261 -100 261 -355q0 -93 -40 -165t-100.5 -114t-144 -69t-159 -36 t-156.5 -9t-156.5 9t-159 36t-144 69t-100.5 114t-40 165zM581 406q0 -166 80 -166t80 166q0 172 -78 172q-82 0 -82 -172zM581 986q0 -162 82 -160q78 -2 78 160q0 28 -2.5 47.5t-9.5 42t-24.5 34t-41.5 12.5q-28 -1 -45.5 -12.5t-24.5 -34t-9.5 -42t-2.5 -47.5z" />
<glyph unicode="9" horiz-adv-x="1357" d="M53 782q0 -196 139 -328.5t346 -132.5q-41 -52 -117 -132t-131 -135l-55 -54h537q22 23 70.5 72t84.5 85.5t87 92.5t88 103t77.5 108t66 115t42 116.5t16.5 120.5q0 158 -79.5 285t-219 198.5t-311.5 71.5q-282 0 -461.5 -166t-179.5 -420zM575 782q0 230 111 230 q30 0 51 -26t29.5 -66.5t12 -71.5t3.5 -58q0 -217 -98 -217q-109 0 -109 209z" />
<glyph unicode=":" horiz-adv-x="724" d="M80 232q0 113 77.5 179t199.5 66q127 0 207 -66t80 -179q0 -115 -82.5 -182.5t-204.5 -67.5q-119 0 -198 67.5t-79 182.5zM80 846q0 113 77.5 179t199.5 66q127 0 207 -66t80 -179q0 -115 -82.5 -182.5t-204.5 -67.5q-119 0 -198 67.5t-79 182.5z" />
<glyph unicode=";" horiz-adv-x="720" d="M95 845q0 113 77.5 179t199.5 66q127 0 207 -66t80 -179q0 -115 -82.5 -182.5t-204.5 -67.5q-119 0 -198 67.5t-79 182.5zM105 0h189q0 -42 -1 -64.5t-6.5 -52.5t-17.5 -46t-32.5 -31.5t-53.5 -22t-78 -6.5v-225q274 0 404 129.5t130 407.5q0 123 -24 277h-510v-366z" />
<glyph unicode="&#x3c;" horiz-adv-x="909" d="M57 576v370l715 596v-465l-333 -316l333 -316v-465z" />
<glyph unicode="=" horiz-adv-x="844" d="M99 169v223h647v-223h-647zM99 538v223h647v-223h-647z" />
<glyph unicode="&#x3e;" horiz-adv-x="909" d="M137 -20v465l333 316l-333 316v465l715 -596v-370z" />
<glyph unicode="?" horiz-adv-x="1311" d="M57 1219q14 226 183.5 372t426.5 146q169 0 306.5 -60t215.5 -166.5t78 -238.5q0 -68 -19.5 -129t-49.5 -107.5t-77.5 -89.5t-93 -73t-107 -59.5t-108 -48t-107.5 -39.5v-187h-347l1 352q396 179 396 358q0 16 -3.5 34.5t-12 42.5t-29.5 39.5t-51 15.5q-120 0 -130 -162 h-472zM261 223q0 113 77.5 179t199.5 66q127 0 207 -66t80 -179q0 -115 -82.5 -182.5t-204.5 -67.5q-119 0 -198 67.5t-79 182.5z" />
<glyph unicode="@" horiz-adv-x="1899" d="M82 567q0 166 61 311.5t174 255.5t286 174t384 64q197 0 360 -54.5t270.5 -149t166 -221t58.5 -270.5q0 -105 -32.5 -189.5t-100 -149t-179.5 -99.5t-263 -35h-150l-38 90q-35 -49 -95.5 -76.5t-117.5 -27.5q-119 0 -202.5 109.5t-83.5 288.5q0 77 24 142.5t72.5 119 t133 84t195.5 30.5q29 0 52 -1t66.5 -8.5t76.5 -20.5t72.5 -40t65 -63.5t43 -95.5t17.5 -132l1 -205q24 0 43 4.5t42 21t38 45t25 82t10 126.5q0 200 -145 320t-425 120q-284 0 -437 -149t-153 -401q0 -111 40.5 -206.5t118.5 -168t201.5 -114t279.5 -41.5q87 0 163 22 l52 -228q-110 -29 -215 -29q-224 0 -407 60.5t-301.5 165t-182.5 243t-64 296.5zM923 582q0 -93 20 -150.5t53 -57.5q55 0 83 35v262q0 83 -17 114.5t-59 31.5q-25 0 -41.5 -19.5t-24.5 -55.5t-11 -73t-3 -87z" />
<glyph unicode="A" d="M4 0h678v359h-84q-21 0 -32 36t-11 64q1 21 2 32t8 21.5t20 10.5h275q67 0 67 -164h-120l1 -359h826v359h-86q-15 0 -26 12.5t-16.5 28.5t-13.5 47l-307 1176h-994v-353h212l-172 -679q-27 -105 -38 -129q-33 -76 -111 -95q-34 -8 -78 -8v-359zM612 773l112 508l117 -508 h-229z" />
<glyph unicode="B" horiz-adv-x="1666" d="M89 0h942q129 0 232.5 23t184 71.5t124.5 131t44 194.5q0 169 -82 277t-232 151v2q109 41 177 135.5t68 218.5q0 100 -30 174t-82.5 121t-135 75t-175 38.5t-214.5 10.5l-814 -1v-352h166l-1 -911h-172v-359zM789 359v340q63 1 74 1q29 0 52 -2.5t51.5 -13t48 -28.5 t33 -51t13.5 -78q0 -25 -3.5 -46t-10 -36.5t-15.5 -28.5t-20.5 -21.5t-25.5 -15t-29.5 -10t-32.5 -6t-35.5 -3.5t-38 -1.5t-39.5 0.5h-22zM789 961v309h126q56 0 97 -36t41 -103q0 -55 -16.5 -90.5t-50.5 -52t-68.5 -22t-87.5 -5.5h-41z" />
<glyph unicode="C" horiz-adv-x="1538" d="M57 804q0 -252 85.5 -437.5t260 -290.5t422.5 -105q104 0 207.5 24t176.5 57.5t131 67.5t87 58l29 24v410h-301q-4 -74 -8 -94q-15 -80 -76.5 -127.5t-142.5 -47.5q-61 0 -107 22t-71.5 59t-43 85t-21.5 100q-4 53 -7 105q-2 26 -2 50t2 47v44q0 47 1 80t6 82t14 83.5 t27 72.5t42.5 62t62 39.5t84.5 15.5q63 0 111 -27.5t74 -72.5q26 -46 38 -96q11 -47 11 -95v-8h298l-1 632h-311l-34 -71q-45 43 -112.5 66.5t-120.5 28.5t-127 5q-141 0 -257 -49t-194 -131t-131.5 -192.5t-77.5 -229.5t-24 -246z" />
<glyph unicode="D" horiz-adv-x="1801" d="M92 1271h169v-912h-163v-359h802q202 0 365 67t266 180.5t158 259.5t55 309q0 396 -205 601.5t-617 205.5h-830v-352zM808 359v912h47q74 0 129 -28.5t86 -72t49.5 -106.5t24.5 -120.5t6 -126.5q0 -67 -7.5 -127t-28.5 -122.5t-54 -107t-88.5 -73t-128.5 -28.5h-35z" />
<glyph unicode="E" horiz-adv-x="1490" d="M99 0v359h158v911h-158v353h1268v-654l-268 -1l-76 302h-213v-282h205v-352h-205v-277h219l13 61l63 267h273v-687h-1279z" />
<glyph unicode="F" horiz-adv-x="1407" d="M100 0v359h158v911h-158v353h1275v-664h-284l-64 311h-204v-271h202v-356h-202v-284h154v-359h-877z" />
<glyph unicode="G" horiz-adv-x="1720" d="M53 792q0 -154 42.5 -286t119.5 -229.5t183 -166.5t235 -104t274 -35q250 0 395 130l42 -101h276v862h-625v-304l160 -1q8 -29 8 -81q0 -73 -57 -115.5t-133 -42.5q-315 0 -315 441q0 63 4 115.5t15 116t33.5 112t56.5 90.5t88 64.5t124 22.5q63 0 110.5 -18.5t76 -47 t48.5 -75.5t29.5 -90t16.5 -104h288v678h-315l-44 -62q-128 91 -333 91q-191 0 -345.5 -68t-253.5 -186t-151.5 -273t-52.5 -333z" />
<glyph unicode="H" horiz-adv-x="1908" d="M105 0v359h147v911h-147v353h809v-353h-95v-284h269v284h-88v353h798v-353h-141v-911h147v-359h-800v359h84v276h-269v-276h96l-1 -359h-809z" />
<glyph unicode="I" horiz-adv-x="1076" d="M104 0v359h147v911h-143v353h864v-353h-147v-911h141v-359h-862z" />
<glyph unicode="J" horiz-adv-x="1314" d="M30 -13h270l37 92q89 -109 288 -109q234 0 365 137.5t131 367.5v795h147v353h-854v-353h154v-698q0 -110 -27 -158.5t-84 -48.5q-25 0 -45.5 11t-33 26t-21.5 41t-13.5 46t-6.5 52t-2.5 48t-0.5 44h-304v-646z" />
<glyph unicode="K" horiz-adv-x="1799" d="M105 0v359h147v911h-147v352h821v-352h-127v-383l287 383v352l624 1v-353h-137l-319 -406v-14q78 0 138 -12t108.5 -39t74 -76.5t25.5 -120.5v-141q0 -35 18 -68.5t49 -33.5h90l6 -359h-348q-336 0 -336 307v185q0 48 -32 98t-78 50h-170v-281h127l6 -324v-35h-827z" />
<glyph unicode="L" horiz-adv-x="1421" d="M104 1270v352h868v-352h-154v-911h191l87 350h286v-709h-1273l-1 359h143v911h-147z" />
<glyph unicode="M" horiz-adv-x="2408" d="M96 1623l1 -353h167v-662v-50.5t-1.5 -44t-4.5 -40.5t-8.5 -33t-13.5 -29.5t-20.5 -21.5t-28.5 -17t-38 -9t-49 -4v-359h651v359q-27 0 -49 3.5t-38 8t-28 14.5t-20 17t-13.5 22.5t-8 24t-4 28t-1.5 28.5v30v464l416 -999h281l342 977v-618h-123v-359h803v359h-154v911 h147v353h-784l-276 -767l-310 767h-835z" />
<glyph unicode="N" horiz-adv-x="1874" d="M98 0h637v359q-85 0 -121.5 33t-36.5 115v401l473 -908h606v1118q0 74 36.5 113t121.5 39v352l-637 1v-353h13q31 0 55 -4q29 -5 45.5 -18.5t26.5 -26t13.5 -35t4 -34.5t0.5 -36v-469l-496 976h-735v-351h157v-722q0 -38 -2 -60t-10.5 -50.5t-25 -43.5t-48 -26t-77.5 -11 v-359z" />
<glyph unicode="O" horiz-adv-x="1744" d="M52 808q0 258 107.5 451.5t292 293.5t422.5 100q234 0 418.5 -100t292 -293.5t107.5 -451.5q0 -235 -107.5 -427t-295.5 -301t-417 -109t-417 109t-295.5 301t-107.5 427zM662 924q-1 -15 -1 -29q0 -19 1 -37v-35v-30q1 -30 0 -63v-19q0 -23 2 -49q2 -36 5 -71t10.5 -69 t17.5 -64t26 -55.5t36.5 -44t49.5 -29t63 -10.5q39 0 70 13t52.5 36t37.5 54t25 67.5t15 75.5t7.5 78.5t2.5 77.5v37v35v30v35v37v39v15q0 33 -4 67q-4 42 -10.5 82.5t-22.5 76.5t-37.5 63t-56.5 42.5t-79 15.5q-39 0 -70.5 -12t-52.5 -33.5t-37.5 -50t-25 -62t-15 -70 t-7 -73t-2.5 -71.5z" />
<glyph unicode="P" horiz-adv-x="1651" d="M99 0h861v359h-146v210q79 -10 150 -10q153 0 271.5 29t208.5 92q90 62 136 170q45 103 44 244v12q-1 85 -16.5 155t-42.5 120.5t-65 90.5t-84 65t-99.5 43t-112.5 26q-60 6 -122 12q-53 5 -107 5h-20q-32 -1 -65 -1l-65 1h-24.5h-21.5h-24h-651v-353h151v-911h-156v-359 zM814 895v375h84q78 0 131 -42t53 -132q0 -201 -227 -201h-41z" />
<glyph unicode="Q" horiz-adv-x="1765" d="M53 815q0 -250 103 -441.5t294 -297.5t443 -106q40 0 116 8l251 22h484v359h-163q121 203 121 448q0 194 -61.5 354t-170 267t-258 165.5t-325.5 58.5q-246 0 -436.5 -106t-294 -296.5t-103.5 -434.5zM670 777v118.5t4 107t11.5 92.5t22.5 75.5t38 56.5t57 35.5t79 12.5 q51 0 88.5 -18.5t59.5 -58.5t35.5 -76.5t19 -99.5t6.5 -99t1 -101v-47q2 -23 2 -49q0 -21 -2 -43q-2 -49 -5 -97.5t-16.5 -93.5t-34 -79t-57.5 -54.5t-86 -20.5q-39 0 -70 9t-53.5 28t-39 41t-27 56.5t-17.5 65t-10 75.5t-4.5 79t-1.5 85z" />
<glyph unicode="R" horiz-adv-x="1765" d="M101 1270h155v-911h-154v-360q546 1 810 1v359h-121v335h98q60 0 98 -17t56.5 -52.5t25 -75t6.5 -98.5v-195q0 -41 8 -75.5t20 -59.5t33.5 -44.5t41 -32t51 -21.5t54.5 -13.5t60.5 -6.5t60 -2.5t61.5 -0.5h262v359q-56 0 -89.5 6.5t-49.5 22t-20.5 32.5t-4.5 46v93 q0 92 -64 153t-213 95q172 32 265.5 125t93.5 238q0 123 -37 211.5t-108.5 141t-166 76.5t-217.5 24h-1015v-353zM785 920v350h121q89 0 139.5 -47.5t50.5 -126.5q0 -50 -21 -86t-58 -55t-78.5 -27t-92.5 -8h-61z" />
<glyph unicode="S" horiz-adv-x="1329" d="M74 1133q0 -66 9.5 -123t25.5 -103t42 -86.5t55 -71.5t69 -59t78.5 -48.5t89.5 -40.5t96 -34.5t104 -31.5q37 -10 62 -21t47 -35.5t22 -58.5q0 -41 -32.5 -63.5t-76.5 -22.5q-73 0 -140 55.5t-93 128.5h-322v-518h323l36 92q78 -66 149.5 -93.5t179.5 -27.5 q105 0 196.5 45.5t153.5 120.5t96 172q33 92 32 188v11q-2 104 -28.5 188.5t-69.5 141t-98 100t-115.5 70t-121 47.5t-115 36.5t-96.5 31.5t-66.5 38t-24.5 52q0 46 25 69t69 23q75 0 137 -60t80 -138h307v516h-285q-28 -48 -32 -60q-119 90 -312 90q-223 0 -339.5 -141 t-116.5 -379z" />
<glyph unicode="T" horiz-adv-x="1535" d="M39 965v657h1457v-657h-281l-62 305h-106v-910h164v-360h-891v360h164v910h-100l-64 -305h-281z" />
<glyph unicode="U" horiz-adv-x="1683" d="M43 1270h161v-566q0 -88 7.5 -163t27 -151t50.5 -137t80 -115t113.5 -90t153.5 -56.5t198 -20.5q171 0 319 68t240 195.5t92 285.5v750h154v352h-654v-352h164v-734q0 -88 -52 -139t-144 -51q-52 0 -90.5 22t-59 59.5t-30 80.5t-9.5 92v670h148v352h-869v-352z" />
<glyph unicode="V" horiz-adv-x="1668" d="M-6 1270h166l361 -1270h584l354 1032q6 17 16.5 49t15 45t14 37t16.5 33.5t19 25.5t24.5 22t30.5 13.5t40 10t49 2.5v352h-694v-352q74 0 110 -24q38 -24 38 -69q0 -41 -17 -96l-176 -564l-202 753h116v352h-865v-352z" />
<glyph unicode="W" horiz-adv-x="2460" d="M-5 1270h144l349 -1270h537l202 706l193 -706h543l321 1148q20 71 62.5 96.5t126.5 25.5v353h-651v-353q74 0 98 -12.5t12 -56.5l-135 -498l-253 920h-409l-260 -951l-159 598h141v353h-861z" />
<glyph unicode="X" horiz-adv-x="1863" d="M8 0h828l-6 359h-84q-26 0 -45 17t-19 44q0 14 6.5 33.5t14.5 29.5l110 151l243 -275h-126v-359h899v359h-122l-429 470l258 351q38 53 104 71.5t158 18.5v353h-737v-353q23 0 54.5 -12.5t31.5 -31.5q0 -16 -22.5 -56.5t-45.5 -73.5l-22 -32l-162 206h82v353h-878v-353 h131l371 -408l-287 -369q-61 -85 -118.5 -109.5t-187.5 -24.5v-359z" />
<glyph unicode="Y" horiz-adv-x="1559" d="M-15 1270h112l421 -598v-313h-155v-359h869v359h-157v365l204 371q24 45 35.5 64.5t31.5 46.5t38 37.5t44.5 18.5t61.5 8h74v352h-637v-352h22.5h21.5h18t16.5 -1.5t13 -3.5t11 -6t7.5 -9t5.5 -12.5t1.5 -16.5q0 -55 -114 -228q-21 30 -91.5 138.5t-92.5 138.5h91v352 h-852v-352z" />
<glyph unicode="Z" horiz-adv-x="1607" d="M101 938v684h1394v-329l-677 -934h309l107 346h282l-1 -705h-1409l-1 350l679 920h-315l-80 -332h-288z" />
<glyph unicode="[" horiz-adv-x="910" d="M145 0v1623h714v-301h-197v-1011h193l-1 -311h-709z" />
<glyph unicode="\" horiz-adv-x="1031" d="M58 1623h574l341 -1623h-573z" />
<glyph unicode="]" horiz-adv-x="909" d="M50 1322v301h714v-1623h-709l-1 311h193v1011h-197z" />
<glyph unicode="^" horiz-adv-x="1707" d="M222 909l496 715h370l496 -715h-465l-216 333l-216 -333h-465z" />
<glyph unicode="_" horiz-adv-x="1165" d="M-14 -1h1193v-223h-1193v223z" />
<glyph unicode="`" horiz-adv-x="1016" d="M97 1443l184 265l474 -437l-104 -141z" />
<glyph unicode="a" horiz-adv-x="1294" d="M30 308q0 -149 113.5 -237.5t275.5 -88.5q82 0 169 36t137 101l50 -119h472v305h-76v445q0 69 -25.5 124.5t-63 90.5t-94 60.5t-105 38t-111 19.5t-95.5 8t-74 1q-107 0 -228 -17.5t-188 -34.5l-67 -18v-314h175q72 95 215 95q211 0 211 -166v-45q-110 38 -256 38 q-83 0 -159.5 -20.5t-138.5 -59.5t-99.5 -102t-37.5 -140zM520 326q0 43 31 77.5t74 34.5q22 0 46.5 -5t38.5 -11l14 -5v-147q-4 -5 -12 -12.5t-36 -20.5t-60 -13q-44 0 -70 28.5t-26 73.5z" />
<glyph unicode="b" horiz-adv-x="1401" d="M33 1325h84v-1325h450l40 102q98 -70 135 -88q66 -32 141 -32q93 0 171.5 31t133.5 84t93.5 124t56.5 151t18 166q0 81 -17.5 159.5t-54 150t-89 126t-127.5 86.5t-164 32q-148 0 -305 -127v666h-566v-306zM603 396v266q2 4 5.5 10.5t16.5 23t27 29t37.5 23t48.5 10.5 q39 0 67.5 -17t44.5 -41t25.5 -58.5t12 -63t2.5 -59.5q0 -92 -43 -141.5t-109 -49.5q-36 0 -70 17t-50 34z" />
<glyph unicode="c" horiz-adv-x="1110" d="M43 546q0 -178 73.5 -307.5t197 -193t281.5 -63.5q126 0 250 36.5t193 105.5v301h-240q-1 -5 -2.5 -14t-10 -31.5t-21 -39.5t-37 -31t-56.5 -14q-43 0 -74.5 20t-48.5 53t-24.5 69t-7.5 76q0 135 46 200t109 65q51 0 87 -42t36 -108h242v444h-175l-41 -77 q-121 97 -258 97q-117 0 -216 -44.5t-164.5 -119.5t-102 -174t-36.5 -208z" />
<glyph unicode="d" horiz-adv-x="1442" d="M43 550q0 -105 29 -204t84 -181.5t146 -133t204 -50.5q90 1 167 40t128 107v-128h569v305h-77l-1 1335h-585v-305h90v-375q-68 69 -137.5 99.5t-161.5 30.5q-103 0 -190.5 -47t-144.5 -124t-88.5 -173t-31.5 -196zM514 558q0 92 43 141.5t109 49.5q36 0 70 -17t50 -34 l15 -17v-266q-2 -4 -5.5 -10.5t-16.5 -23t-27 -29t-37.5 -23t-48.5 -10.5q-39 0 -67.5 17t-44.5 41t-25.5 58.5t-12 63t-2.5 59.5z" />
<glyph unicode="e" horiz-adv-x="1224" d="M40 521q0 -147 73 -270t204.5 -196t293.5 -73q160 0 287.5 33t259.5 112v224h-307q-2 -59 -35 -94t-105 -35q-82 0 -129.5 66.5t-47.5 167.5h602q19 -8 23.5 -4.5t13.5 32.5q5 37 5 71q0 150 -62.5 270t-189.5 193.5t-299 73.5q-180 0 -314.5 -74.5t-203.5 -203 t-69 -293.5zM536 627v29q0 61 27 109.5t81 48.5q37 0 61 -17.5t33 -50t11.5 -58.5t1.5 -61h-215z" />
<glyph unicode="f" horiz-adv-x="875" d="M94 0h680v305h-110v456h172v311h-179q-1 20 -1 38q0 78 22 112q26 43 89 43q38 0 96 -13v311q-14 5 -40.5 13t-107 21t-160.5 13q-380 0 -380 -403q2 -132 2 -135h-83v-311h84v-456h-84v-305z" />
<glyph unicode="g" horiz-adv-x="1414" d="M45 548q0 -103 31.5 -196t90.5 -165.5t151 -115.5t204 -43q77 0 153 23.5t134 65.5q0 -64 -17 -105t-54.5 -62.5t-83 -29t-114.5 -7.5q-178 0 -364 68v-309q13 -7 40.5 -17t128 -27t219.5 -17q694 0 694 524v626h87v311h-453l-33 -75q-173 93 -325 93 q-139 0 -252.5 -78.5t-175 -202t-61.5 -261.5zM528 532q0 61 11.5 109.5t43.5 83.5t82 35q48 0 82 -38.5t47.5 -90t13.5 -108.5q0 -37 -7.5 -74t-22.5 -71.5t-42.5 -56.5t-62.5 -22q-53 0 -87 37t-46 86.5t-12 109.5z" />
<glyph unicode="h" horiz-adv-x="1451" d="M67 1332h84v-1027h-79l-1 -305h653v305h-80v321q0 118 101 118q82 0 83 -125v-619h576v305h-86v397q0 189 -94 288.5t-264 99.5q-35 0 -67.5 -6t-55 -12.5t-50 -23.5t-40.5 -26t-39 -34.5t-33.5 -33.5t-34.5 -38v724h-573v-308z" />
<glyph unicode="i" horiz-adv-x="814" d="M91 761h89v-456h-82v-305h647v305h-84v767h-570v-311zM103 1385q0 113 77.5 179t199.5 66q127 0 207 -66t80 -179q0 -115 -82.5 -182.5t-204.5 -67.5q-119 0 -198 67.5t-79 182.5z" />
<glyph unicode="j" horiz-adv-x="772" d="M49 -72l2 -326q173 0 290.5 32t186.5 100t98 163t29 232v943h-589v-312h90v-769q0 -37 -36 -52q-28 -12 -56 -12q-7 0 -15 1zM94 1385q0 113 77.5 179t199.5 66q127 0 207 -66t80 -179q0 -115 -82.5 -182.5t-204.5 -67.5q-119 0 -198 67.5t-79 182.5z" />
<glyph unicode="k" horiz-adv-x="1413" d="M68 1330v304h578v-1047l201 174h-95v311h584v-311h-151l-143 -117v-26l227 -313h115v-305h-453l-285 438v-438h-577v305h83v1025h-84z" />
<glyph unicode="l" horiz-adv-x="794" d="M65 1317v313h579v-1325h78v-305h-647v305h74v1012h-84z" />
<glyph unicode="m" horiz-adv-x="2073" d="M94 761v311h516v-170q34 47 77.5 82.5t91.5 59.5t98 36t98 12q84 0 154.5 -52t113.5 -149q135 201 349 201q70 0 133.5 -20t111.5 -63.5t76.5 -112.5t28.5 -167v-424h74v-305h-529v635q-5 48 -30 78t-70 30q-32 0 -54 -12.5t-36.5 -35t-21.5 -52.5t-8 -64v-274h85v-305 h-522v638q0 100 -112 100q-35 0 -56 -20.5t-32.5 -50.5t-15.5 -64.5t-4 -61.5v-238h80v-303h-595v299h73v462h-74z" />
<glyph unicode="n" horiz-adv-x="1483" d="M91 0h658v305h-88v319q0 47 28.5 80t75.5 33q36 0 63 -31t27 -79v-627h574v305h-80v375q0 412 -330 412q-118 0 -210.5 -45.5t-147.5 -130.5v156h-563v-311h76v-456h-83v-305z" />
<glyph unicode="o" horiz-adv-x="1290" d="M43 547q0 260 161 402t440 142q281 0 442 -142t161 -402q0 -175 -76.5 -304t-212 -195t-313.5 -66t-313.5 66t-212 195t-76.5 304zM508 545q0 -251 137 -251t137 251q0 51 -4.5 86.5t-17.5 72.5t-42 56t-73 19t-73 -19t-42 -56t-17.5 -72.5t-4.5 -86.5z" />
<glyph unicode="p" horiz-adv-x="1438" d="M66 -94v-303h674v301h-111v215q41 -33 61 -47.5t63.5 -40t89 -37t97.5 -11.5q109 0 197.5 47.5t143 127t83.5 178t29 205.5q0 108 -30 207t-85.5 176t-142.5 123t-193 46q-93 0 -160.5 -32.5t-131.5 -104.5h-10v116h-564v-311h74v-855h-84zM629 417v228q1 4 3 10t12 22.5 t23.5 29t38 22.5t55.5 10q163 0 163 -194q0 -44 -7.5 -82.5t-25 -74.5t-51.5 -57t-82 -21q-32 0 -57 11t-38 27t-21.5 31.5t-10.5 26.5z" />
<glyph unicode="q" horiz-adv-x="1438" d="M62 571q0 102 32.5 196t90.5 166.5t146 115.5t192 43q97 0 164.5 -25t137.5 -82h10l64 87h480v-311h-74v-855h84v-304l-674 1v301h111v224q-33 -28 -47 -39.5t-50 -36.5t-63 -36.5t-68 -22t-83 -10.5q-92 0 -168 33t-128 89.5t-88 132.5t-52.5 159.5t-16.5 173.5z M551 554q0 -58 11 -105t45.5 -83.5t89.5 -36.5q44 0 74.5 33t42.5 76t12 88q3 16 3 35q0 18 -3 38q-5 42 -16 79.5t-41.5 63.5t-74.5 26q-143 0 -143 -214z" />
<glyph unicode="r" horiz-adv-x="1000" d="M94 0v305h79v456h-79v311h543v-163l4 -4q49 84 141 131t191 47v-416l-106 7q-110 0 -173 -63.5t-63 -184.5v-121h137v-305h-674z" />
<glyph unicode="s" horiz-adv-x="1055" d="M64 9h177l36 67q100 -94 308 -94q203 0 307 105t104 308q0 226 -241 324q-14 5 -61 17t-82 23t-65 34t-30 53q0 35 27.5 54.5t64.5 19.5q34 0 69 -18t54 -46q4 -5 15 -29t20 -45l8 -21h201v320h-168l-27 -48q-10 7 -30 16.5t-96 26t-168 16.5q-121 0 -211.5 -35 t-145.5 -114.5t-55 -196.5q0 -77 27.5 -135t71 -92t96 -58.5t105.5 -41.5t96.5 -33t71 -40.5t27.5 -58.5q0 -38 -33.5 -58t-74.5 -20q-66 0 -112 54.5t-58 123.5h-221z" />
<glyph unicode="t" horiz-adv-x="873" d="M42 761h108l-1 -376q-2 -403 380 -403q80 0 157 16.5t114 33.5l37 17v299q-63 -14 -108 -14q-56 0 -77 32.5t-21 71.5l1 323h152v311h-152v334l-487 -105v-229h-103v-311z" />
<glyph unicode="u" horiz-adv-x="1465" d="M53 761v311h574v-634q0 -53 27 -86.5t63 -33.5q47 0 75.5 34.5t28.5 85.5v323h-81v311h575v-767h76v-305h-570v156q-55 -85 -147.5 -129.5t-210.5 -44.5q-330 0 -330 403v376h-80z" />
<glyph unicode="v" horiz-adv-x="1314" d="M8 761h74l320 -761h473l291 682q17 41 47 60t96 19v311h-547v-311q60 0 88 -19q17 -12 17 -34q0 -13 -6 -28l-131 -342l-169 423h91v311h-644v-311z" />
<glyph unicode="w" horiz-adv-x="1929" d="M26 761h69l258 -761h444l151 430l130 -430h475l153 483q6 20 16.5 57.5t17 58t18.5 50.5t25 46.5t32.5 33.5t46 24.5t59.5 7.5v311h-557v-311q12 0 20.5 -0.5t21 -1t20.5 -3t18 -6t15 -9.5t9 -14t4 -19.5t-4 -25.5l-85 -302q-19 50 -73.5 223t-99.5 321l-45 148h-266 l-210 -680l-113 369h114v311h-664v-311z" />
<glyph unicode="x" horiz-adv-x="1199" d="M40 0v305h131l180 207l-182 249h-109v311h474l162 -251l185 251h254v-311h-110l-163 -181l193 -275h111v-305h-453l-189 277l-207 -277h-277z" />
<glyph unicode="y" horiz-adv-x="1377" d="M3 761h88l466 -730l-197 -408h691v295h-232l378 710q21 40 31 56.5t31 38.5t48 30t66 8v311h-580v-311q70 0 90 -10q20 -11 20 -36q0 -21 -15 -53l-97 -208l-176 307h68v311h-680v-311z" />
<glyph unicode="z" horiz-adv-x="1214" d="M64 0h1085v451h-183q-10 -37 -20.5 -61.5t-26 -41t-28 -25t-39.5 -13t-46.5 -5t-61.5 -0.5h-101v11l469 479v277h-1022v-436h197q0 23 3.5 41t12.5 31t17.5 22.5t26 15t29.5 9t37 4.5t40 1.5t45 0.5h60v-11l-494 -467v-283z" />
<glyph unicode="{" horiz-adv-x="873" d="M4 722v243q53 2 88 17t50.5 40.5t21 49.5t5.5 56q0 118 39.5 220.5t116.5 183t203 126.5t287 46v-331q-162 0 -162 -246q0 -191 -251 -284q251 -92 251 -283q0 -246 162 -246v-331q-161 0 -287 46t-203 126.5t-116.5 183t-39.5 220.5q0 32 -5.5 56t-21 49.5t-50.5 40.5 t-88 17z" />
<glyph unicode="|" horiz-adv-x="685" d="M145 0v1623h395v-1623h-395z" />
<glyph unicode="}" horiz-adv-x="872" d="M58 -17v331q162 0 162 246q0 191 251 283q-251 93 -251 284q0 246 -162 246v331q161 0 287 -46t203 -126.5t116.5 -183t39.5 -220.5q0 -32 5.5 -56t21 -49.5t50.5 -40.5t88 -17v-243q-53 -2 -88 -17t-50.5 -40.5t-21 -49.5t-5.5 -56q0 -118 -39.5 -220.5t-116.5 -183 t-203 -126.5t-287 -46z" />
<glyph unicode="~" horiz-adv-x="1289" d="M45 720q24 37 54.5 100t55.5 109.5t59 94t80.5 73t104.5 25.5q55 0 114.5 -20.5t111.5 -50t102.5 -58.5t103.5 -49.5t97 -20.5q25 0 65.5 35t143.5 159l129 -85q-24 -36 -54.5 -98.5t-55 -110t-58.5 -95t-80 -73.5t-104 -26q-55 0 -114.5 21t-111.5 50.5t-101.5 59.5 t-102 51t-96.5 21q-27 0 -65 -34t-147 -164z" />
<glyph unicode="&#xa1;" horiz-adv-x="804" d="M108 0h587v299l-84 773l-421 2l-82 -775v-299zM123 1408q0 113 77.5 179t199.5 66q127 0 207 -66t80 -179q0 -115 -82.5 -182.5t-204.5 -67.5q-119 0 -198 67.5t-79 182.5z" />
<glyph unicode="&#xa2;" horiz-adv-x="1149" d="M56 546q0 109 36.5 208t102 174t164.5 119.5t216 44.5q23 0 46 -3v273h112v-305q50 -23 100 -62l41 77h175v-444h-242q0 49 -20.5 85.5t-53.5 52.5v-461q19 8 34 24t23 31t13 32t6.5 23t1.5 10h240v-301q-103 -103 -318 -133v-252h-112v243h-13q-158 0 -281.5 63.5 t-197 193t-73.5 307.5zM529 513q0 -67 22 -124t70 -80v450q-92 -58 -92 -246z" />
<glyph unicode="&#xa3;" horiz-adv-x="1285" d="M65 29v311q58 -13 96 -13q62 0 86 41.5t24 151.5v240h-124v233h124v214q0 86 35.5 155.5t93 114.5t136 75.5t160.5 43.5t169 13q185 0 317 -46v-311q-122 13 -208 13q-111 0 -170 -33.5t-59 -114.5v-124h253v-233h-253v-241v-154l31 -9q32 -8 106 -16.5t159 -8.5 q76 0 175 9v-311q-137 -47 -272 -47q-254 0 -254 171q-104 -172 -342 -172q-112 0 -283 48z" />
<glyph unicode="&#xa4;" horiz-adv-x="1292" d="M70 1097q0 210 115 353l-67 68l103 103l71 -72q153 105 352 105q205 0 358 -110l77 77l103 -103l-74 -74q110 -142 110 -347q0 -213 -117 -356l81 -81l-103 -103l-86 86q-151 -103 -349 -103q-194 0 -342 98l-81 -81l-103 103l74 74q-122 145 -122 363zM264 1097 q0 -95 32.5 -172.5t87 -125t121.5 -73t139 -25.5t139 25.5t121.5 73t87 125t32.5 172.5t-33 172q-32 78 -86.5 125.5t-121.5 73t-139 25.5t-139 -25.5t-121.5 -73t-87 -125t-32.5 -172.5z" />
<glyph unicode="&#xa5;" horiz-adv-x="1708" d="M60 1274h112l236 -338h-237v-174h359l63 -90v-42h-422v-174h422v-85h-155v-371h869v371h-157v85h414v174h-414v132h414v174h-311l101 159q25 46 36 65t31.5 46.5t38 38t44 19t61.5 8.5h74v350h-637v-350q75 0 90 -6q27 -9 27 -45q0 -55 -114 -228q-21 31 -91.5 141 t-92.5 140h91v348h-852v-348z" />
<glyph unicode="&#xa6;" horiz-adv-x="687" d="M146 0v721h395v-721h-395zM146 902v721h395v-721h-395z" />
<glyph unicode="&#xa7;" horiz-adv-x="1080" d="M76 837q0 85 56 156t148 104q-165 119 -165 259q0 118 101.5 200t249.5 82q52 0 99 -7t74.5 -16t51 -20t30 -15.5t9.5 -7.5l27 51h168v-323h-201l-43 95q-17 32 -45.5 51.5t-57.5 19.5q-32 0 -57.5 -23.5t-25.5 -65.5q0 -28 28.5 -57t74.5 -56t101 -57t110 -66t101 -76.5 t74.5 -95t28.5 -114.5q0 -104 -56 -187t-156 -113q161 -98 161 -259q0 -121 -103 -217.5t-253 -96.5q-95 0 -165.5 16.5t-122.5 69.5l-36 -67h-170v378h221q12 -68 61 -119t119 -51q34 0 61 20t27 58q0 36 -29 71.5t-75.5 66.5t-102.5 63t-111.5 68.5t-102 76.5t-75.5 93 t-29 111zM395 878q0 -48 68.5 -97t174.5 -92q86 55 86 132q0 49 -66.5 94t-160.5 73q-102 -50 -102 -110z" />
<glyph unicode="&#xa8;" horiz-adv-x="1707" d="M268 1345q0 107 67 167t159 60t159 -60.5t67 -169.5q0 -108 -66.5 -169t-157.5 -61q-93 0 -160.5 61.5t-67.5 171.5zM885 1345q0 107 67 167t159 60t159 -60.5t67 -169.5q0 -108 -66.5 -169t-157.5 -61q-93 0 -160.5 61.5t-67.5 171.5z" />
<glyph unicode="&#xa9;" horiz-adv-x="1806" d="M63 792q0 164 66 314q67 150 179.5 258.5t268 173t326.5 64.5t326.5 -64.5t268 -173t179 -258.5t66.5 -314t-66.5 -314t-179 -258.5t-268 -173t-326.5 -64.5t-326.5 64.5t-268 173t-179 258.5t-66.5 314zM237 792q0 -133 53 -254.5t142.5 -209.5t212.5 -140t258 -52 q180 0 333.5 88t243 239t89.5 329t-89.5 329t-243 239t-333.5 88q-135 0 -258 -52t-212.5 -140t-142.5 -209.5t-53 -254.5zM388 780q0 80 15 156t49 146t83.5 122t123.5 83t163 31q162 0 228 -64l22 45h197v-401h-189q1 46 -12 87t-48 72t-88 31q-35 0 -61 -12t-42 -35.5 t-26 -48t-14.5 -60t-5.5 -60.5t-1 -60q0 -7 -0.5 -35.5t0 -41t1.5 -41.5t4 -44.5t8.5 -40.5t13.5 -39.5t20 -32t27.5 -27t36.5 -16t47 -6.5q52 0 90.5 29.5t48.5 80.5q3 13 5 60h191v-260l-18 -15q-18 -15 -55 -36.5t-83 -43t-112 -36.5t-132 -15q-236 0 -361.5 142 t-125.5 386z" />
<glyph unicode="&#xaa;" horiz-adv-x="999" d="M37 1046q0 57 27.5 103.5t73.5 75.5t102.5 44t117.5 15q108 0 189 -28v33q0 122 -156 122q-105 0 -158 -70h-130v232l50 13q49 13 138.5 26t168.5 13q30 0 54.5 -1t70.5 -6t82 -14.5t77.5 -28t69 -44.5t46.5 -67t19 -92v-328h56v-225h-348l-37 88q-37 -48 -101 -74.5 t-125 -26.5q-119 0 -203 65t-84 175zM399 1060q0 -34 19 -55t51 -21q24 0 44.5 9.5t26.5 15.5l9 9v109l-10 4q-11 4 -29 7.5t-34 3.5q-32 0 -54.5 -25.5t-22.5 -56.5z" />
<glyph unicode="&#xab;" horiz-adv-x="1306" d="M33 399v270l426 404l191 -224l-315 -315l315 -315l-191 -224zM643 399v270l426 404l191 -224l-315 -315l315 -315l-191 -224z" />
<glyph unicode="&#xac;" horiz-adv-x="1195" d="M78 1092h1011v-550h-231v219h-779z" />
<glyph unicode="&#xad;" horiz-adv-x="774" d="M70 537v299h647v-299h-647z" />
<glyph unicode="&#xae;" horiz-adv-x="1806" d="M63 792q0 164 66 314q67 150 179.5 258.5t268 173t326.5 64.5t326.5 -64.5t268 -173t179 -258.5t66.5 -314t-66.5 -314t-179 -258.5t-268 -173t-326.5 -64.5t-326.5 64.5t-268 173t-179 258.5t-66.5 314zM237 792q0 -133 53 -254.5t142.5 -209.5t212.5 -140t258 -52 q180 0 333.5 88t243 239t89.5 329t-89.5 329t-243 239t-333.5 88q-135 0 -258 -52t-212.5 -140t-142.5 -209.5t-53 -254.5zM472 1061v204h564q142 0 218.5 -59t76.5 -192q0 -81 -52 -133t-148 -69q82 -19 118 -53t36 -85v-52q0 -33 16.5 -46.5t74.5 -13.5v-199h-146 q-40 0 -62 1t-56 8.5t-52 21.5t-32 42t-14 69v109q0 67 -20.5 101t-83.5 34h-54v-181h67v-205q-147 0 -450 -1v203h85v496h-86zM852 875h34q139 0 139 97q0 44 -28 71.5t-77 27.5h-68v-196z" />
<glyph unicode="&#xaf;" horiz-adv-x="1090" d="M176 1183v335h748v-335h-748z" />
<glyph unicode="&#xb0;" horiz-adv-x="781" d="M32 1297q0 64 22.5 123.5t65 107.5t111.5 76.5t154 28.5q89 0 160 -28.5t115 -76.5t67.5 -107t23.5 -124q0 -66 -24 -127t-68.5 -110.5t-115.5 -79t-158 -29.5q-84 0 -152.5 29.5t-111.5 79t-66 110.5t-23 127zM184 1296q0 -82 54 -143t147 -61q97 0 152.5 60.5 t55.5 143.5q0 81 -55 140t-153 59q-95 0 -148 -59t-53 -140z" />
<glyph unicode="&#xb1;" horiz-adv-x="849" d="M69 517v245h232v269h255v-269h225v-245h-225v-239h-255v239h-232zM99 -1v224h647v-224h-647z" />
<glyph unicode="&#xb2;" horiz-adv-x="864" d="M85 858q0 83 53.5 146t131.5 91.5t161 25.5q136 -5 225 -77.5t89 -198.5q0 -93 -64 -174q-51 -66 -216 -190h97q61 2 95.5 20t34.5 69h104v-284h-688v182q116 46 194 111q46 39 69.5 63.5t44.5 68t21 92.5q-3 46 -27 75t-55 29q-39 0 -60.5 -24.5t-21.5 -61.5 q0 -42 38 -77l-137 -105q-92 82 -89 219z" />
<glyph unicode="&#xb3;" horiz-adv-x="824" d="M80 807v265h626v-154q0 -2 -167 -139q85 -8 145.5 -73.5t60.5 -147.5q0 -138 -102 -213t-278 -75q-93 0 -159 10.5t-119 45.5v203q106 -86 217 -86q51 0 91 20.5t40 65.5q0 52 -44 75t-102 23q-23 0 -47 -5.5t-28 -5.5l-11 2l-1 3v93l200 170v6h-128q-22 0 -36 -4.5 t-22.5 -19t-12 -24t-10.5 -36.5z" />
<glyph unicode="&#xb4;" horiz-adv-x="1016" d="M193 1271l474 437l184 -265l-554 -313z" />
<glyph unicode="&#xb5;" horiz-adv-x="1468" d="M59 761v311h574v-634q0 -53 27 -86.5t63 -33.5q47 0 75.5 34.5t28.5 85.5v323h-81v311h575v-767h76v-305h-570v156q-55 -85 -147.5 -129.5t-210.5 -44.5q-330 0 -330 403v376h-80z" />
<glyph unicode="&#xb6;" horiz-adv-x="1555" d="M56 1166q1 75 16.5 137t43 106.5t65.5 80t84.5 57t100 38t112.5 23t122 11.5t128 4t131 0h66h501v-355h-151v-905h156v-363h-409v1270h-125v-1270h-417v363h146v376q-133 0 -234.5 22t-179.5 71t-118 133t-38 201z" />
<glyph unicode="&#xb7;" horiz-adv-x="682" d="M60 764q0 113 77.5 179t199.5 66q127 0 207 -66t80 -179q0 -115 -82.5 -182.5t-204.5 -67.5q-119 0 -198 67.5t-79 182.5z" />
<glyph unicode="&#xb8;" horiz-adv-x="502" d="M70 -372q97 1 142 29t45 72q0 40 -32 83t-78 69v119h180v-119q133 -77 133 -166q0 -82 -108.5 -141t-260.5 -59h-21v113z" />
<glyph unicode="&#xb9;" horiz-adv-x="615" d="M73 842v151l387 98l4 -615h56v-190h-403l-1 190h53v367z" />
<glyph unicode="&#xba;" horiz-adv-x="1032" d="M70 688q0 193 119.5 298t326.5 105q208 0 327 -105t119 -298q0 -195 -122.5 -306.5t-323.5 -111.5t-323.5 111.5t-122.5 306.5zM415 686q0 -185 101 -185q102 0 102 185q0 38 -3.5 64.5t-13 54t-31 41.5t-54.5 14t-54 -14t-31 -41.5t-13 -54t-3 -64.5z" />
<glyph unicode="&#xbb;" horiz-adv-x="1306" d="M46 219l315 315l-315 315l191 224l426 -404v-270l-426 -404zM656 219l315 315l-315 315l191 224l426 -404v-270l-426 -404z" />
<glyph unicode="&#xbc;" horiz-adv-x="1721" d="M67 1374v151l387 98l4 -615h56v-190h-403l-1 190h53v367zM348 0l491 1623h364l-502 -1623h-353zM955 247v158l324 384l258 -1v-391l133 1v-151h-134v-77h72v-169h-414v169h74v77h-313zM1157 399l111 -1v138z" />
<glyph unicode="&#xbd;" horiz-adv-x="1784" d="M63 1374v151l387 98l4 -615h56v-190h-403l-1 190h53v367zM352 0l491 1623h364l-502 -1623h-353zM1019 571q0 83 53.5 146t131.5 91.5t161 25.5q136 -5 225 -77.5t89 -198.5q0 -93 -64 -174q-51 -66 -216 -190h97q61 2 95.5 20t34.5 69h104v-284h-688v182q116 46 194 111 q46 39 69.5 63.5t44.5 68t21 92.5q-3 46 -27 75t-55 29q-39 0 -60.5 -24.5t-21.5 -61.5q0 -42 38 -77l-137 -105q-92 82 -89 219z" />
<glyph unicode="&#xbe;" horiz-adv-x="1827" d="M76 1359v265h626v-154q0 -2 -167 -139q85 -8 145.5 -73.5t60.5 -147.5q0 -138 -102 -213t-278 -75q-93 0 -159 10.5t-119 45.5v203q106 -86 217 -86q51 0 91 20.5t40 65.5q0 52 -44 75t-102 23q-23 0 -47 -5.5t-28 -5.5q-8 0 -11 2l-1 3v93l200 170v6h-128 q-22 0 -36 -4.5t-22.5 -19t-12 -24t-10.5 -36.5zM502 0l491 1623h364l-502 -1623h-353zM1061 245v158l324 384l258 -1v-391l133 1v-151h-134v-77h72v-169h-414v169h74v77h-313zM1263 397l111 -1v138z" />
<glyph unicode="&#xbf;" horiz-adv-x="1312" d="M53 447q0 -132 78 -238.5t215.5 -166.5t306.5 -60q257 0 426.5 146t183.5 372h-472q-10 -162 -130 -162q-30 0 -51 15.5t-29.5 39.5t-12 42.5t-3.5 34.5q0 179 396 358l1 352h-347v-187q-61 -21 -107.5 -39.5t-108 -48t-107 -59.5t-93 -73t-77.5 -89.5t-49.5 -107.5 t-19.5 -129zM495 1496q0 115 82.5 182.5t204.5 67.5q119 0 198 -67.5t79 -182.5q0 -113 -77.5 -179t-199.5 -66q-127 0 -207 66t-80 179z" />
<glyph unicode="&#xc0;" d="M4 0h678v359h-84q-21 0 -32 36t-11 64q1 21 2 32t8 21.5t20 10.5h275q67 0 67 -164h-120l1 -359h826v359h-86q-15 0 -26 12.5t-16.5 28.5t-13.5 47l-307 1176h-994v-353h212l-172 -679q-27 -105 -38 -129q-33 -76 -111 -95q-34 -8 -78 -8v-359zM464 2005l184 265 l474 -437l-104 -141zM612 773l112 508l117 -508h-229z" />
<glyph unicode="&#xc1;" d="M4 0v359q44 0 78 8q78 19 111 95q11 24 38 129l172 679h-212v353h994l307 -1176q8 -31 13.5 -47t16.5 -28.5t26 -12.5h86v-359h-826l-1 359h120q0 164 -67 164h-275q-13 0 -20 -10.5t-8 -21.5t-2 -32q0 -28 11 -64t32 -36h84v-359h-678zM464 1833l474 437l184 -265 l-554 -313zM612 773h229l-117 508z" />
<glyph unicode="&#xc2;" d="M4 0v359q44 0 78 8q78 19 111 95q11 24 38 129l172 679h-212v353h994l307 -1176q8 -31 13.5 -47t16.5 -28.5t26 -12.5h86v-359h-826l-1 359h120q0 164 -67 164h-275q-13 0 -20 -10.5t-8 -21.5t-2 -32q0 -28 11 -64t32 -36h84v-359h-678zM284 1786l273 377l271 -1 l274 -376l-154 -101l-255 245l-255 -245zM612 773h229l-117 508z" />
<glyph unicode="&#xc3;" d="M4 0h678v359h-84q-21 0 -32 36t-11 64q1 21 2 32t8 21.5t20 10.5h275q67 0 67 -164h-120l1 -359h826v359h-86q-15 0 -26 12.5t-16.5 28.5t-13.5 47l-307 1176h-994v-353h212l-172 -679q-27 -105 -38 -129q-33 -76 -111 -95q-34 -8 -78 -8v-359zM348 1997l114 75 q76 -73 104 -92.5t46 -19.5q36 0 83 19.5t86 43t90 43t96 19.5q44 0 80 -19t62 -53.5t45.5 -68.5t43 -79t41.5 -71l-113 -74q-73 70 -100.5 89t-46.5 19q-45 0 -107 -30t-128.5 -60.5t-121.5 -30.5q-45 0 -81 18.5t-62.5 53t-45.5 68t-43 79t-42 71.5zM612 773l112 508 l117 -508h-229z" />
<glyph unicode="&#xc4;" d="M4 0h678v359h-84q-21 0 -32 36t-11 64q1 21 2 32t8 21.5t20 10.5h275q67 0 67 -164h-120l1 -359h826v359h-86q-15 0 -26 12.5t-16.5 28.5t-13.5 47l-307 1176h-994v-353h212l-172 -679q-27 -105 -38 -129q-33 -76 -111 -95q-34 -8 -78 -8v-359zM259 1907q0 107 67 167 t159 60t159 -60.5t67 -169.5q0 -108 -66.5 -169t-157.5 -61q-93 0 -160.5 61.5t-67.5 171.5zM612 773l112 508l117 -508h-229zM876 1907q0 107 67 167t159 60t159 -60.5t67 -169.5q0 -108 -66.5 -169t-157.5 -61q-93 0 -160.5 61.5t-67.5 171.5z" />
<glyph unicode="&#xc5;" d="M4 0v359q44 0 78 8q78 19 111 95q11 24 38 129l172 679h-212v353h994l307 -1176q8 -31 13.5 -47t16.5 -28.5t26 -12.5h86v-359h-826l-1 359h120q0 164 -67 164h-275q-13 0 -20 -10.5t-8 -21.5t-2 -32q0 -28 11 -64t32 -36h84v-359h-678zM518 1951q0 99 71 171.5t200 72.5 q133 0 206.5 -72t73.5 -172q0 -101 -74.5 -176t-205.5 -75q-127 0 -199 75t-72 176zM612 773h229l-117 508zM628 1950q0 -60 43 -104t118 -44q77 0 121 44t44 104q0 59 -43.5 102t-121.5 43q-76 0 -118.5 -43t-42.5 -102z" />
<glyph unicode="&#xc6;" horiz-adv-x="2138" d="M-10 -1v355q30 0 55 4t46 14t37 18.5t32 27.5t25 30t22.5 37t19 37.5t19 43t18.5 42.5l322 666h-212l71 349h1570v-653l-268 -1l-76 302h-213v-283h205v-352h-205v-286h219l13 70l63 267h273v-687h-1229l-1 376h120q32 164 -36 164h-275q-13 0 -22 -10.5t-12 -21.5 t-8 -32q-6 -17 -1.5 -58.5t25.5 -41.5h84v-376zM669 771h239l1 521z" />
<glyph unicode="&#xc7;" horiz-adv-x="1542" d="M59 804q0 127 24 246t77.5 229.5t131.5 192.5t194 131t257 49q74 0 127 -5t120.5 -28.5t112.5 -66.5l34 71h311l1 -632h-298q1 53 -11 103.5t-38 95.5t-74 72.5t-111 27.5q-47 0 -84.5 -15.5t-62 -39.5t-42.5 -62t-27 -72.5t-14 -83.5t-6 -82t-1 -80v-44q-3 -45 0 -97.5 t7 -104.5t21.5 -100t43 -85t71.5 -59t107 -22q81 0 142.5 47.5t76.5 127.5q4 20 8 94h301v-410l-29 -24q-29 -24 -87 -58t-131 -67.5t-176.5 -57.5t-207.5 -24q-248 0 -422.5 105t-260 290.5t-85.5 437.5zM632 -372q97 1 142 29t45 72q0 40 -32 83t-78 69v119h180v-119 q133 -77 133 -166q0 -82 -108.5 -141t-260.5 -59h-21v113z" />
<glyph unicode="&#xc8;" horiz-adv-x="1490" d="M99 0h1279v687h-273l-63 -267l-13 -61h-219v277h205v352h-205v282h213l76 -302l268 1v654h-1268v-353h158v-911h-158v-359zM407 2005l184 265l474 -437l-104 -141z" />
<glyph unicode="&#xc9;" horiz-adv-x="1490" d="M99 0v359h158v911h-158v353h1268v-654l-268 -1l-76 302h-213v-282h205v-352h-205v-277h219l13 61l63 267h273v-687h-1279zM407 1833l474 437l184 -265l-554 -313z" />
<glyph unicode="&#xca;" horiz-adv-x="1490" d="M99 0v359h158v911h-158v353h1268v-654l-268 -1l-76 302h-213v-282h205v-352h-205v-277h219l13 61l63 267h273v-687h-1279zM327 1786l273 377l271 -1l274 -376l-154 -101l-255 245l-255 -245z" />
<glyph unicode="&#xcb;" horiz-adv-x="1490" d="M99 0h1279v687h-273l-63 -267l-13 -61h-219v277h205v352h-205v282h213l76 -302l268 1v654h-1268v-353h158v-911h-158v-359zM202 1907q0 107 67 167t159 60t159 -60.5t67 -169.5q0 -108 -66.5 -169t-157.5 -61q-93 0 -160.5 61.5t-67.5 171.5zM819 1907q0 107 67 167 t159 60t159 -60.5t67 -169.5q0 -108 -66.5 -169t-157.5 -61q-93 0 -160.5 61.5t-67.5 171.5z" />
<glyph unicode="&#xcc;" horiz-adv-x="1076" d="M104 0h862v359h-141v911h147v353h-864v-353h143v-911h-147v-359zM211 2005l184 265l474 -437l-104 -141z" />
<glyph unicode="&#xcd;" horiz-adv-x="1076" d="M104 0v359h147v911h-143v353h864v-353h-147v-911h141v-359h-862zM211 1833l474 437l184 -265l-554 -313z" />
<glyph unicode="&#xce;" horiz-adv-x="1076" d="M104 0v359h147v911h-143v353h864v-353h-147v-911h141v-359h-862zM131 1786l273 377l271 -1l274 -376l-154 -101l-255 245l-255 -245z" />
<glyph unicode="&#xcf;" horiz-adv-x="1076" d="M6 1907q0 107 67 167t159 60t159 -60.5t67 -169.5q0 -108 -66.5 -169t-157.5 -61q-93 0 -160.5 61.5t-67.5 171.5zM104 0h862v359h-141v911h147v353h-864v-353h143v-911h-147v-359zM623 1907q0 107 67 167t159 60t159 -60.5t67 -169.5q0 -108 -66.5 -169t-157.5 -61 q-93 0 -160.5 61.5t-67.5 171.5z" />
<glyph unicode="&#xd0;" horiz-adv-x="1802" d="M93 1271v352h830q412 0 617 -205.5t205 -601.5q0 -163 -55 -309t-158 -259.5t-266 -180.5t-365 -67h-802v351h163v302h-130v299h130v319h-169zM809 952h86v-299h-85l3 -302h31q73 0 128.5 29.5t88.5 75t54 109.5t28.5 124.5t7.5 127.5q0 69 -6 126.5t-24.5 120.5 t-49.5 106.5t-86 72t-129 28.5h-47v-99v-118.5v-101.5z" />
<glyph unicode="&#xd1;" horiz-adv-x="1873" d="M98 0h637v359q-85 0 -121.5 33t-36.5 115v401l473 -908h606v1118q0 74 36.5 113t121.5 39v352l-637 1v-353q39 1 68 -4t45.5 -18.5t26.5 -26t13.5 -35t4 -34.5t0.5 -36v-469l-496 976h-735v-351h157v-722q0 -38 -2 -60t-10.5 -50.5t-25 -43.5t-48 -26t-77.5 -11v-359z M463 1997l114 75q76 -73 104 -92.5t46 -19.5q36 0 83 19.5t86 43t90 43t96 19.5q44 0 80 -19t62 -53.5t45.5 -68.5t43 -79t41.5 -71l-113 -74q-73 70 -100.5 89t-46.5 19q-45 0 -107 -30t-128.5 -60.5t-121.5 -30.5q-45 0 -81 18.5t-62.5 53t-45.5 68t-43 79t-42 71.5z" />
<glyph unicode="&#xd2;" horiz-adv-x="1744" d="M52 808q0 258 107.5 451.5t292 293.5t420.5 100t420.5 -100t292 -293.5t107.5 -451.5q0 -235 -107.5 -427t-295.5 -301t-417 -109t-417 109t-295.5 301t-107.5 427zM541 2005l184 265l474 -437l-104 -141zM661.5 924q-1.5 -35 0.5 -66v-35v-30q1 -30 0 -63t1.5 -68.5 t5.5 -70.5t10.5 -69t17.5 -64t26 -55.5t36.5 -44t49.5 -29t63 -10.5q39 0 70 13t52.5 36t37.5 54t25 67.5t15 75.5t7.5 78.5t2.5 77.5t0 72v30v35q-1 36 0 76t-3.5 82.5t-11 82.5t-22.5 76t-37.5 63t-56.5 42.5t-79 15.5q-39 0 -70.5 -12t-52.5 -33.5t-37.5 -50t-25 -62 t-15 -70t-7.5 -73t-2.5 -71.5z" />
<glyph unicode="&#xd3;" horiz-adv-x="1744" d="M52 808q0 258 107.5 451.5t292 293.5t420.5 100t420.5 -100t292 -293.5t107.5 -451.5q0 -235 -107.5 -427t-295.5 -301t-417 -109t-417 109t-295.5 301t-107.5 427zM541 1833l474 437l184 -265l-554 -313zM661.5 924q-1.5 -35 0.5 -66v-35v-30q1 -30 0 -63t1.5 -68.5 t5.5 -70.5t10.5 -69t17.5 -64t26 -55.5t36.5 -44t49.5 -29t63 -10.5q39 0 70 13t52.5 36t37.5 54t25 67.5t15 75.5t7.5 78.5t2.5 77.5t0 72v30v35q-1 36 0 76t-3.5 82.5t-11 82.5t-22.5 76t-37.5 63t-56.5 42.5t-79 15.5q-39 0 -70.5 -12t-52.5 -33.5t-37.5 -50t-25 -62 t-15 -70t-7.5 -73t-2.5 -71.5z" />
<glyph unicode="&#xd4;" horiz-adv-x="1744" d="M52 808q0 258 107.5 451.5t292 293.5t420.5 100t420.5 -100t292 -293.5t107.5 -451.5q0 -235 -107.5 -427t-295.5 -301t-417 -109t-417 109t-295.5 301t-107.5 427zM461 1786l273 377l271 -1l274 -376l-154 -101l-255 245l-255 -245zM661.5 924q-1.5 -35 0.5 -66v-35v-30 q1 -30 0 -63t1.5 -68.5t5.5 -70.5t10.5 -69t17.5 -64t26 -55.5t36.5 -44t49.5 -29t63 -10.5q39 0 70 13t52.5 36t37.5 54t25 67.5t15 75.5t7.5 78.5t2.5 77.5t0 72v30v35q-1 36 0 76t-3.5 82.5t-11 82.5t-22.5 76t-37.5 63t-56.5 42.5t-79 15.5q-39 0 -70.5 -12t-52.5 -33.5 t-37.5 -50t-25 -62t-15 -70t-7.5 -73t-2.5 -71.5z" />
<glyph unicode="&#xd5;" horiz-adv-x="1744" d="M52 808q0 258 107.5 451.5t292 293.5t420.5 100t420.5 -100t292 -293.5t107.5 -451.5q0 -235 -107.5 -427t-295.5 -301t-417 -109t-417 109t-295.5 301t-107.5 427zM425 1997l114 75q76 -73 104 -92.5t46 -19.5q36 0 83 19.5t86 43t90 43t96 19.5q44 0 80 -19t62 -53.5 t45.5 -68.5t43 -79t41.5 -71l-113 -74q-73 70 -100.5 89t-46.5 19q-45 0 -107 -30t-128.5 -60.5t-121.5 -30.5q-45 0 -81 18.5t-62.5 53t-45.5 68t-43 79t-42 71.5zM661.5 924q-1.5 -35 0.5 -66v-35v-30q1 -30 0 -63t1.5 -68.5t5.5 -70.5t10.5 -69t17.5 -64t26 -55.5 t36.5 -44t49.5 -29t63 -10.5q39 0 70 13t52.5 36t37.5 54t25 67.5t15 75.5t7.5 78.5t2.5 77.5t0 72v30v35q-1 36 0 76t-3.5 82.5t-11 82.5t-22.5 76t-37.5 63t-56.5 42.5t-79 15.5q-39 0 -70.5 -12t-52.5 -33.5t-37.5 -50t-25 -62t-15 -70t-7.5 -73t-2.5 -71.5z" />
<glyph unicode="&#xd6;" horiz-adv-x="1744" d="M52 808q0 258 107.5 451.5t292 293.5t420.5 100t420.5 -100t292 -293.5t107.5 -451.5q0 -235 -107.5 -427t-295.5 -301t-417 -109t-417 109t-295.5 301t-107.5 427zM336 1907q0 107 67 167t159 60t159 -60.5t67 -169.5q0 -108 -66.5 -169t-157.5 -61q-93 0 -160.5 61.5 t-67.5 171.5zM661.5 924q-1.5 -35 0.5 -66v-35v-30q1 -30 0 -63t1.5 -68.5t5.5 -70.5t10.5 -69t17.5 -64t26 -55.5t36.5 -44t49.5 -29t63 -10.5q39 0 70 13t52.5 36t37.5 54t25 67.5t15 75.5t7.5 78.5t2.5 77.5t0 72v30v35q-1 36 0 76t-3.5 82.5t-11 82.5t-22.5 76t-37.5 63 t-56.5 42.5t-79 15.5q-39 0 -70.5 -12t-52.5 -33.5t-37.5 -50t-25 -62t-15 -70t-7.5 -73t-2.5 -71.5zM953 1907q0 107 67 167t159 60t159 -60.5t67 -169.5q0 -108 -66.5 -169t-157.5 -61q-93 0 -160.5 61.5t-67.5 171.5z" />
<glyph unicode="&#xd7;" horiz-adv-x="902" d="M74 844l180 180l197 -204l197 204l180 -180l-204 -204l192 -193l-173 -173l-192 193l-192 -193l-173 173l192 193z" />
<glyph unicode="&#xd8;" horiz-adv-x="1742" d="M51 808q0 258 107.5 451.5t292 293.5t420.5 100q48 0 111 -7l37 158l153 -30l-36 -158q254 -75 404.5 -286.5t150.5 -521.5q0 -235 -107.5 -427t-295.5 -301t-417 -109q-53 0 -104 6l-38 -171l-162 39l38 167q-249 82 -401.5 297.5t-152.5 498.5zM660.5 924 q-1.5 -35 0.5 -66v-35v-47v-58t1 -54t4 -63t7.5 -54.5t12 -59.5t17.5 -49l198 856q-20 2 -30 2q-39 0 -70.5 -12t-52.5 -33.5t-37.5 -50t-25 -62t-15 -70t-7.5 -73t-2.5 -71.5zM845 320q8 -1 26 -1q39 0 70 13t52.5 36t37.5 54t25 67.5t15 75.5t7.5 78.5t2.5 77.5t0 72v30 q0 7 0.5 44t0 53t-1.5 51.5t-4 58t-7.5 52.5t-12 55.5t-17.5 47.5z" />
<glyph unicode="&#xd9;" horiz-adv-x="1683" d="M43 1270h161v-566q0 -88 7.5 -163t27 -151t50.5 -137t80 -115t113.5 -90t153.5 -56.5t198 -20.5q171 0 319 68t240 195.5t92 285.5v750h154v352h-654v-352h164v-734q0 -88 -52 -139t-144 -51q-52 0 -90.5 22t-59 59.5t-30 80.5t-9.5 92v670h148v352h-869v-352zM512 2005 l184 265l474 -437l-104 -141z" />
<glyph unicode="&#xda;" horiz-adv-x="1683" d="M43 1270v352h869v-352h-148v-670q0 -49 9.5 -92t30 -80.5t59 -59.5t90.5 -22q92 0 144 51t52 139v734h-164v352h654v-352h-154v-750q0 -158 -92 -285.5t-240 -195.5t-319 -68q-109 0 -198 20.5t-153.5 56.5t-113.5 90t-80 115t-50.5 137t-27 151t-7.5 163v566h-161z M512 1833l474 437l184 -265l-554 -313z" />
<glyph unicode="&#xdb;" horiz-adv-x="1683" d="M43 1270v352h869v-352h-148v-670q0 -49 9.5 -92t30 -80.5t59 -59.5t90.5 -22q92 0 144 51t52 139v734h-164v352h654v-352h-154v-750q0 -158 -92 -285.5t-240 -195.5t-319 -68q-109 0 -198 20.5t-153.5 56.5t-113.5 90t-80 115t-50.5 137t-27 151t-7.5 163v566h-161z M432 1786l273 377l271 -1l274 -376l-154 -101l-255 245l-255 -245z" />
<glyph unicode="&#xdc;" horiz-adv-x="1683" d="M43 1270h161v-566q0 -88 7.5 -163t27 -151t50.5 -137t80 -115t113.5 -90t153.5 -56.5t198 -20.5q171 0 319 68t240 195.5t92 285.5v750h154v352h-654v-352h164v-734q0 -88 -52 -139t-144 -51q-52 0 -90.5 22t-59 59.5t-30 80.5t-9.5 92v670h148v352h-869v-352zM306 1907 q0 107 67 167t159 60t159 -60.5t67 -169.5q0 -108 -66.5 -169t-157.5 -61q-93 0 -160.5 61.5t-67.5 171.5zM923 1907q0 107 67 167t159 60t159 -60.5t67 -169.5q0 -108 -66.5 -169t-157.5 -61q-93 0 -160.5 61.5t-67.5 171.5z" />
<glyph unicode="&#xdd;" horiz-adv-x="1559" d="M-15 1270v352h852v-352h-91q22 -30 92.5 -138.5t91.5 -138.5q114 173 114 228q0 9 -1.5 16.5t-5.5 12.5t-7.5 9t-11 6t-13 3.5t-16.5 1.5h-18h-21.5h-22.5v352h637v-352h-74q-35 0 -61.5 -8t-44.5 -18.5t-38 -37.5t-31.5 -46.5t-35.5 -64.5l-204 -371v-365h157v-359h-869 v359h155v313l-421 598h-112zM448 1833l474 437l184 -265l-554 -313z" />
<glyph unicode="&#xde;" horiz-adv-x="1638" d="M90 0v363h156v1125h-151v355h710l-1 -300q74 0 132 -1t129 -6.5t125.5 -15.5t114 -28t103 -42.5t84.5 -61t66.5 -82t41 -106.5t15.5 -134q0 -134 -47 -232.5t-135.5 -158t-207 -88t-270.5 -28.5q-71 0 -150 10v-206h146v-363h-861zM805 895h61q110 0 168.5 37.5 t58.5 123.5q0 76 -53.5 114t-130.5 38h-104v-313z" />
<glyph unicode="&#xdf;" horiz-adv-x="1633" d="M-6 0v369h172v723q0 120 29.5 211t83 151.5t134.5 98.5t175.5 54t214.5 16q129 0 235.5 -21.5t179 -58t121.5 -86.5t71.5 -105.5t22.5 -115.5q0 -96 -60 -187t-166 -151q191 -61 296.5 -191t105.5 -278q0 -89 -39.5 -168.5t-115 -142t-197.5 -99.5t-276 -37l-1 367 q145 82 145 184q0 92 -91 154.5t-266 62.5l-3 151q88 0 151.5 72t63.5 151q0 68 -36 109.5t-110 41.5q-61 0 -101 -34.5t-40 -109.5l1 -782q126 0 151 1v-350h-851z" />
<glyph unicode="&#xe0;" horiz-adv-x="1294" d="M30 308q0 -149 113.5 -237.5t275.5 -88.5q82 0 169 36t137 101l50 -119h472v305h-76v445q0 69 -25.5 124.5t-63 90.5t-94 60.5t-105 38t-111 19.5t-95.5 8t-74 1q-107 0 -228 -17.5t-188 -34.5l-67 -18v-314h175q72 95 215 95q211 0 211 -166v-45q-110 38 -256 38 q-83 0 -159.5 -20.5t-138.5 -59.5t-99.5 -102t-37.5 -140zM312 1443l184 265l474 -437l-104 -141zM520 326q0 43 31 77.5t74 34.5q22 0 46.5 -5t38.5 -11l14 -5v-147q-4 -5 -12 -12.5t-36 -20.5t-60 -13q-44 0 -70 28.5t-26 73.5z" />
<glyph unicode="&#xe1;" horiz-adv-x="1294" d="M30 308q0 77 37.5 140t99.5 102t138.5 59.5t159.5 20.5q146 0 256 -38v45q0 166 -211 166q-143 0 -215 -95h-175v314l67 18q67 17 188 34.5t228 17.5q41 0 74 -1t95.5 -8t111 -19.5t105 -38t94 -60.5t63 -90.5t25.5 -124.5v-445h76v-305h-472l-50 119q-50 -65 -137 -101 t-169 -36q-162 0 -275.5 88.5t-113.5 237.5zM434 1271l474 437l184 -265l-554 -313zM520 326q0 -45 26 -73.5t70 -28.5q32 0 60 13t36 20.5t12 12.5v147l-14 5q-14 6 -38.5 11t-46.5 5q-43 0 -74 -34.5t-31 -77.5z" />
<glyph unicode="&#xe2;" horiz-adv-x="1294" d="M30 308q0 77 37.5 140t99.5 102t138.5 59.5t159.5 20.5q146 0 256 -38v45q0 166 -211 166q-143 0 -215 -95h-175v314l67 18q67 17 188 34.5t228 17.5q41 0 74 -1t95.5 -8t111 -19.5t105 -38t94 -60.5t63 -90.5t25.5 -124.5v-445h76v-305h-472l-50 119q-50 -65 -137 -101 t-169 -36q-162 0 -275.5 88.5t-113.5 237.5zM232 1224l273 377l271 -1l274 -376l-154 -101l-255 245l-255 -245zM520 326q0 -45 26 -73.5t70 -28.5q32 0 60 13t36 20.5t12 12.5v147l-14 5q-14 6 -38.5 11t-46.5 5q-43 0 -74 -34.5t-31 -77.5z" />
<glyph unicode="&#xe3;" horiz-adv-x="1294" d="M30 308q0 -149 113.5 -237.5t275.5 -88.5q82 0 169 36t137 101l50 -119h472v305h-76v445q0 69 -25.5 124.5t-63 90.5t-94 60.5t-105 38t-111 19.5t-95.5 8t-74 1q-107 0 -228 -17.5t-188 -34.5l-67 -18v-314h175q72 95 215 95q211 0 211 -166v-45q-110 38 -256 38 q-83 0 -159.5 -20.5t-138.5 -59.5t-99.5 -102t-37.5 -140zM170 1435l114 75q76 -73 104 -92.5t46 -19.5q36 0 83 19.5t86 43t90 43t96 19.5q44 0 80 -19t62 -53.5t45.5 -68.5t43 -79t41.5 -71l-113 -74q-73 70 -100.5 89t-46.5 19q-45 0 -107 -30t-128.5 -60.5t-121.5 -30.5 q-45 0 -81 18.5t-62.5 53t-45.5 68t-43 79t-42 71.5zM520 326q0 43 31 77.5t74 34.5q22 0 46.5 -5t38.5 -11l14 -5v-147q-4 -5 -12 -12.5t-36 -20.5t-60 -13q-44 0 -70 28.5t-26 73.5z" />
<glyph unicode="&#xe4;" horiz-adv-x="1294" d="M30 308q0 -149 113.5 -237.5t275.5 -88.5q82 0 169 36t137 101l50 -119h472v305h-76v445q0 69 -25.5 124.5t-63 90.5t-94 60.5t-105 38t-111 19.5t-95.5 8t-74 1q-107 0 -228 -17.5t-188 -34.5l-67 -18v-314h175q72 95 215 95q211 0 211 -166v-45q-110 38 -256 38 q-83 0 -159.5 -20.5t-138.5 -59.5t-99.5 -102t-37.5 -140zM107 1345q0 107 67 167t159 60t159 -60.5t67 -169.5q0 -108 -66.5 -169t-157.5 -61q-93 0 -160.5 61.5t-67.5 171.5zM520 326q0 43 31 77.5t74 34.5q22 0 46.5 -5t38.5 -11l14 -5v-147q-4 -5 -12 -12.5t-36 -20.5 t-60 -13q-44 0 -70 28.5t-26 73.5zM724 1345q0 107 67 167t159 60t159 -60.5t67 -169.5q0 -108 -66.5 -169t-157.5 -61q-93 0 -160.5 61.5t-67.5 171.5z" />
<glyph unicode="&#xe5;" horiz-adv-x="1294" d="M30 308q0 77 37.5 140t99.5 102t138.5 59.5t159.5 20.5q146 0 256 -38v45q0 166 -211 166q-143 0 -215 -95h-175v314l67 18q67 17 188 34.5t228 17.5q41 0 74 -1t95.5 -8t111 -19.5t105 -38t94 -60.5t63 -90.5t25.5 -124.5v-445h76v-305h-472l-50 119q-50 -65 -137 -101 t-169 -36q-162 0 -275.5 88.5t-113.5 237.5zM366 1389q0 99 71 171.5t200 72.5q133 0 206.5 -72t73.5 -172q0 -101 -74.5 -176t-205.5 -75q-127 0 -199 75t-72 176zM476 1388q0 -60 43 -104t118 -44q77 0 121 44t44 104q0 59 -43.5 102t-121.5 43q-76 0 -118.5 -43 t-42.5 -102zM520 326q0 -45 26 -73.5t70 -28.5q32 0 60 13t36 20.5t12 12.5v147l-14 5q-14 6 -38.5 11t-46.5 5q-43 0 -74 -34.5t-31 -77.5z" />
<glyph unicode="&#xe6;" horiz-adv-x="1911" d="M30 299q0 77 37.5 140t99.5 102t138.5 59.5t159.5 20.5q146 0 256 -38v45q0 166 -211 166q-143 0 -215 -95h-175v314l67 17q67 18 188 35.5t228 17.5q68 0 132 -13t103 -29.5t73.5 -37.5t44.5 -29t15 -13l14 13q13 13 43 31t68.5 36t97 31t121.5 13q172 0 299 -73.5 t189.5 -193.5t62.5 -270q0 -34 -5 -79q-9 -21 -13.5 -24.5t-23.5 -3.5h-602q0 -93 47.5 -159.5t129.5 -66.5q72 0 105 35t35 108h307v-238q-132 -79 -259.5 -112t-287.5 -33q-189 0 -332 130q-103 -76 -227.5 -105t-320.5 -27q-105 1 -192 38.5t-142 112.5t-55 175zM520 317 q0 -45 26 -73.5t70 -28.5q32 0 60 13t36 20.5t12 12.5v147l-14 5q-14 5 -38.5 10.5t-46.5 5.5q-43 0 -74 -34.5t-31 -77.5zM1224 620h215q1 35 -1.5 61t-11.5 58.5t-33 50t-61 17.5q-54 0 -81 -48.5t-27 -109.5v-29z" />
<glyph unicode="&#xe7;" horiz-adv-x="1112" d="M44 546q0 109 36.5 208t102 174t164.5 119.5t216 44.5q137 0 258 -97l41 77h175v-444h-242q0 66 -36 108t-87 42q-63 0 -109 -65t-46 -200q0 -40 7.5 -76t24.5 -69t48.5 -53t74.5 -20q32 0 56.5 14t37 31t21 39.5t10 31.5t2.5 14h240v-301q-69 -69 -193 -105.5 t-250 -36.5q-158 0 -281.5 63.5t-197 193t-73.5 307.5zM398 -372q97 1 142 29t45 72q0 40 -32 83t-78 69v119h180v-119q133 -77 133 -166q0 -82 -108.5 -141t-260.5 -59h-21v113z" />
<glyph unicode="&#xe8;" horiz-adv-x="1224" d="M40 521q0 -147 73 -270t204.5 -196t293.5 -73q160 0 287.5 33t259.5 112v238h-307q-2 -73 -35 -108t-105 -35q-82 0 -129.5 66.5t-47.5 159.5h602q19 0 23.5 3.5t13.5 24.5q5 45 5 79q0 150 -62.5 270t-189.5 193.5t-299 73.5q-180 0 -314.5 -74.5t-203.5 -203 t-69 -293.5zM276 1443l184 265l474 -437l-104 -141zM536 627v29q0 61 27 109.5t81 48.5q37 0 61 -17.5t33 -50t11.5 -58.5t1.5 -61h-215z" />
<glyph unicode="&#xe9;" horiz-adv-x="1224" d="M40 521q0 165 69 293.5t203.5 203t314.5 74.5q172 0 299 -73.5t189.5 -193.5t62.5 -270q0 -34 -5 -79q-9 -21 -13.5 -24.5t-23.5 -3.5h-602q0 -93 47.5 -159.5t129.5 -66.5q72 0 105 35t35 108h307v-238q-132 -79 -259.5 -112t-287.5 -33q-162 0 -293.5 73t-204.5 196 t-73 270zM276 1271l474 437l184 -265l-554 -313zM536 627h215q1 35 -1.5 61t-11.5 58.5t-33 50t-61 17.5q-54 0 -81 -48.5t-27 -109.5v-29z" />
<glyph unicode="&#xea;" horiz-adv-x="1224" d="M40 521q0 165 69 293.5t203.5 203t314.5 74.5q172 0 299 -73.5t189.5 -193.5t62.5 -270q0 -34 -5 -79q-9 -21 -13.5 -24.5t-23.5 -3.5h-602q0 -93 47.5 -159.5t129.5 -66.5q72 0 105 35t35 108h307v-238q-132 -79 -259.5 -112t-287.5 -33q-162 0 -293.5 73t-204.5 196 t-73 270zM196 1224l273 377l271 -1l274 -376l-154 -101l-255 245l-255 -245zM536 627h215q1 35 -1.5 61t-11.5 58.5t-33 50t-61 17.5q-54 0 -81 -48.5t-27 -109.5v-29z" />
<glyph unicode="&#xeb;" horiz-adv-x="1224" d="M40 521q0 -147 73 -270t204.5 -196t293.5 -73q160 0 287.5 33t259.5 112v238h-307q-2 -73 -35 -108t-105 -35q-82 0 -129.5 66.5t-47.5 159.5h602q19 0 23.5 3.5t13.5 24.5q5 45 5 79q0 150 -62.5 270t-189.5 193.5t-299 73.5q-180 0 -314.5 -74.5t-203.5 -203 t-69 -293.5zM71 1345q0 107 67 167t159 60t159 -60.5t67 -169.5q0 -108 -66.5 -169t-157.5 -61q-93 0 -160.5 61.5t-67.5 171.5zM536 627v29q0 61 27 109.5t81 48.5q37 0 61 -17.5t33 -50t11.5 -58.5t1.5 -61h-215zM688 1345q0 107 67 167t159 60t159 -60.5t67 -169.5 q0 -108 -66.5 -169t-157.5 -61q-93 0 -160.5 61.5t-67.5 171.5z" />
<glyph unicode="&#xec;" horiz-adv-x="814" d="M86 1443l184 265l474 -437l-104 -141zM91 747h89v-448h-82v-299h647v299h-84v773h-570v-325z" />
<glyph unicode="&#xed;" horiz-adv-x="814" d="M86 1271l474 437l184 -265l-554 -313zM91 747v325h570v-773h84v-299h-647v299h82v448h-89z" />
<glyph unicode="&#xee;" horiz-adv-x="813" d="M6 1224l273 377l271 -1l274 -376l-154 -101l-255 245l-255 -245zM91 747v325h570v-773h84v-299h-647v299h82v448h-89z" />
<glyph unicode="&#xef;" horiz-adv-x="815" d="M-118 1345q0 107 67 167t159 60t159 -60.5t67 -169.5q0 -108 -66.5 -169t-157.5 -61q-93 0 -160.5 61.5t-67.5 171.5zM92 747h89v-448h-82v-299h647v299h-84v773h-570v-325zM499 1345q0 107 67 167t159 60t159 -60.5t67 -169.5q0 -108 -66.5 -169t-157.5 -61 q-93 0 -160.5 61.5t-67.5 171.5z" />
<glyph unicode="&#xf0;" horiz-adv-x="1337" d="M38 540q0 76 22.5 147t70.5 133.5t117.5 108.5t169.5 73t219 27h33q-24 92 -48 140l-251 -101l-63 157l180 72q-62 24 -146 24q-78 0 -125 -11v311q155 33 294 33q296 0 481 -155l214 86l63 -157l-157 -63q152 -223 171 -614q1 -20 1 -60q0 -117 -22.5 -220.5t-72 -193.5 t-122.5 -155t-180.5 -102.5t-240.5 -37.5q-142 0 -260 48.5t-192.5 128.5t-115 178.5t-40.5 202.5zM557 568q0 -230 111 -230q30 0 51 26t29.5 66.5t12 71.5t3.5 58q0 217 -98 217q-109 0 -109 -209z" />
<glyph unicode="&#xf1;" horiz-adv-x="1482" d="M91 0h658v305h-88v319q0 47 28.5 80t75.5 33q36 0 63 -31t27 -79v-627h574v305h-80v375q0 412 -330 412q-118 0 -210.5 -45.5t-147.5 -130.5v156h-563v-311h76v-456h-83v-305zM270 1435l114 75q76 -73 104 -92.5t46 -19.5q36 0 83 19.5t86 43t90 43t96 19.5q44 0 80 -19 t62 -53.5t45.5 -68.5t43 -79t41.5 -71l-113 -74q-73 70 -100.5 89t-46.5 19q-45 0 -107 -30t-128.5 -60.5t-121.5 -30.5q-45 0 -81 18.5t-62.5 53t-45.5 68t-43 79t-42 71.5z" />
<glyph unicode="&#xf2;" horiz-adv-x="1290" d="M43 547q0 260 161 402t441 142t441 -142t161 -402q0 -175 -76.5 -304t-212 -195t-313.5 -66t-313.5 66t-212 195t-76.5 304zM311 1443l184 265l474 -437l-104 -141zM508 545q0 -251 137 -251t137 251q0 51 -4.5 86.5t-17.5 72.5t-42 56t-73 19t-73 -19t-42 -56 t-17.5 -72.5t-4.5 -86.5z" />
<glyph unicode="&#xf3;" horiz-adv-x="1290" d="M43 547q0 260 161 402t441 142t441 -142t161 -402q0 -175 -76.5 -304t-212 -195t-313.5 -66t-313.5 66t-212 195t-76.5 304zM311 1271l474 437l184 -265l-554 -313zM508 545q0 -251 137 -251t137 251q0 51 -4.5 86.5t-17.5 72.5t-42 56t-73 19t-73 -19t-42 -56 t-17.5 -72.5t-4.5 -86.5z" />
<glyph unicode="&#xf4;" horiz-adv-x="1290" d="M43 547q0 260 161 402t441 142t441 -142t161 -402q0 -175 -76.5 -304t-212 -195t-313.5 -66t-313.5 66t-212 195t-76.5 304zM231 1224l273 377l271 -1l274 -376l-154 -101l-255 245l-255 -245zM508 545q0 -251 137 -251t137 251q0 51 -4.5 86.5t-17.5 72.5t-42 56t-73 19 t-73 -19t-42 -56t-17.5 -72.5t-4.5 -86.5z" />
<glyph unicode="&#xf5;" horiz-adv-x="1290" d="M43 547q0 260 161 402t441 142t441 -142t161 -402q0 -175 -76.5 -304t-212 -195t-313.5 -66t-313.5 66t-212 195t-76.5 304zM194 1435l114 75q76 -73 104 -92.5t46 -19.5q36 0 83 19.5t86 43t90 43t96 19.5q44 0 80 -19t62 -53.5t45.5 -68.5t43 -79t41.5 -71l-113 -74 q-73 70 -100.5 89t-46.5 19q-45 0 -107 -30t-128.5 -60.5t-121.5 -30.5q-45 0 -81 18.5t-62.5 53t-45.5 68t-43 79t-42 71.5zM508 545q0 -251 137 -251t137 251q0 51 -4.5 86.5t-17.5 72.5t-42 56t-73 19t-73 -19t-42 -56t-17.5 -72.5t-4.5 -86.5z" />
<glyph unicode="&#xf6;" horiz-adv-x="1290" d="M43 547q0 260 161 402t441 142t441 -142t161 -402q0 -175 -76.5 -304t-212 -195t-313.5 -66t-313.5 66t-212 195t-76.5 304zM106 1345q0 107 67 167t159 60t159 -60.5t67 -169.5q0 -108 -66.5 -169t-157.5 -61q-93 0 -160.5 61.5t-67.5 171.5zM508 545q0 -251 137 -251 t137 251q0 51 -4.5 86.5t-17.5 72.5t-42 56t-73 19t-73 -19t-42 -56t-17.5 -72.5t-4.5 -86.5zM723 1345q0 107 67 167t159 60t159 -60.5t67 -169.5q0 -108 -66.5 -169t-157.5 -61q-93 0 -160.5 61.5t-67.5 171.5z" />
<glyph unicode="&#xf7;" horiz-adv-x="920" d="M68 538h774v223h-774v-223zM243 188q0 92 63.5 146.5t164.5 54.5q104 0 170 -54.5t66 -146.5q0 -95 -68 -150.5t-168 -55.5q-98 0 -163 55.5t-65 150.5zM243 1092q0 92 63.5 146.5t164.5 54.5q104 0 170 -54.5t66 -146.5q0 -95 -68 -150.5t-168 -55.5q-98 0 -163 55.5 t-65 150.5z" />
<glyph unicode="&#xf8;" horiz-adv-x="1288" d="M43 547q0 260 161 402t441 142t441 -142t161 -402q0 -175 -76.5 -304t-212 -195t-313.5 -66t-313.5 66t-212 195t-76.5 304zM246 -54l701 1246l87 -50l-701 -1246zM508 545q0 -251 137 -251t137 251q0 51 -4.5 86.5t-17.5 72.5t-42 56t-73 19t-73 -19t-42 -56 t-17.5 -72.5t-4.5 -86.5z" />
<glyph unicode="&#xf9;" horiz-adv-x="1466" d="M54 761h80v-376q0 -403 330 -403q118 0 210.5 44.5t147.5 129.5v-156h570v305h-76v767h-575v-311h81v-323q0 -51 -28.5 -85.5t-75.5 -34.5q-36 0 -63 33.5t-27 86.5v634h-574v-311zM400 1443l184 265l474 -437l-104 -141z" />
<glyph unicode="&#xfa;" horiz-adv-x="1466" d="M54 761v311h574v-634q0 -53 27 -86.5t63 -33.5q47 0 75.5 34.5t28.5 85.5v323h-81v311h575v-767h76v-305h-570v156q-55 -85 -147.5 -129.5t-210.5 -44.5q-330 0 -330 403v376h-80zM400 1271l474 437l184 -265l-554 -313z" />
<glyph unicode="&#xfb;" horiz-adv-x="1466" d="M54 761v311h574v-634q0 -53 27 -86.5t63 -33.5q47 0 75.5 34.5t28.5 85.5v323h-81v311h575v-767h76v-305h-570v156q-55 -85 -147.5 -129.5t-210.5 -44.5q-330 0 -330 403v376h-80zM320 1224l273 377l271 -1l274 -376l-154 -101l-255 245l-255 -245z" />
<glyph unicode="&#xfc;" horiz-adv-x="1466" d="M54 761h80v-376q0 -403 330 -403q118 0 210.5 44.5t147.5 129.5v-156h570v305h-76v767h-575v-311h81v-323q0 -51 -28.5 -85.5t-75.5 -34.5q-36 0 -63 33.5t-27 86.5v634h-574v-311zM195 1345q0 107 67 167t159 60t159 -60.5t67 -169.5q0 -108 -66.5 -169t-157.5 -61 q-93 0 -160.5 61.5t-67.5 171.5zM812 1345q0 107 67 167t159 60t159 -60.5t67 -169.5q0 -108 -66.5 -169t-157.5 -61q-93 0 -160.5 61.5t-67.5 171.5z" />
<glyph unicode="&#xfd;" horiz-adv-x="1377" d="M3 761v311h680v-311h-68l176 -307l97 208q32 69 -5 89q-20 10 -90 10v311h580v-311q-39 0 -66 -8t-48 -30t-31 -38.5t-31 -56.5l-378 -710h232v-295h-691l197 408l-466 730h-88zM358 1271l474 437l184 -265l-554 -313z" />
<glyph unicode="&#xfe;" horiz-adv-x="1405" d="M33 -94h84v1235h-74v306h564v-491h10q64 67 132 97t160 30q106 0 193 -45t142.5 -121t85.5 -172.5t30 -203.5q0 -105 -29 -202t-83.5 -175.5t-143 -125.5t-197.5 -47q-103 0 -185.5 37.5t-125.5 90.5v-215h111v-301l-674 -1v304zM596 417l2 -11q2 -11 10.5 -26.5 t21.5 -31.5t38 -27t57 -11q48 0 82 21t51.5 57t25 74.5t7.5 82.5q0 194 -163 194q-31 0 -55.5 -10t-38 -22.5t-23.5 -29t-12 -22.5t-3 -10v-228z" />
<glyph unicode="&#xff;" horiz-adv-x="1377" d="M3 761h88l466 -730l-197 -408h691v295h-232l378 710q21 40 31 56.5t31 38.5t48 30t66 8v311h-580v-311q70 0 90 -10q37 -20 5 -89l-97 -208l-176 307h68v311h-680v-311zM153 1345q0 107 67 167t159 60t159 -60.5t67 -169.5q0 -108 -66.5 -169t-157.5 -61 q-93 0 -160.5 61.5t-67.5 171.5zM770 1345q0 107 67 167t159 60t159 -60.5t67 -169.5q0 -108 -66.5 -169t-157.5 -61q-93 0 -160.5 61.5t-67.5 171.5z" />
<glyph unicode="&#x152;" horiz-adv-x="2329" d="M56 793q0 238 103.5 424t294 289.5t436.5 103.5h1315v-653l-268 -1l-76 302h-213v-270h205v-352h-205v-286h219l13 70l63 267h273v-687h-1320q-382 0 -610.5 216.5t-229.5 576.5zM672.5 923.5q-2.5 -53.5 0.5 -106.5v-62q0 -52 1.5 -88.5t6.5 -82t14 -76.5t25.5 -63.5 t39.5 -51.5t57.5 -31t78.5 -12h199v907h-210q-52 0 -91 -18t-61 -49t-36.5 -73t-18 -91t-6 -102.5z" />
<glyph unicode="&#x153;" horiz-adv-x="1927" d="M44 539q0 260 161 402t441 142q66 0 127 -13t100.5 -31t70 -36t44.5 -31l14 -13q4 5 12 13.5t37 30t63.5 37.5t92.5 29.5t123 13.5q172 0 299 -73.5t189.5 -193.5t62.5 -270q0 -34 -5 -79q-10 -23 -16 -26q-5 -2 -21 -2h-602q0 -93 47.5 -159.5t129.5 -66.5q72 0 105 35 t35 108h307v-238q-133 -80 -260 -113t-287 -32q-59 0 -113.5 14.5t-90 35t-62.5 41t-40 34.5l-12 15q-5 -6 -14 -15t-41.5 -33t-70 -42.5t-98 -33.5t-126.5 -15q-178 0 -313.5 66t-212 195t-76.5 304zM509 537q0 -211 137 -211t137 211q0 42 -4.5 71.5t-17.5 60t-42 46.5 t-73 16t-73 -16t-42 -46.5t-17.5 -60t-4.5 -71.5zM1239 618h215q1 35 -1.5 61t-11.5 58.5t-33 50t-61 17.5q-54 0 -81 -48.5t-27 -109.5v-29z" />
<glyph unicode="&#x178;" horiz-adv-x="1559" d="M-15 1270h112l421 -598v-313h-155v-359h869v359h-157v365l204 371q24 45 35.5 64.5t31.5 46.5t38 37.5t44.5 18.5t61.5 8h74v352h-637v-352h22.5h21.5h18t16.5 -1.5t13 -3.5t11 -6t7.5 -9t5.5 -12.5t1.5 -16.5q0 -55 -114 -228q-21 30 -91.5 138.5t-92.5 138.5h91v352 h-852v-352zM242 1907q0 107 67 167t159 60t159 -60.5t67 -169.5q0 -108 -66.5 -169t-157.5 -61q-93 0 -160.5 61.5t-67.5 171.5zM859 1907q0 107 67 167t159 60t159 -60.5t67 -169.5q0 -108 -66.5 -169t-157.5 -61q-93 0 -160.5 61.5t-67.5 171.5z" />
<glyph unicode="&#x2c6;" horiz-adv-x="1016" d="M103 1224l273 377l271 -1l274 -376l-154 -101l-255 245l-255 -245z" />
<glyph unicode="&#x2dc;" horiz-adv-x="1707" d="M225 1435l114 75q76 -73 104 -92.5t46 -19.5q36 0 83 19.5t86 43t90 43t96 19.5q44 0 80 -19t62 -53.5t45.5 -68.5t43 -79t41.5 -71l-113 -74q-73 70 -100.5 89t-46.5 19q-45 0 -107 -30t-128.5 -60.5t-121.5 -30.5q-45 0 -81 18.5t-62.5 53t-45.5 68t-43 79t-42 71.5z " />
<glyph unicode="&#x2000;" horiz-adv-x="1135" />
<glyph unicode="&#x2001;" horiz-adv-x="2270" />
<glyph unicode="&#x2002;" horiz-adv-x="1135" />
<glyph unicode="&#x2003;" horiz-adv-x="2270" />
<glyph unicode="&#x2004;" horiz-adv-x="756" />
<glyph unicode="&#x2005;" horiz-adv-x="567" />
<glyph unicode="&#x2006;" horiz-adv-x="378" />
<glyph unicode="&#x2007;" horiz-adv-x="378" />
<glyph unicode="&#x2008;" horiz-adv-x="283" />
<glyph unicode="&#x2009;" horiz-adv-x="454" />
<glyph unicode="&#x200a;" horiz-adv-x="126" />
<glyph unicode="&#x2010;" horiz-adv-x="838" d="M95 537v299h647v-299h-647z" />
<glyph unicode="&#x2011;" horiz-adv-x="838" d="M95 537v299h647v-299h-647z" />
<glyph unicode="&#x2012;" horiz-adv-x="838" d="M95 537v299h647v-299h-647z" />
<glyph unicode="&#x2013;" horiz-adv-x="838" d="M95 537v299h647v-299h-647z" />
<glyph unicode="&#x2014;" horiz-adv-x="1360" d="M95 537v299h1170v-299h-1170z" />
<glyph unicode="&#x2018;" horiz-adv-x="683" d="M67 1116q0 278 130 407.5t404 129.5v-225q-45 0 -78 -6.5t-53.5 -22t-32.5 -31.5t-17.5 -46t-6.5 -52.5t-1 -64.5h189v-366h-510q-24 154 -24 277z" />
<glyph unicode="&#x2019;" horiz-adv-x="667" d="M87 809v225q45 0 78 6.5t53.5 22t32.5 31.5t17.5 46t6.5 52.5t1 64.5h-189v366h510q24 -155 24 -277q0 -278 -130 -407.5t-404 -129.5z" />
<glyph unicode="&#x201a;" horiz-adv-x="716" d="M95 0v366h510q24 -154 24 -277q0 -278 -130 -407.5t-404 -129.5v225q45 0 78 6.5t53.5 22t32.5 31.5t17.5 46t6.5 52.5t1 64.5h-189z" />
<glyph unicode="&#x201c;" horiz-adv-x="1315" d="M68 1116q0 278 130 407.5t404 129.5v-225q-45 0 -78 -6.5t-53.5 -22t-32.5 -31.5t-17.5 -46t-6.5 -52.5t-1 -64.5h189v-366h-510q-24 154 -24 277zM699 1116q0 278 130 407.5t404 129.5v-225q-45 0 -78 -6.5t-53.5 -22t-32.5 -31.5t-17.5 -46t-6.5 -52.5t-1 -64.5h189 v-366h-510q-24 154 -24 277z" />
<glyph unicode="&#x201d;" horiz-adv-x="1317" d="M87 809v225q45 0 78 6.5t53.5 22t32.5 31.5t17.5 46t6.5 52.5t1 64.5h-189v366h510q24 -155 24 -277q0 -278 -130 -407.5t-404 -129.5zM738 809v225q45 0 78 6.5t53.5 22t32.5 31.5t17.5 46t6.5 52.5t1 64.5h-189v366h510q24 -155 24 -277q0 -278 -130 -407.5 t-404 -129.5z" />
<glyph unicode="&#x201e;" horiz-adv-x="1350" d="M95 0v366h510q24 -154 24 -277q0 -278 -130 -407.5t-404 -129.5v225q45 0 78 6.5t53.5 22t32.5 31.5t17.5 46t6.5 52.5t1 64.5h-189zM730 0v366h510q24 -154 24 -277q0 -278 -130 -407.5t-404 -129.5v225q45 0 78 6.5t53.5 22t32.5 31.5t17.5 46t6.5 52.5t1 64.5h-189z " />
<glyph unicode="&#x2022;" horiz-adv-x="935" d="M74 537v13q0 89 33 161t88.5 116.5t124 68t143.5 23.5q76 0 146.5 -24.5t127.5 -70.5t91.5 -120.5t34.5 -166.5q0 -95 -34 -172.5t-91 -125t-127.5 -73t-146.5 -25.5q-77 0 -146.5 25.5t-124.5 73t-87 124.5t-32 173z" />
<glyph unicode="&#x2026;" horiz-adv-x="2158" d="M57 223q0 113 77.5 179t199.5 66q127 0 207 -66t80 -179q0 -115 -82.5 -182.5t-204.5 -67.5q-119 0 -198 67.5t-79 182.5zM797 223q0 113 77.5 179t199.5 66q127 0 207 -66t80 -179q0 -115 -82.5 -182.5t-204.5 -67.5q-119 0 -198 67.5t-79 182.5zM1538 223 q0 113 77.5 179t199.5 66q127 0 207 -66t80 -179q0 -115 -82.5 -182.5t-204.5 -67.5q-119 0 -198 67.5t-79 182.5z" />
<glyph unicode="&#x202f;" horiz-adv-x="454" />
<glyph unicode="&#x2039;" horiz-adv-x="696" d="M33 399v270l426 404l191 -224l-315 -315l315 -315l-191 -224z" />
<glyph unicode="&#x203a;" horiz-adv-x="696" d="M46 219l315 315l-315 315l191 224l426 -404v-270l-426 -404z" />
<glyph unicode="&#x205f;" horiz-adv-x="567" />
<glyph unicode="&#x20ac;" horiz-adv-x="1608" d="M65 517v224h88q-1 21 -1 63t1 63h-88v224h119q22 94 58 175.5t90 153t122 122.5t158 80.5t194 29.5q74 0 127 -5t120.5 -28.5t112.5 -66.5l34 71h311l1 -632h-298q1 53 -11 103.5t-38 95.5t-74 72.5t-111 27.5q-137 0 -183 -199h183v-224h-207v-63v-63h207v-224h-180 q46 -173 180 -173q63 0 111 27.5t74 72.5t38 95.5t11 103.5h298l-1 -632h-311l-34 71q-45 -43 -112.5 -66.5t-120.5 -28.5t-127 -5q-129 0 -235.5 41.5t-181.5 116t-125.5 168.5t-78.5 209h-120z" />
<glyph unicode="&#x2122;" horiz-adv-x="2717" d="M66 1183v439h975v-439h-188l-42 199h-71v-604h110v-241h-596v241h110v604h-67l-43 -199h-188zM1133 1383v240h558l208 -513l184 513h525v-233h-98v-607h103v-246h-538v246h83v408l-229 -654h-188l-279 668v-310q0 -25 0.5 -36t6 -29.5t16.5 -26.5t32.5 -15t53.5 -7v-244 h-436v237q32 0 53.5 8.5t33 20t16.5 37.5t6 45t1 59v439h-112z" />
<glyph unicode="&#x25fc;" horiz-adv-x="1070" d="M0 0v1070h1070v-1070h-1070z" />
<glyph unicode="&#xfb01;" horiz-adv-x="1689" d="M94 0h680v305h-110v456h391v-456h-82v-305h647v305h-84v767h-879q-6 108 20.5 150.5t89.5 42.5q38 0 96 -13v311q-14 5 -40.5 13t-107 21t-160.5 13q-380 0 -380 -403q2 -132 2 -135h-83v-311h84v-456h-84v-305zM978 1385q0 113 77.5 179t199.5 66q127 0 207 -66t80 -179 q0 -115 -82.5 -182.5t-204.5 -67.5q-119 0 -198 67.5t-79 182.5z" />
<glyph unicode="&#xfb02;" horiz-adv-x="1669" d="M94 0v305h84v456h-84v311h83q0 2 -0.5 35.5t-1.5 99.5q0 202 95 309t285 107h964v-1318h78v-305h-647v305h74v1005h-257q-63 0 -89.5 -65t-20.5 -173h179v-311h-172v-456h110v-305h-680z" />
<glyph unicode="&#xfb03;" horiz-adv-x="2564" d="M94 0h680v305h-110v456h389v-456h-84v-305h680v305h-110v456h391v-456h-82v-305h647v305h-84v767h-879q-6 108 20.5 150.5t89.5 42.5q38 0 96 -13v311q-14 5 -40.5 13t-107 21t-160.5 13q-380 0 -380 -403q2 -132 2 -135h-395q-6 108 20.5 150.5t89.5 42.5q38 0 96 -13 v311q-14 5 -40.5 13t-107 21t-160.5 13q-380 0 -380 -403q2 -132 2 -135h-83v-311h84v-456h-84v-305zM1853 1385q0 113 77.5 179t199.5 66q127 0 207 -66t80 -179q0 -115 -82.5 -182.5t-204.5 -67.5q-119 0 -198 67.5t-79 182.5z" />
<glyph unicode="&#xfb04;" horiz-adv-x="2544" d="M94 0v305h84v456h-84v311h83q0 3 -2 135q0 403 380 403q80 0 160.5 -13t107 -21t40.5 -13v-311q-58 13 -96 13q-63 0 -89.5 -42.5t-20.5 -150.5h395q0 3 -2 135q0 403 380 403q80 0 160.5 -13t107 -21t40.5 -13v-311q-58 13 -96 13q-63 0 -89.5 -42.5t-20.5 -150.5h179 v-311h-172v-456h110v-305h-680v305h84v456h-389v-456h110v-305h-680zM1815 1317v313h579v-1325h78v-305h-647v305h74v1012h-84z" />
</font>
</defs>
</svg>
