<?xml version="1.0" standalone="no"?>
<!DOCTYPE svg PUBLIC "-//W3C//DTD SVG 1.1//EN" "http://www.w3.org/Graphics/SVG/1.1/DTD/svg11.dtd" >
<svg xmlns="http://www.w3.org/2000/svg">
<metadata></metadata>
<defs>
<font id="arvobold" horiz-adv-x="1245" >
<font-face units-per-em="2048" ascent="1638" descent="-410" />
<missing-glyph horiz-adv-x="410" />
<glyph horiz-adv-x="0" />
<glyph unicode="&#xd;" horiz-adv-x="0" />
<glyph unicode=" "  horiz-adv-x="410" />
<glyph unicode="&#x09;" horiz-adv-x="410" />
<glyph unicode="&#xa0;" horiz-adv-x="410" />
<glyph unicode="!" horiz-adv-x="696" d="M139 145q0 37 13.5 69.5t37.5 57t56.5 38.5t70.5 14q36 0 68.5 -14t56.5 -38.5t38 -57t14 -69.5t-14 -69.5t-38 -56.5t-56.5 -38t-68.5 -14q-38 0 -70.5 14t-56.5 38t-37.5 56.5t-13.5 69.5zM139 1577h369l-41 -1067h-287z" />
<glyph unicode="&#x22;" horiz-adv-x="651" d="M41 1577h266l-18 -518h-207zM375 1577h260l-47 -518h-199z" />
<glyph unicode="#" horiz-adv-x="1538" d="M8 281l64 280h149l70 354h-189l64 283h181l63 318h331l-62 -318h326l62 318h332l-62 -318h160l-63 -283h-152l-69 -354h188l-64 -280h-179l-54 -281h-334l55 281h-322l-54 -281h-338l55 281h-158zM557 561h323l69 354h-324z" />
<glyph unicode="$" d="M102 240v301h342q0 -36 12 -65.5t35 -51t56.5 -33.5t77.5 -12q52 0 79 21t27 55q0 16 -10 29.5t-26 24.5t-36.5 19.5t-40.5 14.5l-186 57q-56 17 -105.5 43.5t-86.5 65.5t-58.5 92.5t-21.5 124.5q0 70 22 125.5t62 96.5t95.5 67.5t121.5 39.5v324h332v-341q42 -14 77 -32 t62 -39h180v-301h-342q-1 37 -12 63.5t-32 45.5t-51 30t-69 11q-49 0 -75.5 -18t-26.5 -50q0 -18 11 -31.5t30 -25t45 -21t55 -18.5l178 -57q134 -42 198 -117.5t64 -196.5q0 -64 -20.5 -119t-58.5 -100t-92 -77.5t-121 -51.5v-321h-332v322q-54 16 -100.5 42t-82.5 64h-176 z" />
<glyph unicode="%" horiz-adv-x="1833" d="M211 1167q0 75 28 142t78.5 117.5t120 80t152.5 29.5t152.5 -29.5t120 -80t78.5 -117.5t28 -142q0 -74 -27.5 -140.5t-77 -117t-119.5 -80.5t-155 -30q-86 0 -155.5 29.5t-119.5 80t-77 117.5t-27 141zM345 0l1025 1540h266l-1025 -1540h-266zM451 1167q0 -28 10.5 -53.5 t29.5 -44.5t44.5 -30t54.5 -11t54.5 11t44 29.5t29.5 44t11 54.5q0 31 -11 56.5t-29.5 43.5t-44 28t-54.5 10t-54.5 -10t-44.5 -28t-29.5 -43.5t-10.5 -56.5zM1024 379q0 75 28 142t78.5 117.5t120 80t152.5 29.5t152.5 -29.5t120 -80t78.5 -117.5t28 -142q0 -74 -27.5 -141 t-77 -117.5t-119.5 -80.5t-155 -30t-155 29.5t-119.5 80t-77 117.5t-27.5 142zM1264 379q0 -29 10.5 -54t29.5 -44t44.5 -30t54.5 -11t54.5 10.5t44 29.5t29.5 44.5t11 54.5q0 31 -11 56t-29.5 43t-44 28t-54.5 10t-54.5 -10t-44.5 -28t-29.5 -43t-10.5 -56z" />
<glyph unicode="&#x26;" horiz-adv-x="1337" d="M90 455q0 127 59 225t164 172q1 0 3 2l-19 20q-62 66 -95.5 143t-33.5 173q0 82 33 156t91.5 130.5t137 89.5t170.5 33q97 0 176 -34t135 -90.5t86.5 -130t30.5 -152.5q0 -56 -14.5 -108t-40 -97t-59.5 -82.5t-72 -64.5q-17 -12 -33 -23.5t-33 -22.5l164 -162 q14 45 23.5 86.5t15.5 78.5h299q-7 -97 -33.5 -197.5t-72.5 -195.5l255 -250l-231 -203l-201 206q-82 -78 -185.5 -124.5t-231.5 -46.5q-102 0 -191 36t-155 99t-104 149t-38 185zM406 461q0 -33 13 -63.5t36.5 -54.5t56.5 -38t74 -14q63 0 112.5 21.5t89.5 57.5l-262 268 q-27 -17 -49.5 -35t-38 -39t-24 -46.5t-8.5 -56.5zM457 1192q0 -40 14.5 -77.5t40.5 -61.5l56 -55q31 17 58 33t48 32q32 23 45.5 54.5t13.5 74.5q0 27 -10.5 51t-29 42.5t-42.5 29t-51 10.5q-32 0 -58 -10t-45 -28t-29.5 -42.5t-10.5 -52.5z" />
<glyph unicode="'" horiz-adv-x="340" d="M37 1059v518l287 16l-68 -534h-219z" />
<glyph unicode="(" horiz-adv-x="721" d="M109 647q0 308 103 594t302 528l246 -172q-77 -101 -137.5 -214t-102.5 -234.5t-64 -248t-22 -253.5q0 -128 22 -255t64 -248.5t102 -235.5t136 -215l-248 -160q-98 120 -172.5 252t-125.5 273t-77 289t-26 300z" />
<glyph unicode=")" horiz-adv-x="721" d="M6 -295q77 100 137.5 213.5t102.5 235t64 248t22 253.5t-22 254.5t-64 249t-102 235.5t-136 216l248 159q196 -241 298.5 -524.5t102.5 -589.5q0 -307 -103 -593t-302 -529z" />
<glyph unicode="*" horiz-adv-x="1008" d="M61 1204l78 238l240 -78v252h250v-252l239 78l78 -238l-241 -77l149 -205l-203 -148l-148 206l-147 -206l-202 148l148 205z" />
<glyph unicode="+" horiz-adv-x="1229" d="M102 436v297h363v363h297v-363h364v-297h-364v-364h-297v364h-363z" />
<glyph unicode="," horiz-adv-x="532" d="M20 -287l185 570l305 -107l-285 -541z" />
<glyph unicode="-" horiz-adv-x="770" d="M61 449v274h627v-274h-627z" />
<glyph unicode="." horiz-adv-x="529" d="M70 162q0 40 14.5 75t41 62t62.5 42.5t77 15.5q39 0 74.5 -15.5t62 -42t41.5 -62.5t15 -75q0 -40 -15.5 -76t-41.5 -62t-61 -41.5t-75 -15.5q-42 0 -77.5 15.5t-62 41.5t-41 61.5t-14.5 76.5z" />
<glyph unicode="/" horiz-adv-x="807" d="M49 0l584 1556h256l-578 -1556h-262z" />
<glyph unicode="0" horiz-adv-x="1296" d="M82 754q0 160 31 301.5t101 248t183 168.5t277 62q162 0 274.5 -61t182.5 -166t101.5 -245.5t31.5 -299.5q0 -161 -32.5 -302.5t-103 -246.5t-183.5 -166t-273 -61t-272 59t-182.5 162.5t-103 244t-32.5 302.5zM406 762q0 -101 8.5 -187t36 -148.5t80 -98t141.5 -35.5 t141.5 35.5t80.5 98t36 148.5t8 187q0 99 -8 184.5t-35.5 149t-80 99.5t-140.5 36q-89 0 -142 -36t-81 -99.5t-36.5 -149t-8.5 -184.5z" />
<glyph unicode="1" horiz-adv-x="815" d="M41 926v348l418 246l145 -2v-1244h160v-274h-649v274h159v791z" />
<glyph unicode="2" horiz-adv-x="1178" d="M119 1044q0 118 39 210.5t107.5 156t160.5 96.5t197 33q99 0 188.5 -30t158 -88t108.5 -143t40 -196q0 -89 -36.5 -164.5t-98.5 -144.5l-432 -467h565v-307h-989v260l524 557q68 66 105 132t37 134q0 29 -12 57.5t-34.5 51t-55 36t-73.5 13.5q-49 0 -85.5 -15.5 t-61 -42.5t-37.5 -63t-14 -76h-301z" />
<glyph unicode="3" horiz-adv-x="1087" d="M16 487h314q6 -105 60.5 -154.5t150.5 -49.5q43 0 80.5 14.5t65.5 39t44.5 57.5t16.5 71q0 40 -14.5 74.5t-41.5 59t-66 38.5t-87 14h-140v273h142q44 0 78.5 12t58.5 33t36.5 50t12.5 64q0 30 -13.5 60t-39 54t-61 39t-78.5 15q-37 0 -70.5 -12.5t-59 -33.5t-40.5 -48.5 t-15 -93.5l-311 2q1 97 37 185t100.5 155t155.5 106t203 39q106 0 198 -36.5t160 -98.5t106.5 -143t38.5 -170q0 -97 -40 -176.5t-109 -128.5q36 -20 67 -53t54.5 -76t37 -94t13.5 -107q0 -98 -40 -186t-110.5 -154.5t-166.5 -105.5t-207 -39q-105 0 -195.5 33t-158.5 91.5 t-109.5 138t-49 132.5t-8.5 110z" />
<glyph unicode="4" horiz-adv-x="1231" d="M10 414v256l539 846h334l-531 -848h320v293l313 4v-297h211v-254h-211v-140h193v-274h-650v274h144v140h-662z" />
<glyph unicode="5" horiz-adv-x="1206" d="M111 377l309 84q6 -47 25 -84t47.5 -63t66 -40t80.5 -14q48 0 88 18t68 49.5t43.5 73.5t15.5 91q0 41 -16 80t-46 69t-72 48t-93 18q-65 0 -112.5 -12.5t-96.5 -35.5l-271 50v807h963v-306h-674v-284q48 18 103.5 30.5t119.5 12.5q102 0 193.5 -31.5t161 -93 t110.5 -151.5t41 -208q0 -127 -45 -223.5t-119 -161.5t-168.5 -98t-193.5 -33q-98 0 -185.5 25.5t-157.5 76.5t-118.5 127.5t-66.5 178.5z" />
<glyph unicode="6" horiz-adv-x="1163" d="M66 485q0 50 10 95.5t27 89t39 85.5t46 85l375 678h350l-309 -541q27 2 52.5 -0.5t50.5 -7.5q85 -16 159 -58.5t128.5 -105t86 -141.5t31.5 -168q0 -109 -41.5 -202t-113.5 -161t-167.5 -106.5t-203.5 -38.5q-106 0 -200.5 38.5t-165.5 105t-112.5 157.5t-41.5 196z M360 489q0 -35 13.5 -71.5t41.5 -67t71 -50t102 -19.5q40 0 81 14t73 40t52.5 64.5t20.5 87.5q0 47 -18.5 85t-50.5 65t-74 42t-90 15q-61 0 -110.5 -22.5t-81.5 -64.5q-13 -25 -21.5 -54t-8.5 -64z" />
<glyph unicode="7" horiz-adv-x="1190" d="M41 1032v484h1108v-226q-118 -242 -240.5 -499.5t-237.5 -516.5h99v-274h-541v274h106q51 118 105 240t107.5 241t105 232.5t98.5 216.5h-423v-172h-287z" />
<glyph unicode="8" horiz-adv-x="1180" d="M113 457q0 106 50 193.5t135 147.5q-69 58 -108.5 134t-39.5 160q0 93 38.5 175t105 143.5t155.5 97.5t190 36q102 0 192 -36t157 -97t106 -142t39 -171q0 -88 -40.5 -166t-109.5 -137q84 -60 133 -145.5t49 -188.5q0 -98 -40.5 -186t-111 -155.5t-167 -107t-207.5 -39.5 q-74 0 -142 18.5t-126.5 51.5t-106 79t-81 99.5t-52 113.5t-18.5 122zM403 465q0 -41 18 -78t50 -64.5t75 -44t93 -16.5q49 0 91.5 16.5t74 44t49.5 64.5t18 78q0 40 -18 75.5t-49.5 62.5t-74 43t-91.5 16q-50 0 -93 -16t-75 -43t-50 -62.5t-18 -75.5zM440 1081 q0 -34 15 -64.5t42 -53.5t63.5 -36.5t78.5 -13.5t78.5 13.5t63.5 36.5t43 53.5t16 64.5q0 35 -16 66.5t-43 55.5t-63.5 38t-78.5 14t-78.5 -14t-63.5 -38t-42 -55.5t-15 -66.5z" />
<glyph unicode="9" horiz-adv-x="1151" d="M106 1020q0 109 41.5 202t112.5 161t167 106.5t204 38.5q106 0 201 -38.5t166.5 -105.5t113 -158t41.5 -196q0 -50 -10 -95.5t-27.5 -88.5t-39.5 -85t-46 -85l-375 -678h-350l307 540q-27 -2 -52 1t-48 8q-85 16 -159 58.5t-129 105t-86.5 141.5t-31.5 168zM403 1028 q0 -47 18.5 -85t50 -65t74.5 -42t91 -15q58 0 106 20.5t80 61.5q14 26 23.5 56.5t9.5 66.5q0 34 -13.5 71t-41 68t-70 50.5t-100.5 19.5q-42 0 -82.5 -14t-73 -40.5t-52.5 -65t-20 -87.5z" />
<glyph unicode=":" horiz-adv-x="539" d="M72 145q0 37 13.5 69.5t37.5 57t56.5 38.5t70.5 14q36 0 68 -14t56 -38.5t38 -57t14 -69.5t-14 -69.5t-38 -56.5t-56 -38t-68 -14q-38 0 -70.5 14t-56.5 38t-37.5 56.5t-13.5 69.5zM72 907q0 37 13.5 69.5t37.5 56.5t56.5 38t70.5 14q36 0 68 -14t56 -38t38 -56.5 t14 -69.5t-14 -69.5t-38 -56.5t-56 -38t-68 -14q-38 0 -70.5 14t-56.5 38t-37.5 56.5t-13.5 69.5z" />
<glyph unicode=";" horiz-adv-x="539" d="M-61 -287l184 570l305 -107l-285 -541zM72 907q0 37 13.5 69.5t37.5 56.5t56.5 38t70.5 14q36 0 68 -14t56 -38t38 -56.5t14 -69.5t-14 -69.5t-38 -56.5t-56 -38t-68 -14q-38 0 -70.5 14t-56.5 38t-37.5 56.5t-13.5 69.5z" />
<glyph unicode="&#x3c;" horiz-adv-x="868" d="M31 451v223l755 274v-256l-448 -134l448 -144v-250z" />
<glyph unicode="=" horiz-adv-x="995" d="M61 281v286h873v-286h-873zM61 711v286h873v-286h-873z" />
<glyph unicode="&#x3e;" horiz-adv-x="827" d="M41 164v250l448 144l-448 134v256l756 -274v-223z" />
<glyph unicode="?" horiz-adv-x="1192" d="M90 1118q2 110 38.5 191.5t100 135.5t150 80.5t188.5 26.5q95 0 178 -28t144.5 -83t97 -135t35.5 -184q0 -109 -50 -200t-153 -172q-53 -38 -88 -71t-56 -72t-29.5 -90t-8.5 -126h-313q0 70 2 123t8.5 94.5t19 74t33 60.5t50.5 54.5t73 56.5q46 38 76 69.5t47 62.5t24 64 t7 74q0 59 -29.5 96t-79.5 37q-31 0 -57.5 -7t-46.5 -26t-31.5 -52t-11.5 -85zM301 145q0 37 13.5 69.5t37.5 57t56.5 38.5t70.5 14q36 0 68 -14t56 -38.5t38 -57t14 -69.5t-14 -69.5t-38 -56.5t-56 -38t-68 -14q-38 0 -70.5 14t-56.5 38t-37.5 56.5t-13.5 69.5z" />
<glyph unicode="@" horiz-adv-x="2267" d="M188 494q0 132 34 254t96.5 228t149.5 193t193.5 149t229 96t254.5 34q133 0 256 -33t229.5 -92.5t193.5 -143t149 -184t96 -215t34 -237.5q0 -102 -30 -202t-88.5 -180t-145 -129.5t-199.5 -49.5q-80 0 -140 28t-101 79q-57 -49 -129 -77t-140 -28q-110 0 -203 40 t-160.5 108t-105.5 157.5t-38 189.5q0 97 36 186t100.5 156.5t154 107.5t196.5 40q59 0 111 -12t100 -32v31h287v-647q0 -43 16.5 -70.5t50.5 -27.5q49 0 81 30t50.5 78t25.5 106.5t7 115.5q0 86 -24.5 167t-69.5 152.5t-108 131t-140 102.5t-166 66.5t-186 23.5 q-96 0 -184 -24.5t-165 -69.5t-139.5 -108.5t-107.5 -140t-69.5 -164.5t-24.5 -183q0 -144 54 -270t147.5 -220t219 -148.5t269.5 -54.5q99 0 197 31.5t192 87.5l137 -227q-124 -75 -258 -115.5t-268 -40.5q-132 0 -254.5 34t-229 96t-193.5 149.5t-149.5 193.5t-96.5 228.5 t-34 255.5zM926 479q0 -45 16 -82.5t44 -64.5t65 -41.5t79 -14.5q60 0 110.5 31.5t80.5 88.5v159q-13 29 -32.5 53t-44 41.5t-53 27t-58.5 9.5q-42 0 -80 -16t-66 -44t-44.5 -66t-16.5 -81z" />
<glyph unicode="A" horiz-adv-x="1491" d="M27 0v274h113l413 1242h401l404 -1242h110v-274h-575v274h151l-68 218h-466l-68 -218h160v-274h-575zM589 748h306l-154 493z" />
<glyph unicode="B" horiz-adv-x="1386" d="M113 0v274h155v967h-155v277l739 -2q103 0 188.5 -36.5t147.5 -99t96.5 -146t34.5 -177.5q0 -110 -38.5 -182t-109.5 -116q75 -48 118.5 -118.5t43.5 -171.5q0 -103 -35.5 -189t-97 -148.5t-145.5 -97t-181 -34.5h-761zM600 274h252q29 0 54.5 15t44 39.5t29.5 57 t11 67.5q0 37 -11 68.5t-30 55t-44.5 37t-53.5 13.5h-252v-353zM600 901h238q28 0 53 14t43.5 37.5t29.5 53t11 61.5q0 31 -11 62t-29.5 56t-43.5 40.5t-53 15.5h-238v-340z" />
<glyph unicode="C" horiz-adv-x="1554" d="M66 760q0 163 57 305.5t156 249t232.5 168t287.5 61.5q123 0 207 -30.5t185 -120.5h224v-338h-309q-56 80 -101 113.5t-97 48t-109 14.5q-84 0 -156 -37.5t-124.5 -102t-82.5 -150t-30 -181.5q0 -97 29.5 -182.5t81.5 -149.5t124 -101.5t158 -37.5q60 0 112 19.5 t94.5 51.5t74.5 73.5t50 86.5l322 -90q-31 -98 -91 -181.5t-144.5 -144.5t-190 -96t-227.5 -35q-103 0 -197 28t-175.5 79t-148 123t-113.5 159.5t-73 188t-26 209.5z" />
<glyph unicode="D" horiz-adv-x="1468" d="M82 0v274h121v967h-121v275h582q104 0 199.5 -27t178 -76t150 -117.5t115.5 -152.5t74 -181t26 -202t-26 -202t-74 -181.5t-115.5 -154t-150 -119t-178 -76.5t-199.5 -27h-582zM535 274h127q81 0 153 38t125 103.5t84 154t31 190.5q0 101 -31 189t-84 153t-125 102 t-153 37h-127v-967z" />
<glyph unicode="E" horiz-adv-x="1380" d="M113 0v274h159v940h-159v302h1206v-517h-326v215h-389v-299h301v-290h-301v-351h389v269h326v-543h-1206z" />
<glyph unicode="F" horiz-adv-x="1286" d="M113 0v274h157v938h-157v304h1173v-517h-325v213h-359v-319h311v-291h-311v-328h160v-274h-649z" />
<glyph unicode="G" horiz-adv-x="1636" d="M66 760q0 107 26 207t73 187t113.5 158.5t148 122.5t175.5 79t197 28q118 0 205 -31.5t187 -117.5h224v-338h-309q-46 71 -86.5 103t-88 53t-132.5 21q-84 0 -156 -38t-124.5 -102.5t-82.5 -152t-30 -179.5q0 -91 27 -173t82 -147.5t128 -100.5t156 -35q106 0 185 62 t114 169h-289v274h702v-809h-299v260q-62 -109 -121 -160t-133 -82q-73 -30 -192 -30h-8q-62 1 -124 14.5t-120 38t-113.5 59t-100.5 79.5q-111 112 -172.5 259.5t-61.5 321.5z" />
<glyph unicode="H" horiz-adv-x="1890" d="M113 0v274h157v967h-157v275h649v-275h-160v-315h684v315h-158v275h650v-275h-160v-967h160v-274h-650v274h158v388h-684v-388h160v-274h-649z" />
<glyph unicode="I" horiz-adv-x="810" d="M113 0v274h157v968h-157v274h649v-274h-160v-968h160v-274h-649z" />
<glyph unicode="J" horiz-adv-x="686" d="M10 -223q59 90 92.5 148.5t67.5 129t53 150.5v1007h-141v304h573v-304h-106v-1040q-22 -81 -64 -148.5t-82.5 -122.5t-113.5 -139z" />
<glyph unicode="K" horiz-adv-x="1655" d="M113 0v274h157v967h-157v275h649v-275h-160v-441l485 423v293h517v-295h-113l-505 -434l484 -490h123v-297h-503v297l-488 488v-511h160v-274h-649z" />
<glyph unicode="L" horiz-adv-x="1346" d="M113 0v274h157v967h-157v275h649v-275h-160v-967h330q13 0 25.5 7.5t22 19.5t15.5 26t6 27v203h324v-557h-1212z" />
<glyph unicode="M" horiz-adv-x="2345" d="M113 0v274h141v967h-141v275h624l447 -1094l415 1094h633v-275h-141v-967h139v-274h-567v274h104v872l-454 -1128h-281l-462 1098v-842h113v-274h-570z" />
<glyph unicode="N" horiz-adv-x="1698" d="M113 0v274h125v967h-123v275h458l627 -993v718h-129v275h576v-275h-123v-1241h-332l-631 980v-706h127v-274h-575z" />
<glyph unicode="O" horiz-adv-x="1620" d="M66 758q0 109 26 209.5t73 188t113.5 159t148 122.5t175.5 79t197 28t197.5 -28t176 -79t148 -122.5t114 -159t73.5 -188t26 -209.5q0 -108 -26 -208.5t-73.5 -188t-114 -159t-148 -122.5t-176 -79t-197.5 -28t-197 28t-175.5 79t-148 122.5t-113.5 159t-73 187.5 t-26 209zM406 758q0 -96 29.5 -181.5t81.5 -150t124 -102t158 -37.5q87 0 159.5 37.5t124.5 102t80.5 150t28.5 181.5q0 97 -29 183t-81.5 150.5t-124.5 102t-158 37.5t-158 -37.5t-124 -102t-81.5 -150.5t-29.5 -183z" />
<glyph unicode="P" horiz-adv-x="1400" d="M113 0v274h157v967h-157v275h700q117 0 215 -36.5t169 -98.5t111 -143t40 -169q0 -106 -31.5 -198.5t-97.5 -160.5t-167 -107.5t-239 -39.5h-211v-289h139v-274h-628zM602 834h137q114 0 181 48t67 152q0 97 -63 152t-185 55h-137v-407z" />
<glyph unicode="Q" horiz-adv-x="1634" d="M66 758q0 109 26 209.5t73 188t113.5 159t148 122.5t175.5 79t197 28t197.5 -28t176 -79t148 -122.5t114 -159t73.5 -188t26 -209.5q0 -146 -46 -276t-127.5 -233t-193.5 -172t-243 -92q31 -13 61.5 -28.5t61.5 -29t61.5 -23t62.5 -10.5q31 0 60.5 8t53.5 25t41.5 44 t23.5 66l223 -111q-9 -73 -41.5 -132t-83.5 -101t-116 -65t-138 -23q-59 0 -118.5 22.5t-115 49t-104.5 49t-86 22.5q-16 0 -28.5 0.5t-24.5 0t-26.5 -3t-33.5 -9.5l2 252q-128 26 -236.5 95.5t-188 171.5t-124 230.5t-44.5 272.5zM406 758q0 -96 29.5 -181.5t81.5 -150 t124 -102t158 -37.5q87 0 159.5 37.5t124.5 102t80.5 150t28.5 181.5q0 97 -29 183t-81.5 150.5t-124.5 102t-158 37.5t-158 -37.5t-124 -102t-81.5 -150.5t-29.5 -183z" />
<glyph unicode="R" horiz-adv-x="1530" d="M113 0v274h157v967h-157v275h802q117 0 209 -35t155 -93.5t96.5 -136t33.5 -161.5q0 -77 -16.5 -135t-48 -103t-77.5 -79.5t-105 -62.5q51 -26 90 -79.5t59 -138.5l51 -197h125l2 -295h-440l-60 360q-9 64 -27.5 110.5t-49.5 76t-75.5 43.5t-105.5 14h-129v-330h139v-274 h-628zM602 874h199q57 0 102.5 10.5t78 33t50 56.5t17.5 81q0 88 -63 137t-185 49h-199v-367z" />
<glyph unicode="S" d="M41 250v301h362v-62q0 -45 14.5 -83t43.5 -66t73 -43.5t103 -15.5q90 0 137 41.5t47 115.5q0 38 -16.5 63.5t-42.5 43t-58 29.5t-63 22l-229 74q-65 20 -125.5 56t-107 90t-74 126.5t-27.5 165.5q0 108 40 192.5t112 142.5t171 88t217 30q93 0 172 -21.5t141.5 -57.5 t106 -82.5t66.5 -96.5h100v-302h-362v88q-5 35 -24.5 66t-50 53.5t-69 35.5t-80.5 13q-38 0 -71 -8t-57.5 -24.5t-39 -42.5t-14.5 -62q0 -45 19.5 -71.5t50 -43.5t67.5 -27t72 -22l275 -92q57 -20 107 -55t86.5 -85t57.5 -115t21 -146q0 -110 -40.5 -201t-113.5 -156 t-175 -101t-226 -36q-87 0 -164.5 19.5t-141.5 56.5t-112 88.5t-75 116.5h-103z" />
<glyph unicode="T" horiz-adv-x="1430" d="M20 1055v461h1379v-461h-328v196h-209v-977h160v-274h-649v274h157v977h-184v-196h-326z" />
<glyph unicode="U" horiz-adv-x="1561" d="M51 1241v275h608v-275h-139v-629q0 -86 19.5 -146t54.5 -98t83 -55.5t105 -17.5q59 0 107.5 15t83 51.5t53 97.5t18.5 153v629h-161v275h608v-275h-121v-590q0 -160 -46 -284.5t-126.5 -210.5t-189 -131t-232.5 -45q-123 0 -230 44.5t-186.5 129t-125.5 205.5t-46 274 v608h-137z" />
<glyph unicode="V" horiz-adv-x="1530" d="M20 1241v275h650v-275h-162l264 -860l263 860h-175v275h649v-275h-135l-405 -1241h-410l-393 1241h-146z" />
<glyph unicode="W" horiz-adv-x="2357" d="M20 1241v275h650v-275h-158l223 -817l269 1089h372l264 -1089l224 817h-176v275h649v-275h-137l-349 -1241h-432l-229 946l-234 -946h-428l-355 1241h-153z" />
<glyph unicode="X" horiz-adv-x="1577" d="M33 0v274h69l452 480l-463 487h-54v275h643v-275h-153l244 -257l242 257h-155v275h643v-275h-52l-459 -487l458 -480h49v-274h-643v274h153l-234 248l-233 -248h136v-274h-643z" />
<glyph unicode="Y" horiz-adv-x="1536" d="M47 1241v275h649v-275h-127l203 -348l215 348h-145v275h649v-275h-112l-451 -612v-355h184v-274h-676v274h168v359l-424 608h-133z" />
<glyph unicode="Z" horiz-adv-x="1290" d="M61 0v313l737 906h-409v-240h-326v537h1151v-314l-755 -905h428v235h325v-532h-1151z" />
<glyph unicode="[" horiz-adv-x="670" d="M82 -512v2124h547v-246h-223v-1630h223v-248h-547z" />
<glyph unicode="\" horiz-adv-x="778" d="M6 1384h236l571 -1677h-242z" />
<glyph unicode="]" horiz-adv-x="670" d="M43 -264h223v1630h-223v246h547v-2124h-547v248z" />
<glyph unicode="^" horiz-adv-x="1229" d="M52 723l416 790h303l404 -790h-296l-263 528l-274 -528h-290z" />
<glyph unicode="_" horiz-adv-x="1024" d="M0 -90h1024v-256h-1024v256z" />
<glyph unicode="`" horiz-adv-x="774" d="M168 1464v25h326l196 -311h-229z" />
<glyph unicode="a" horiz-adv-x="1280" d="M72 307q0 72 27.5 133t79.5 104.5t127.5 68t172.5 24.5q71 0 129.5 -7.5t108.5 -18.5v32q0 39 -15 67.5t-42 47t-65 27t-83 8.5q-94 0 -165.5 -18.5t-137.5 -53.5l-96 194q102 70 213.5 107t236.5 37q97 0 179.5 -21.5t141.5 -70t92.5 -126.5t33.5 -190v-377h139v-274 h-432v56q-35 -22 -64 -37.5t-58 -25t-60 -14t-68 -4.5q-93 0 -166.5 25.5t-124 70t-77.5 105t-27 131.5zM354 319q0 -46 33.5 -77t101.5 -31q71 0 129 23t99 56v132h-240q-23 0 -45 -7t-39.5 -20t-28 -32t-10.5 -44z" />
<glyph unicode="b" horiz-adv-x="1305" d="M29 1282v274h452v-543q54 26 111 40t117 14q115 0 213 -43t169 -117t111.5 -173t40.5 -210q0 -112 -39.5 -211t-110.5 -172.5t-169 -116t-215 -42.5q-63 0 -120 12t-108 34v-28h-307v1282h-145zM481 365q32 -48 85.5 -77.5t119.5 -29.5q51 0 97 18.5t80.5 53t54.5 83 t20 109.5q0 62 -20 112t-54 85t-79.5 53.5t-96.5 18.5q-66 0 -118.5 -30t-88.5 -86v-310z" />
<glyph unicode="c" horiz-adv-x="1180" d="M72 530q0 115 41.5 213.5t114.5 172.5q74 73 174 114q92 37 197 38q10 0 21 -1q12 1 25 1q71 0 138 -20q79 -23 150 -69h199v-301h-276q-43 54 -96 82q-46 24 -107 24q-9 0 -18 -1q-10 1 -19 1q-46 0 -86 -17q-48 -20 -82.5 -56t-53.5 -85.5t-19 -111.5q0 -55 20 -104 t54.5 -84.5t82 -55.5t103.5 -24q47 4 85.5 19.5t68.5 40t51.5 55t33.5 57.5l275 -76q-17 -60 -58.5 -125t-108 -118.5t-158 -88.5t-208.5 -35q-119 0 -219 43.5t-172 118.5t-112.5 176t-40.5 217z" />
<glyph unicode="d" horiz-adv-x="1400" d="M72 526q0 114 39.5 212.5t110 171.5t169 115t216.5 42q65 0 122 -12.5t109 -35.5v263h-145v274h453v-1282h202v-274h-510v40q-54 -28 -110.5 -44t-114.5 -16q-119 0 -218.5 42.5t-171 116.5t-111.5 173.5t-40 213.5zM378 523q0 -61 20 -110.5t54.5 -84t80 -52.5t97.5 -20 q66 2 119.5 34t88.5 84v305q-34 53 -90 83q-54 29 -114 28h-4h-5q-49 0 -93 -18q-46 -19 -80 -54t-54 -84t-20 -111z" />
<glyph unicode="e" horiz-adv-x="1186" d="M51 532q0 114 39.5 214t111.5 174.5t172 117.5t222 43t216.5 -40.5t159.5 -112t100 -168t38 -207.5q4 -25 4 -49v-10q0 -20 -2 -41h-763l3 -31q11 -45 37.5 -79t62.5 -57t80 -34.5t89 -11.5t85.5 5.5t78.5 15t74 22t73 26.5l110 -205q-57 -35 -104.5 -59.5t-95.5 -40.5 t-102 -23.5t-126 -7.5q-135 0 -240 44.5t-176.5 120.5t-109 178t-37.5 216zM358 664h433q-7 34 -20 64t-36 53t-58.5 36.5t-88.5 13.5q-56 0 -95.5 -13.5t-66.5 -37t-43 -53.5t-25 -63z" />
<glyph unicode="f" horiz-adv-x="815" d="M76 774v262h157v172q0 91 32 160t85.5 116t123.5 71t147 24q57 0 102 -8.5t79 -21.5t57.5 -28t37.5 -28l-115 -211q-23 17 -52 27t-71 10q-27 0 -50.5 -9t-41 -26t-27.5 -42.5t-10 -59.5v-146h189v-262h-189v-500h191v-274h-643v274h155v500h-157z" />
<glyph unicode="g" horiz-adv-x="1295" d="M72 535q0 109 39.5 205.5t110.5 169t170 114.5t215 43q71 -1 130.5 -15t111.5 -38v22h303v-993q0 -131 -45 -226.5t-120.5 -158t-175.5 -93t-210 -30.5q-136 0 -251.5 37t-205.5 100l125 222q69 -44 150 -69.5t180 -25.5q54 0 99.5 12t79 40.5t52.5 76.5t19 121v5 q-56 -32 -112 -46t-114 -14q-120 0 -221 41t-174.5 113.5t-114.5 171.5t-41 215zM378 534q0 -60 20 -109t54 -83t80.5 -52.5t100.5 -18.5q70 0 126.5 35.5t89.5 93.5l2 252q-34 63 -93 100t-128 38q-49 -1 -96 -19.5t-81.5 -52.5t-54.5 -80.5t-20 -103.5z" />
<glyph unicode="h" horiz-adv-x="1386" d="M57 0v274h160v1008h-160v274h467v-616q59 54 129.5 84.5t155.5 30.5q187 0 286 -104.5t99 -305.5v-371h152v-274h-463v575q0 87 -43 137t-111 50q-45 0 -98 -25t-107 -73v-390h152v-274h-619z" />
<glyph unicode="i" horiz-adv-x="790" d="M80 0v274h156v488h-156v274h465v-762h144v-274h-609zM220 1370q0 37 13.5 69.5t37.5 56.5t56.5 38t70.5 14q36 0 68 -14t56 -38t38 -56.5t14 -69.5t-14 -69.5t-38 -56.5t-56 -38t-68 -14q-38 0 -70.5 14t-56.5 38t-37.5 56.5t-13.5 69.5z" />
<glyph unicode="j" horiz-adv-x="621" d="M51 762v274h455v-1054q0 -119 -29.5 -204t-86 -140t-139.5 -81t-190 -26l-4 227q72 3 107 57.5t35 145.5v801h-148zM182 1370q0 37 13.5 69.5t37.5 56.5t56.5 38t70.5 14q36 0 68.5 -14t57 -38t39 -56.5t14.5 -69.5t-14.5 -69.5t-39 -56.5t-57 -38t-68.5 -14 q-38 0 -70.5 14t-56.5 38t-37.5 56.5t-13.5 69.5z" />
<glyph unicode="k" horiz-adv-x="1450" d="M59 0v274h160v1008h-160v274h467v-897h175l72 103v274h536v-274h-186l-193 -223l197 -238h172v-301h-281l-336 444h-156v-170h106v-274h-573z" />
<glyph unicode="l" horiz-adv-x="780" d="M59 0v274h160v1008h-160v274h467v-1282h160v-274h-627z" />
<glyph unicode="m" horiz-adv-x="2156" d="M80 0v274h154v488h-152v274h474v-90q64 51 144 81t165 30q118 0 202.5 -41.5t132.5 -126.5q33 37 74.5 67.5t88.5 53t98.5 35t105.5 12.5q190 0 292 -105t102 -307v-371h147v-274h-473v594q0 88 -45.5 138t-126.5 50q-56 0 -105.5 -26.5t-98.5 -91.5q1 -11 1 -22.5v-23.5 v-344h150v-274h-473v596q0 42 -13 76t-36 58t-54.5 37.5t-69.5 14.5h-4q-48 0 -100 -22q-54 -23 -102 -85v-401h166v-274h-644z" />
<glyph unicode="n" horiz-adv-x="1460" d="M80 0v274h152v488h-150v274h472v-91q65 51 145.5 80.5t169.5 29.5q187 0 288 -104.5t101 -305.5v-371h147v-274h-473v596q0 87 -46 136.5t-122 49.5q-52 0 -105 -23t-103 -86v-399h168v-274h-644z" />
<glyph unicode="o" d="M72 522q0 113 41 212t114 173t174 117t222 43t222.5 -43t174.5 -117t113.5 -173t40.5 -212t-39.5 -212.5t-112 -174t-174 -117.5t-225.5 -43q-125 0 -226.5 43t-173.5 117t-111.5 173.5t-39.5 213.5zM371 522q0 -59 20 -108.5t54.5 -85.5t80 -56t97.5 -20q53 0 98.5 19.5 t79 55.5t52.5 85.5t19 109.5q0 62 -19 112t-53 85q-32 35 -78 53q-43 18 -94 18h-5.5h-4.5q-48 0 -92 -18q-46 -18 -80.5 -53t-54.5 -85t-20 -112z" />
<glyph unicode="p" horiz-adv-x="1368" d="M61 -197h170v959h-112v274h452v-15q48 21 98 33.5t103 12.5q114 0 212 -43t170 -117t112.5 -173t40.5 -210q0 -112 -39.5 -211t-110.5 -172.5t-169.5 -116t-215.5 -42.5q-66 0 -123 12.5t-110 35.5v-227h198v-274h-676v274zM539 373q32 -51 87 -83t124 -32q51 0 97 19.5 t80 55t54 84t20 105.5q0 63 -19.5 113t-53.5 84.5t-80 53t-98 18.5q-63 0 -118 -33t-93 -93v-292z" />
<glyph unicode="q" horiz-adv-x="1333" d="M61 528q0 111 39.5 209t110 171.5t169 116t216.5 42.5q63 0 118.5 -12t106.5 -34v46h307v-1264h154v-274h-676v274h215v234q-53 -26 -107.5 -41.5t-111.5 -15.5q-119 0 -218.5 42.5t-171 117t-111.5 174.5t-40 214zM367 524q0 -62 20 -111.5t54.5 -84t80.5 -52.5t99 -18 q62 0 113.5 28.5t86.5 78.5v321q-35 49 -89 77t-114 28q-51 0 -97 -19t-80 -54t-54 -84t-20 -110z" />
<glyph unicode="r" horiz-adv-x="1110" d="M72 0v274h155v488h-153v274h461v-73q44 35 99 54t120 19q66 0 136 -1t130 -1v-375h-281v107q-41 0 -75 -5.5t-59.5 -18.5t-43 -36t-24.5 -57v-375h211v-274h-676z" />
<glyph unicode="s" horiz-adv-x="1102" d="M55 66v278h283v-6q1 -29 18 -50.5t44.5 -36.5t62.5 -22.5t74 -7.5q90 0 131 23.5t41 60.5q0 29 -20 49.5t-71 32.5l-192 41q-181 35 -273 116.5t-92 209.5q0 75 35 136.5t95 105t140.5 67.5t172.5 24q63 0 112 -7.5t88 -19.5t68.5 -28.5t52.5 -34.5h174v-278h-258 q0 24 -15.5 46t-45.5 38.5t-73.5 26.5t-98.5 10q-21 0 -45 -3.5t-44.5 -12.5t-34 -24.5t-13.5 -39.5q0 -12 3.5 -23t13.5 -21t27.5 -18.5t45.5 -13.5l188 -37q102 -20 171 -50t111 -70t60.5 -89t18.5 -106q0 -89 -41.5 -156t-109 -111.5t-152 -67t-170.5 -22.5 q-56 0 -101.5 7t-82 19t-65 28.5t-52.5 36.5h-181z" />
<glyph unicode="t" horiz-adv-x="800" d="M10 774v262h150l2 248l311 148l-2 -396h207v-262h-209l-2 -438q0 -38 6 -61.5t17.5 -37.5t27.5 -19t37 -5q38 0 67 7.5t58 17.5l43 -193q-51 -32 -113.5 -51t-148.5 -19q-61 0 -116.5 21t-97.5 63.5t-67 106.5q-24 62 -24 142v7l3 459h-149z" />
<glyph unicode="u" horiz-adv-x="1410" d="M60 762v274h458v-610q0 -104 53 -155.5t138 -51.5q60 0 109 37t71 100v406h-166v274h490v-762h125v-274h-439v88q-53 -48 -124 -74t-164 -26q-86 0 -162 27t-132.5 81.5t-89 136.5t-32.5 193v336h-135z" />
<glyph unicode="v" horiz-adv-x="1257" d="M41 762v274h541v-274h-126l169 -445l163 445h-112v274h541v-274h-138l-309 -766h-305l-309 766h-115z" />
<glyph unicode="w" horiz-adv-x="1898" d="M41 762v274h541v-274h-117l110 -369l213 643h293l215 -676l132 402h-111v274h541v-274h-139l-277 -766h-299l-217 661l-221 -661h-291l-257 766h-116z" />
<glyph unicode="x" horiz-adv-x="1235" d="M61 0v274h103l257 252l-238 236h-122v274h488v-274h-47l121 -107l116 107h-55v274h487v-274h-114l-239 -237l253 -251h103v-274h-488v274h59l-129 123l-134 -123h67v-274h-488z" />
<glyph unicode="y" horiz-adv-x="1241" d="M51 762v274h508v-274h-80l149 -388l153 388h-89v274h508v-274h-113l-401 -959h178v-274h-643v274h181l78 197l-324 762h-105z" />
<glyph unicode="z" horiz-adv-x="1140" d="M61 614v422h908v-180l-451 -588h230v199h262v-467h-916v164l429 606h-201v-156h-261z" />
<glyph unicode="{" horiz-adv-x="897" d="M102 606v191q35 6 66.5 7t58 5t47.5 14t35.5 33.5t22.5 63t8 102.5v401q0 97 19 164t57 108t94 59t131 18q47 0 83 -1.5t61 -3.5q29 -2 51 -4v-307q-47 -2 -75.5 -9.5t-44.5 -24.5t-21 -46t-5 -73v-410q0 -33 -4.5 -60.5t-16.5 -50.5t-34 -42.5t-57 -35.5 q36 -15 58 -36.5t34 -47.5t16 -55.5t4 -60.5v-371q0 -51 5 -82.5t21 -48.5t44.5 -24t75.5 -9v-327q-22 -3 -51 -5q-25 -2 -61 -3t-83 -1q-75 0 -131 18t-94 59t-57 107.5t-19 164.5v475q-7 62 -28 90.5t-53 39.5t-72 11.5t-85 7.5z" />
<glyph unicode="|" horiz-adv-x="594" d="M123 -270v1999h252v-1999h-252z" />
<glyph unicode="}" horiz-adv-x="897" d="M61 -31q47 2 75.5 9t44.5 24t21 48.5t5 82.5v371q0 31 4 60.5t16 55.5t34 47.5t58 36.5q-35 16 -57 35.5t-34 42.5t-16.5 50.5t-4.5 60.5v410q0 44 -5 73t-21 46t-44.5 24.5t-75.5 9.5v307q22 2 51 4q25 2 60.5 3.5t83.5 1.5q62 0 111.5 -12.5t86.5 -40t60.5 -71.5 t34.5 -108q5 -26 6.5 -55.5t1.5 -61.5v-321q0 -86 6 -140t18.5 -85.5t31.5 -45.5t45.5 -19.5t60.5 -7t76 -7.5v-191q-45 -7 -85 -7.5t-72 -11.5t-53 -39.5t-28 -90.5v-475q0 -32 -1.5 -61.5t-6.5 -55.5q-11 -64 -34.5 -108t-60.5 -71.5t-86.5 -40t-111.5 -12.5 q-48 0 -83.5 1t-60.5 3q-29 2 -51 5v327z" />
<glyph unicode="~" horiz-adv-x="905" d="M-8 512q0 30 5 66t16.5 72.5t31.5 70.5t50 60.5t72 42.5t97 16q24 0 55.5 -11t66.5 -27t72 -35t71.5 -35t64 -26t51.5 -10q47 0 69.5 27.5t30.5 87.5l185 -41q0 -45 -12.5 -100.5t-45.5 -104.5t-90 -84t-147 -35q-55 0 -108 23.5t-101.5 50t-90.5 48.5t-75 22 q-19 0 -36 -5.5t-30 -19t-21 -35.5t-9 -55z" />
<glyph unicode="&#xa1;" horiz-adv-x="696" d="M139 -471l41 1067h287l41 -1067h-369zM139 985q0 37 13.5 69.5t37.5 56.5t56.5 38t70.5 14q36 0 68 -14t56 -38t38 -56.5t14 -69.5t-14 -69.5t-38 -56.5t-56 -38t-68 -14q-38 0 -70.5 14t-56.5 38t-37.5 56.5t-13.5 69.5z" />
<glyph unicode="&#xa2;" d="M72 694q0 97 28 183t79.5 155t123 118.5t158.5 73.5v355h332v-361q35 -11 69.5 -26t66.5 -35h199v-301h-276q-43 50 -96 77.5t-125 27.5q-58 0 -105.5 -20t-82 -56t-53.5 -85.5t-19 -107.5q0 -59 20 -108t54.5 -84.5t82 -55.5t103.5 -20q47 0 85.5 15.5t68.5 40t51.5 55 t33.5 61.5l275 -80q-14 -48 -42.5 -100.5t-72.5 -100.5t-103.5 -87.5t-133.5 -62.5v-353h-332v348q-88 24 -159.5 74.5t-122.5 120.5t-79 156.5t-28 182.5z" />
<glyph unicode="&#xa3;" horiz-adv-x="1065" d="M41 584v245h100q-9 43 -14.5 90.5t-5.5 104.5q0 100 34.5 180t94.5 136.5t140.5 87t172.5 30.5q209 0 326.5 -111t134.5 -329l-336 -12q-3 80 -35.5 119.5t-83.5 39.5q-46 0 -79 -33t-33 -106q0 -31 5.5 -65t16 -64.5t24.5 -67.5h269v-245h-173q7 -39 7.5 -81.5t-4 -83.5 t-14.5 -78.5t-23 -66.5h420v-274h-899v274h160q15 54 17.5 118t-8.5 100t-17 54.5t-14 37.5h-183z" />
<glyph unicode="&#xa4;" horiz-adv-x="1438" d="M51 1206l264 242l194 -212q49 21 102 32.5t110 11.5q56 0 109 -11.5t101 -31.5l193 211l265 -242l-194 -211q31 -57 48 -121t17 -133t-17 -133.5t-48 -121.5l179 -191l-264 -240l-178 191q-100 -43 -211 -43q-57 0 -111 11.5t-104 33.5l-176 -193l-264 240l178 195 q-29 57 -45.5 119.5t-16.5 131.5t16.5 132.5t47.5 120.5zM469 750q0 -53 19.5 -99t53.5 -80t80 -53.5t99 -19.5q52 0 98 19.5t80 53.5t54 80t20 99t-20 99t-54 79.5t-80 53t-98 19.5q-53 0 -99 -19.5t-80 -53.5t-53.5 -80t-19.5 -98z" />
<glyph unicode="&#xa5;" horiz-adv-x="1536" d="M47 1241v275h649v-275h-125l201 -307l214 307h-144v275h649v-275h-113l-246 -313h160v-258h-362l-2 -3v-57h364v-258h-364v-78h184v-274h-676v274h168v78h-360v258h360v60h-360v258h169l-232 313h-134z" />
<glyph unicode="&#xa6;" horiz-adv-x="594" d="M123 -270v757h252v-757h-252zM123 971v758h252v-758h-252z" />
<glyph unicode="&#xa7;" horiz-adv-x="1128" d="M29 72h348v-91q3 -20 12 -46t33.5 -50.5t62.5 -38.5t90 -14q75 0 113.5 34t38.5 93q0 30 -14 50t-36 33.5t-49 23t-53 18.5l-213 68q-57 18 -111.5 51t-97 82.5t-68.5 116t-26 151.5q0 100 33.5 169.5t82.5 115.5q-15 14 -43.5 47t-54.5 99t-26 151q0 101 38 178.5 t104.5 129.5t158 78.5t199.5 26.5q95 0 174 -23.5t138.5 -62t89.5 -77.5t44 -68h95v-295h-349v49h-2q6 37 -7 72t-39 61t-63 42t-79 16q-29 0 -56 -5t-48 -17.5t-33.5 -33t-12.5 -51.5q0 -39 17 -62t44 -37t59.5 -23t64.5 -19l264 -88q46 -16 87.5 -47.5t72.5 -76.5t49 -104 t18 -131q0 -102 -31.5 -174t-74.5 -121q26 -23 53 -60.5t45.5 -96t18.5 -129.5q0 -102 -37 -186t-104.5 -144t-162 -92.5t-208.5 -32.5q-90 0 -172 24t-146.5 68.5t-93 87.5t-39.5 66h-98v295zM412 571q0 -38 16.5 -61t42.5 -37t58 -23t63 -20l31 -11q35 9 57 29 q37 35 37 95q0 30 -13.5 50t-34.5 33.5t-47 23t-51 18.5l-31 10q-21 -1 -43 -5.5t-41.5 -17t-31.5 -33t-12 -51.5z" />
<glyph unicode="&#xa8;" horiz-adv-x="940" d="M47 1343q0 37 13.5 69.5t37.5 57t56.5 38.5t70.5 14q36 0 68 -14t56 -38.5t38 -57t14 -69.5t-14 -69.5t-38 -56.5t-56 -38t-68 -14q-38 0 -70.5 14t-56.5 38t-37.5 56.5t-13.5 69.5zM526 1343q0 37 14 69.5t38 57t56.5 38.5t70.5 14q36 0 68 -14t56 -38.5t38 -57 t14 -69.5t-14 -69.5t-38 -56.5t-56 -38t-68 -14q-38 0 -70.5 14t-56.5 38t-38 56.5t-14 69.5z" />
<glyph unicode="&#xa9;" horiz-adv-x="1919" d="M102 831q0 118 30.5 227.5t86 204.5t133.5 173t173 133.5t204.5 86t228.5 30.5q118 0 228 -30.5t205.5 -86t174 -133.5t134.5 -173t86.5 -204.5t30.5 -227.5q0 -119 -30.5 -228.5t-86.5 -204.5t-134.5 -173t-174 -133.5t-205.5 -86t-228 -30.5q-119 0 -228.5 30.5 t-204.5 86t-173 133.5t-133.5 173t-86 204.5t-30.5 228.5zM330 831q0 -88 22 -169t62.5 -151t97.5 -127.5t127 -98t150.5 -62.5t168.5 -22t169 22t150.5 62.5t126.5 98t97.5 127.5t62.5 151t22 169t-22 169t-62.5 150.5t-97.5 127t-126.5 98t-150.5 62.5t-169 22 q-87 0 -168 -22t-151 -62.5t-127 -98t-97.5 -127t-62.5 -150.5t-22 -169zM472 831q0 104 39 194.5t106.5 157.5t158 106t193.5 39q112 0 207.5 -43t164.5 -117l-193 -195q-32 42 -78.5 64.5t-100.5 22.5q-49 0 -90 -17.5t-71.5 -49t-48.5 -73.5t-18 -89t18 -89t48.5 -73 t71.5 -48.5t90 -17.5q53 0 99 20.5t81 62.5l190 -191q-70 -74 -164.5 -117.5t-205.5 -43.5q-103 0 -193.5 39t-158 106.5t-106.5 157.5t-39 194z" />
<glyph unicode="&#xaa;" horiz-adv-x="1006" d="M156 1108q0 44 13 79t43 63.5t78.5 46.5t119.5 18q45 0 84 -5t74 -10q-4 52 -38.5 65t-87.5 13q-58 0 -102.5 -8t-93.5 -33l-72 141q74 50 148.5 74.5t162.5 24.5q65 0 121 -13.5t97 -43.5t64.5 -79.5t23.5 -121.5v-224h94v-203h-314v17q-35 -18 -71 -25t-76 -7 q-65 0 -114.5 16t-84 44.5t-52 67t-17.5 103.5zM369 1113q0 -34 14 -48.5t49 -14.5q85 0 138 33v70h-160q-11 0 -26 -7.5t-15 -32.5z" />
<glyph unicode="&#xab;" horiz-adv-x="1038" d="M82 593v74l260 369h223l-211 -406l213 -407h-229zM522 593v74l260 369h224l-211 -406l213 -407h-230z" />
<glyph unicode="&#xac;" horiz-adv-x="1597" d="M51 782v254h1475v-788h-287v534h-1188z" />
<glyph unicode="&#xad;" horiz-adv-x="770" d="M61 449v274h627v-274h-627z" />
<glyph unicode="&#xae;" horiz-adv-x="2048" d="M102 831q0 118 30.5 227.5t86 204.5t133.5 173t173 133.5t204.5 86t228.5 30.5q118 0 228 -30.5t205.5 -86t174 -133.5t134.5 -173t86.5 -204.5t30.5 -227.5q0 -119 -30.5 -228.5t-86.5 -204.5t-134.5 -173t-174 -133.5t-205.5 -86t-228 -30.5q-119 0 -228.5 30.5 t-204.5 86t-173 133.5t-133.5 173t-86 204.5t-30.5 228.5zM317 831q0 -90 22.5 -172.5t64 -154t99.5 -130t129.5 -100t153.5 -64t172 -22.5t172.5 22.5t153.5 64t129 100t99.5 130t64 154t22.5 172.5t-22.5 172.5t-64 153.5t-99.5 129.5t-129 100t-153.5 64t-172.5 22.5 q-89 0 -171.5 -22.5t-154 -64t-129.5 -100t-99.5 -129.5t-64 -153.5t-22.5 -172.5zM528 373v212h95v497h-91v211h532q79 0 138 -25t98.5 -64.5t59.5 -87.5t20 -93q0 -52 -17.5 -96t-55.5 -79t-86 -54q35 -14 56 -41t33 -88l15 -80h78v-212h-328l-15 194q-5 63 -14.5 85 t-29.5 34t-69 12h-66v-113h79v-212h-432zM881 900h66q69 0 109 19.5t40 69.5q0 44 -38 68.5t-102 24.5h-75v-182z" />
<glyph unicode="&#xaf;" horiz-adv-x="831" d="M82 1176v215h688v-215h-688z" />
<glyph unicode="&#xb0;" horiz-adv-x="815" d="M102 1397q0 64 24 120t66 98t98 66.5t120 24.5t120 -23.5t97 -65t64.5 -98.5t23.5 -124q0 -65 -23.5 -121.5t-64.5 -99t-97 -67t-120 -24.5q-65 0 -121.5 24.5t-98 67t-65 100t-23.5 122.5zM258 1389q0 -29 12 -56t32 -47.5t46 -32.5t55 -12q34 0 62.5 11t48.5 31 t31.5 48t11.5 62t-11 63t-31 49t-47.5 31.5t-59.5 11.5t-59 -12t-47.5 -33.5t-32 -50.5t-11.5 -63z" />
<glyph unicode="&#xb1;" horiz-adv-x="1229" d="M102 0v274h1024v-274h-1024zM102 651v297h363v363h297v-363h364v-297h-364v-323h-297v323h-363z" />
<glyph unicode="&#xb2;" horiz-adv-x="721" d="M80 1303q-1 71 21.5 123t62.5 86t94.5 50.5t118.5 16.5q50 0 100 -14t90.5 -43t66 -72.5t25.5 -103.5q0 -30 -6.5 -53.5t-18.5 -43t-28.5 -36t-36.5 -33.5l-159 -133h249v-205h-573v192l270 201q22 17 33.5 30.5t17 24.5t6.5 19.5t1 15.5q0 17 -13 29t-39 12 q-20 0 -31.5 -7.5t-17 -18t-7 -21t-1.5 -16.5h-225z" />
<glyph unicode="&#xb3;" horiz-adv-x="721" d="M58 1102h219q0 -24 7.5 -41t23 -29t45.5 -12q26 0 41 9.5t22.5 24.5t7.5 33q0 29 -19 44.5t-52 15.5h-99v133h108q20 0 34 16t14 43q0 19 -14 36t-42 17q-25 0 -43 -15.5t-18 -55.5h-219q-2 57 15 106.5t53 86t91 57t128 20.5q55 0 106 -18.5t90 -50.5t62 -75.5t23 -93.5 q0 -46 -15.5 -78.5t-32.5 -52.5q18 -16 33.5 -39.5t22 -51t6.5 -56.5q0 -48 -22 -94t-62 -81.5t-94.5 -56t-118.5 -20.5q-74 0 -130 21.5t-94 59t-57.5 88.5t-19.5 110z" />
<glyph unicode="&#xb4;" horiz-adv-x="680" d="M41 1178l215 311h326v-25l-306 -286h-235z" />
<glyph unicode="&#xb5;" horiz-adv-x="1350" d="M154 -471v1507h335v-610q0 -104 53 -155.5t137 -51.5q60 0 109.5 37.5t71.5 99.5v680h323v-762h125v-274h-438v88q-53 -48 -124.5 -74t-164.5 -26q-50 0 -95 9v-468h-332z" />
<glyph unicode="&#xb6;" horiz-adv-x="1417" d="M61 1014q0 105 42 196.5t119 159.5t186 107t243 39h684v-275h-141v-1603h-293v1603h-172v-1603h-293v894q-77 21 -145 62t-119 101.5t-81 140t-30 178.5z" />
<glyph unicode="&#xb7;" horiz-adv-x="721" d="M201 633q0 37 13.5 69.5t37.5 56.5t56.5 38t70.5 14q36 0 68 -14t56 -38t38 -56.5t14 -69.5t-14 -69.5t-38 -56.5t-56 -38t-68 -14q-38 0 -70.5 14t-56.5 38t-37.5 56.5t-13.5 69.5z" />
<glyph unicode="&#xb8;" horiz-adv-x="926" d="M182 -293q41 3 77.5 19.5t66 46.5t51 73.5t31.5 100.5l243 -86q-23 -79 -65 -138t-100 -98t-128.5 -59t-150.5 -21z" />
<glyph unicode="&#xb9;" horiz-adv-x="539" d="M41 1217v233l238 127h112v-543h121v-194h-461v194h131v250z" />
<glyph unicode="&#xba;" horiz-adv-x="883" d="M61 1210q0 73 28.5 139.5t79 117t120.5 80.5t153 30q82 0 152 -30t120 -81t78.5 -117.5t28.5 -138.5q0 -73 -27.5 -139.5t-77.5 -117.5t-119.5 -81t-154.5 -30q-86 0 -156 30t-120 81t-77.5 117.5t-27.5 139.5zM287 1210q0 -25 12 -50t33 -44.5t49.5 -32t60.5 -12.5 t60 12.5t48.5 32t32 44.5t11.5 50q0 28 -11.5 52.5t-32 43t-48.5 29.5t-60 11t-60.5 -11t-49.5 -29.5t-33 -43t-12 -52.5z" />
<glyph unicode="&#xbb;" horiz-adv-x="1100" d="M31 223l213 407l-211 406h223l260 -369v-74l-256 -370h-229zM471 223l213 407l-211 406h223l260 -369v-74l-256 -370h-229z" />
<glyph unicode="&#xbc;" horiz-adv-x="2350" d="M409 -61l1251 1638h256l-1245 -1638h-262zM438 1217v233l238 127h112v-543h121v-194h-461v194h131v250zM1412 348l280 416h215l-282 -422h168v166h202v-166h105v-160h-105v-182h-202v182h-379z" />
<glyph unicode="&#xbd;" horiz-adv-x="2446" d="M465 -61l1251 1638h256l-1245 -1638h-262zM494 1217v233l238 127h112v-543h121v-194h-461v194h131v250zM1485 459q-1 71 21.5 123t62.5 86t94.5 50.5t118.5 16.5q50 0 100 -14t90.5 -43t66 -72.5t25.5 -103.5q0 -30 -6.5 -53.5t-18.5 -43t-28.5 -36t-36.5 -33.5 l-159 -133h249v-205h-573v192l270 201q22 17 33.5 30.5t17 24.5t6.5 19.5t1 15.5q0 17 -13 29t-39 12q-20 0 -31.5 -7.5t-17 -18t-7 -21t-1.5 -16.5h-225z" />
<glyph unicode="&#xbe;" horiz-adv-x="2266" d="M290 1102h219q0 -24 7.5 -41t23 -29t45.5 -12q26 0 41 9.5t22.5 24.5t7.5 33q0 29 -19 44.5t-52 15.5h-99v133h108q20 0 34 16t14 43q0 19 -14 36t-42 17q-25 0 -43 -15.5t-18 -55.5h-219q-2 57 15 106.5t53 86t91 57t128 20.5q55 0 106 -18.5t90 -50.5t62 -75.5 t23 -93.5q0 -46 -15.5 -78.5t-32.5 -52.5q18 -16 33.5 -39.5t22 -51t6.5 -56.5q0 -48 -22 -94t-62 -81.5t-94.5 -56t-118.5 -20.5q-74 0 -130 21.5t-94 59t-57.5 88.5t-19.5 110zM325 -61l1251 1638h256l-1245 -1638h-262zM1328 348l280 416h215l-282 -422h168v166h202v-166 h105v-160h-105v-182h-202v182h-379z" />
<glyph unicode="&#xbf;" horiz-adv-x="1100" d="M50 -22q0 109 50 200t153 172q53 38 88 71t56 72t29.5 90t8.5 126h313q0 -70 -2 -123t-8.5 -94.5t-19 -74t-33 -60.5t-51 -54.5t-72.5 -56.5q-46 -38 -76 -69.5t-47 -62.5t-24 -64t-7 -74q0 -59 29.5 -96t79.5 -37q31 0 57.5 7t46.5 26t31.5 52t11.5 85l318 -31 q-2 -110 -38.5 -191.5t-100 -135.5t-150 -80.5t-188.5 -26.5q-95 0 -178 28t-144.5 83t-97 135t-35.5 184zM380 964q0 37 13.5 69.5t37.5 56.5t56.5 38t70.5 14q36 0 68 -14t56 -38t38 -56.5t14 -69.5t-14 -69.5t-38 -56.5t-56 -38t-68 -14q-38 0 -70.5 14t-56.5 38 t-37.5 56.5t-13.5 69.5z" />
<glyph unicode="&#xc0;" horiz-adv-x="1491" d="M27 0v274h113l413 1242h401l404 -1242h110v-274h-575v274h151l-68 218h-466l-68 -218h160v-274h-575zM484 1944v25h326l196 -311h-229zM589 748h306l-154 493z" />
<glyph unicode="&#xc1;" horiz-adv-x="1491" d="M27 0v274h113l413 1242h401l404 -1242h110v-274h-575v274h151l-68 218h-466l-68 -218h160v-274h-575zM475 1658l215 311h326v-25l-306 -286h-235zM589 748h306l-154 493z" />
<glyph unicode="&#xc2;" horiz-adv-x="1491" d="M27 0v274h113l413 1242h401l404 -1242h110v-274h-575v274h151l-68 218h-466l-68 -218h160v-274h-575zM352 1656l272 325h240l274 -325h-245l-148 153l-145 -153h-248zM589 748h306l-154 493z" />
<glyph unicode="&#xc3;" horiz-adv-x="1491" d="M27 0v274h113l413 1242h401l404 -1242h110v-274h-575v274h151l-68 218h-466l-68 -218h160v-274h-575zM307 1744q14 54 47.5 94t74.5 67t84.5 40.5t78.5 13.5q42 0 81 -14.5t76.5 -32t73 -32t70.5 -14.5q42 0 74.5 15t58.5 53l158 -70q-15 -45 -42.5 -84t-63.5 -68.5 t-79 -46t-90 -16.5q-52 0 -94 13.5t-79.5 30t-73.5 30.5t-76 14q-45 0 -76 -18.5t-51 -44.5zM589 748h306l-154 493z" />
<glyph unicode="&#xc4;" horiz-adv-x="1491" d="M27 0v274h113l413 1242h401l404 -1242h110v-274h-575v274h151l-68 218h-466l-68 -218h160v-274h-575zM328 1823q0 37 13.5 69.5t37.5 57t56.5 38.5t70.5 14q36 0 68 -14t56 -38.5t38 -57t14 -69.5t-14 -69.5t-38 -56.5t-56 -38t-68 -14q-38 0 -70.5 14t-56.5 38 t-37.5 56.5t-13.5 69.5zM589 748h306l-154 493zM807 1823q0 37 14 69.5t38 57t56.5 38.5t70.5 14q36 0 68 -14t56 -38.5t38 -57t14 -69.5t-14 -69.5t-38 -56.5t-56 -38t-68 -14q-38 0 -70.5 14t-56.5 38t-38 56.5t-14 69.5z" />
<glyph unicode="&#xc5;" horiz-adv-x="1491" d="M27 0v274h113l413 1242h401l404 -1242h110v-274h-575v274h151l-68 218h-466l-68 -218h160v-274h-575zM428 1709q0 65 25 123t68 101t101 68t123 25t123 -25t101.5 -68t68.5 -101t25 -123t-25 -123t-68.5 -101.5t-101.5 -68.5t-123 -25t-123 25t-101 68.5t-68 101.5 t-25 123zM589 748h306l-154 493zM620 1709q0 -26 10 -49t27 -40t39.5 -26.5t48.5 -9.5t48.5 9.5t39 26.5t26 40t9.5 49t-9.5 48.5t-26 39t-39 26t-48.5 9.5t-48.5 -9.5t-39.5 -26t-27 -39t-10 -48.5z" />
<glyph unicode="&#xc6;" horiz-adv-x="2093" d="M-34 0v274h126l791 1242h1149v-517h-326v215h-370v-305h290v-274h-290v-361h370v269h326v-543h-1149v274h121v138h-497l-83 -138h116v-274h-574zM671 686h333v568z" />
<glyph unicode="&#xc7;" horiz-adv-x="1554" d="M66 760q0 163 57 305.5t156 249t232.5 168t287.5 61.5q123 0 207 -30.5t185 -120.5h224v-338h-309q-56 80 -101 113.5t-97 48t-109 14.5q-84 0 -156 -37.5t-124.5 -102t-82.5 -150t-30 -181.5q0 -97 29.5 -182.5t81.5 -149.5t124 -101.5t158 -37.5q60 0 112 19.5 t94.5 51.5t74.5 73.5t50 86.5l322 -90q-31 -98 -91 -181.5t-144.5 -144.5t-190 -96t-227.5 -35q-103 0 -197 28t-175.5 79t-148 123t-113.5 159.5t-73 188t-26 209.5zM542 -293q41 3 77.5 19.5t66 46.5t51 73.5t31.5 100.5l243 -86q-23 -79 -65 -138t-100 -98t-128.5 -59 t-150.5 -21z" />
<glyph unicode="&#xc8;" horiz-adv-x="1380" d="M113 0v274h159v940h-159v302h1206v-517h-326v215h-389v-299h301v-290h-301v-351h389v269h326v-543h-1206zM429 1944v25h326l196 -311h-229z" />
<glyph unicode="&#xc9;" horiz-adv-x="1380" d="M113 0v274h159v940h-159v302h1206v-517h-326v215h-389v-299h301v-290h-301v-351h389v269h326v-543h-1206zM419 1658l215 311h326v-25l-306 -286h-235z" />
<glyph unicode="&#xca;" horiz-adv-x="1380" d="M113 0v274h159v940h-159v302h1206v-517h-326v215h-389v-299h301v-290h-301v-351h389v269h326v-543h-1206zM297 1656l272 325h240l274 -325h-245l-148 153l-145 -153h-248z" />
<glyph unicode="&#xcb;" horiz-adv-x="1380" d="M113 0v274h159v940h-159v302h1206v-517h-326v215h-389v-299h301v-290h-301v-351h389v269h326v-543h-1206zM273 1823q0 37 13.5 69.5t37.5 57t56.5 38.5t70.5 14q36 0 68 -14t56 -38.5t38 -57t14 -69.5t-14 -69.5t-38 -56.5t-56 -38t-68 -14q-38 0 -70.5 14t-56.5 38 t-37.5 56.5t-13.5 69.5zM752 1823q0 37 14 69.5t38 57t56.5 38.5t70.5 14q36 0 68 -14t56 -38.5t38 -57t14 -69.5t-14 -69.5t-38 -56.5t-56 -38t-68 -14q-38 0 -70.5 14t-56.5 38t-38 56.5t-14 69.5z" />
<glyph unicode="&#xcc;" horiz-adv-x="810" d="M113 0v274h157v968h-157v274h649v-274h-160v-968h160v-274h-649zM145 1944v25h326l196 -311h-229z" />
<glyph unicode="&#xcd;" horiz-adv-x="810" d="M113 0v274h157v968h-157v274h649v-274h-160v-968h160v-274h-649zM134 1658l215 311h326v-25l-306 -286h-235z" />
<glyph unicode="&#xce;" horiz-adv-x="810" d="M13 1656l272 325h240l274 -325h-245l-148 153l-145 -153h-248zM113 0v274h157v968h-157v274h649v-274h-160v-968h160v-274h-649z" />
<glyph unicode="&#xcf;" horiz-adv-x="810" d="M-11 1823q0 37 13.5 69.5t37.5 57t56.5 38.5t70.5 14q36 0 68 -14t56 -38.5t38 -57t14 -69.5t-14 -69.5t-38 -56.5t-56 -38t-68 -14q-38 0 -70.5 14t-56.5 38t-37.5 56.5t-13.5 69.5zM113 0v274h157v968h-157v274h649v-274h-160v-968h160v-274h-649zM468 1823 q0 37 14 69.5t38 57t56.5 38.5t70.5 14q36 0 68 -14t56 -38.5t38 -57t14 -69.5t-14 -69.5t-38 -56.5t-56 -38t-68 -14q-38 0 -70.5 14t-56.5 38t-38 56.5t-14 69.5z" />
<glyph unicode="&#xd0;" horiz-adv-x="1468" d="M65 621v274h138v346h-121v275h582q104 0 199.5 -27t178 -76t150 -117.5t115.5 -152.5t74 -181t26 -202t-26 -202t-74 -181.5t-115.5 -154t-150 -119t-178 -76.5t-199.5 -27h-582v274h121v347h-138zM535 274h127q81 0 153 38t125 103.5t84 154t31 190.5q0 101 -31 189 t-84 153t-125 102t-153 37h-127v-346h157v-274h-157v-347z" />
<glyph unicode="&#xd1;" horiz-adv-x="1698" d="M113 0v274h125v967h-123v275h458l627 -993v718h-129v275h576v-275h-123v-1241h-332l-631 980v-706h127v-274h-575zM410 1744q14 54 47.5 94t74.5 67t84.5 40.5t78.5 13.5q42 0 81 -14.5t76.5 -32t73 -32t70.5 -14.5q42 0 74.5 15t58.5 53l158 -70q-15 -45 -42.5 -84 t-63.5 -68.5t-79 -46t-90 -16.5q-52 0 -94 13.5t-79.5 30t-73.5 30.5t-76 14q-45 0 -76 -18.5t-51 -44.5z" />
<glyph unicode="&#xd2;" horiz-adv-x="1620" d="M66 758q0 109 26 209.5t73 188t113.5 159t148 122.5t175.5 79t197 28t197.5 -28t176 -79t148 -122.5t114 -159t73.5 -188t26 -209.5q0 -108 -26 -208.5t-73.5 -188t-114 -159t-148 -122.5t-176 -79t-197.5 -28t-197 28t-175.5 79t-148 122.5t-113.5 159t-73 187.5 t-26 209zM406 758q0 -96 29.5 -181.5t81.5 -150t124 -102t158 -37.5q87 0 159.5 37.5t124.5 102t80.5 150t28.5 181.5q0 97 -29 183t-81.5 150.5t-124.5 102t-158 37.5t-158 -37.5t-124 -102t-81.5 -150.5t-29.5 -183zM538 1944v25h326l196 -311h-229z" />
<glyph unicode="&#xd3;" horiz-adv-x="1620" d="M66 758q0 109 26 209.5t73 188t113.5 159t148 122.5t175.5 79t197 28t197.5 -28t176 -79t148 -122.5t114 -159t73.5 -188t26 -209.5q0 -108 -26 -208.5t-73.5 -188t-114 -159t-148 -122.5t-176 -79t-197.5 -28t-197 28t-175.5 79t-148 122.5t-113.5 159t-73 187.5 t-26 209zM406 758q0 -96 29.5 -181.5t81.5 -150t124 -102t158 -37.5q87 0 159.5 37.5t124.5 102t80.5 150t28.5 181.5q0 97 -29 183t-81.5 150.5t-124.5 102t-158 37.5t-158 -37.5t-124 -102t-81.5 -150.5t-29.5 -183zM529 1658l215 311h326v-25l-306 -286h-235z" />
<glyph unicode="&#xd4;" horiz-adv-x="1620" d="M66 758q0 109 26 209.5t73 188t113.5 159t148 122.5t175.5 79t197 28t197.5 -28t176 -79t148 -122.5t114 -159t73.5 -188t26 -209.5q0 -108 -26 -208.5t-73.5 -188t-114 -159t-148 -122.5t-176 -79t-197.5 -28t-197 28t-175.5 79t-148 122.5t-113.5 159t-73 187.5 t-26 209zM406 758q0 -96 29.5 -181.5t81.5 -150t124 -102t158 -37.5q87 0 159.5 37.5t124.5 102t80.5 150t28.5 181.5q0 97 -29 183t-81.5 150.5t-124.5 102t-158 37.5t-158 -37.5t-124 -102t-81.5 -150.5t-29.5 -183zM406 1656l272 325h240l274 -325h-245l-148 153 l-145 -153h-248z" />
<glyph unicode="&#xd5;" horiz-adv-x="1620" d="M66 758q0 109 26 209.5t73 188t113.5 159t148 122.5t175.5 79t197 28t197.5 -28t176 -79t148 -122.5t114 -159t73.5 -188t26 -209.5q0 -108 -26 -208.5t-73.5 -188t-114 -159t-148 -122.5t-176 -79t-197.5 -28t-197 28t-175.5 79t-148 122.5t-113.5 159t-73 187.5 t-26 209zM361 1744q14 54 47.5 94t74.5 67t84.5 40.5t78.5 13.5q42 0 81 -14.5t76.5 -32t73 -32t70.5 -14.5q42 0 74.5 15t58.5 53l158 -70q-15 -45 -42.5 -84t-63.5 -68.5t-79 -46t-90 -16.5q-52 0 -94 13.5t-79.5 30t-73.5 30.5t-76 14q-45 0 -76 -18.5t-51 -44.5z M406 758q0 -96 29.5 -181.5t81.5 -150t124 -102t158 -37.5q87 0 159.5 37.5t124.5 102t80.5 150t28.5 181.5q0 97 -29 183t-81.5 150.5t-124.5 102t-158 37.5t-158 -37.5t-124 -102t-81.5 -150.5t-29.5 -183z" />
<glyph unicode="&#xd6;" horiz-adv-x="1620" d="M66 758q0 109 26 209.5t73 188t113.5 159t148 122.5t175.5 79t197 28t197.5 -28t176 -79t148 -122.5t114 -159t73.5 -188t26 -209.5q0 -108 -26 -208.5t-73.5 -188t-114 -159t-148 -122.5t-176 -79t-197.5 -28t-197 28t-175.5 79t-148 122.5t-113.5 159t-73 187.5 t-26 209zM382 1823q0 37 13.5 69.5t37.5 57t56.5 38.5t70.5 14q36 0 68 -14t56 -38.5t38 -57t14 -69.5t-14 -69.5t-38 -56.5t-56 -38t-68 -14q-38 0 -70.5 14t-56.5 38t-37.5 56.5t-13.5 69.5zM406 758q0 -96 29.5 -181.5t81.5 -150t124 -102t158 -37.5q87 0 159.5 37.5 t124.5 102t80.5 150t28.5 181.5q0 97 -29 183t-81.5 150.5t-124.5 102t-158 37.5t-158 -37.5t-124 -102t-81.5 -150.5t-29.5 -183zM861 1823q0 37 14 69.5t38 57t56.5 38.5t70.5 14q36 0 68 -14t56 -38.5t38 -57t14 -69.5t-14 -69.5t-38 -56.5t-56 -38t-68 -14 q-38 0 -70.5 14t-56.5 38t-38 56.5t-14 69.5z" />
<glyph unicode="&#xd7;" horiz-adv-x="1239" d="M61 1053l222 200l336 -366l337 366l222 -200l-356 -387l343 -373l-221 -199l-325 352l-324 -352l-221 199l343 373z" />
<glyph unicode="&#xd8;" horiz-adv-x="1591" d="M55 -34l201 263q-90 105 -140 240t-50 289q0 109 26 209.5t73 188t113.5 159t148 122.5t175.5 79t197 28q105 0 199.5 -29t177.5 -81l130 170h256l-230 -303q94 -106 148 -245t54 -298q0 -108 -26 -208.5t-73.5 -188t-114 -159t-148 -122.5t-176 -79t-197.5 -28 q-108 0 -205.5 30.5t-182.5 86.5l-94 -124h-262zM406 758q0 -70 15.5 -134.5t44.5 -119.5l516 675q-41 25 -86.5 38.5t-96.5 13.5q-86 0 -158 -37.5t-124 -102t-81.5 -150.5t-29.5 -183zM605 345q42 -28 91 -43t103 -15q87 0 159.5 37.5t124.5 102t80.5 150t28.5 181.5 q0 75 -18 143.5t-50 126.5z" />
<glyph unicode="&#xd9;" horiz-adv-x="1561" d="M51 1241v275h608v-275h-139v-629q0 -86 19.5 -146t54.5 -98t83 -55.5t105 -17.5q59 0 107.5 15t83 51.5t53 97.5t18.5 153v629h-161v275h608v-275h-121v-590q0 -160 -46 -284.5t-126.5 -210.5t-189 -131t-232.5 -45q-123 0 -230 44.5t-186.5 129t-125.5 205.5t-46 274 v608h-137zM519 1944v25h326l196 -311h-229z" />
<glyph unicode="&#xda;" horiz-adv-x="1561" d="M51 1241v275h608v-275h-139v-629q0 -86 19.5 -146t54.5 -98t83 -55.5t105 -17.5q59 0 107.5 15t83 51.5t53 97.5t18.5 153v629h-161v275h608v-275h-121v-590q0 -160 -46 -284.5t-126.5 -210.5t-189 -131t-232.5 -45q-123 0 -230 44.5t-186.5 129t-125.5 205.5t-46 274 v608h-137zM510 1658l215 311h326v-25l-306 -286h-235z" />
<glyph unicode="&#xdb;" horiz-adv-x="1561" d="M51 1241v275h608v-275h-139v-629q0 -86 19.5 -146t54.5 -98t83 -55.5t105 -17.5q59 0 107.5 15t83 51.5t53 97.5t18.5 153v629h-161v275h608v-275h-121v-590q0 -160 -46 -284.5t-126.5 -210.5t-189 -131t-232.5 -45q-123 0 -230 44.5t-186.5 129t-125.5 205.5t-46 274 v608h-137zM387 1656l272 325h240l274 -325h-245l-148 153l-145 -153h-248z" />
<glyph unicode="&#xdc;" horiz-adv-x="1561" d="M51 1241v275h608v-275h-139v-629q0 -86 19.5 -146t54.5 -98t83 -55.5t105 -17.5q59 0 107.5 15t83 51.5t53 97.5t18.5 153v629h-161v275h608v-275h-121v-590q0 -160 -46 -284.5t-126.5 -210.5t-189 -131t-232.5 -45q-123 0 -230 44.5t-186.5 129t-125.5 205.5t-46 274 v608h-137zM363 1823q0 37 13.5 69.5t37.5 57t56.5 38.5t70.5 14q36 0 68 -14t56 -38.5t38 -57t14 -69.5t-14 -69.5t-38 -56.5t-56 -38t-68 -14q-38 0 -70.5 14t-56.5 38t-37.5 56.5t-13.5 69.5zM842 1823q0 37 14 69.5t38 57t56.5 38.5t70.5 14q36 0 68 -14t56 -38.5t38 -57 t14 -69.5t-14 -69.5t-38 -56.5t-56 -38t-68 -14q-38 0 -70.5 14t-56.5 38t-38 56.5t-14 69.5z" />
<glyph unicode="&#xdd;" horiz-adv-x="1536" d="M47 1241v275h649v-275h-127l203 -348l215 348h-145v275h649v-275h-112l-451 -612v-355h184v-274h-676v274h168v359l-424 608h-133zM497 1658l215 311h326v-25l-306 -286h-235z" />
<glyph unicode="&#xde;" horiz-adv-x="1450" d="M112 0v274h159v967h-159v275h649v-275h-158v-47h210q117 0 215 -33.5t169 -92.5t111 -139t40 -173q0 -85 -31.5 -163t-97.5 -138t-167 -95.5t-239 -35.5h-210v-50h158v-274h-649zM603 594h136q114 0 181 38.5t67 121.5q0 78 -63 122t-185 44h-136v-326z" />
<glyph unicode="&#xdf;" horiz-adv-x="1354" d="M37 0v274h207v908q0 70 31 141t90 128t145 92.5t197 35.5q107 0 193.5 -32.5t147 -88.5t93.5 -130.5t33 -158.5q0 -50 -8.5 -91t-23.5 -74.5t-34.5 -59.5t-41.5 -46q105 -64 163.5 -168t58.5 -236q0 -128 -41 -223t-112.5 -158t-169 -94t-211.5 -31q-20 0 -37 1.5 t-37 4.5l14 276q16 -3 28 -3.5t28 -0.5q45 0 84 16.5t67.5 45.5t45 68.5t16.5 86.5q0 44 -16.5 82.5t-45 67t-67 45t-82.5 16.5h-68l-2 285h72q37 1 59 16.5t37.5 37.5t24 47.5t8.5 47.5q0 79 -46.5 128t-129.5 49q-36 0 -65.5 -12.5t-50.5 -36t-32.5 -56.5t-11.5 -74v-1124 h-37v-2h-473z" />
<glyph unicode="&#xe0;" horiz-adv-x="1280" d="M72 307q0 72 27.5 133t79.5 104.5t127.5 68t172.5 24.5q71 0 129.5 -7.5t108.5 -18.5v32q0 39 -15 67.5t-42 47t-65 27t-83 8.5q-94 0 -165.5 -18.5t-137.5 -53.5l-96 194q102 70 213.5 107t236.5 37q97 0 179.5 -21.5t141.5 -70t92.5 -126.5t33.5 -190v-377h139v-274 h-432v56q-35 -22 -64 -37.5t-58 -25t-60 -14t-68 -4.5q-93 0 -166.5 25.5t-124 70t-77.5 105t-27 131.5zM354 319q0 -46 33.5 -77t101.5 -31q71 0 129 23t99 56v132h-240q-23 0 -45 -7t-39.5 -20t-28 -32t-10.5 -44zM369 1464v25h326l196 -311h-229z" />
<glyph unicode="&#xe1;" horiz-adv-x="1280" d="M72 307q0 72 27.5 133t79.5 104.5t127.5 68t172.5 24.5q71 0 129.5 -7.5t108.5 -18.5v32q0 39 -15 67.5t-42 47t-65 27t-83 8.5q-94 0 -165.5 -18.5t-137.5 -53.5l-96 194q102 70 213.5 107t236.5 37q97 0 179.5 -21.5t141.5 -70t92.5 -126.5t33.5 -190v-377h139v-274 h-432v56q-35 -22 -64 -37.5t-58 -25t-60 -14t-68 -4.5q-93 0 -166.5 25.5t-124 70t-77.5 105t-27 131.5zM354 319q0 -46 33.5 -77t101.5 -31q71 0 129 23t99 56v132h-240q-23 0 -45 -7t-39.5 -20t-28 -32t-10.5 -44zM359 1178l215 311h326v-25l-306 -286h-235z" />
<glyph unicode="&#xe2;" horiz-adv-x="1280" d="M72 307q0 72 27.5 133t79.5 104.5t127.5 68t172.5 24.5q71 0 129.5 -7.5t108.5 -18.5v32q0 39 -15 67.5t-42 47t-65 27t-83 8.5q-94 0 -165.5 -18.5t-137.5 -53.5l-96 194q102 70 213.5 107t236.5 37q97 0 179.5 -21.5t141.5 -70t92.5 -126.5t33.5 -190v-377h139v-274 h-432v56q-35 -22 -64 -37.5t-58 -25t-60 -14t-68 -4.5q-93 0 -166.5 25.5t-124 70t-77.5 105t-27 131.5zM237 1176l272 325h240l274 -325h-245l-148 153l-145 -153h-248zM354 319q0 -46 33.5 -77t101.5 -31q71 0 129 23t99 56v132h-240q-23 0 -45 -7t-39.5 -20t-28 -32 t-10.5 -44z" />
<glyph unicode="&#xe3;" horiz-adv-x="1280" d="M72 307q0 72 27.5 133t79.5 104.5t127.5 68t172.5 24.5q71 0 129.5 -7.5t108.5 -18.5v32q0 39 -15 67.5t-42 47t-65 27t-83 8.5q-94 0 -165.5 -18.5t-137.5 -53.5l-96 194q102 70 213.5 107t236.5 37q97 0 179.5 -21.5t141.5 -70t92.5 -126.5t33.5 -190v-377h139v-274 h-432v56q-35 -22 -64 -37.5t-58 -25t-60 -14t-68 -4.5q-93 0 -166.5 25.5t-124 70t-77.5 105t-27 131.5zM191 1264q14 54 47.5 94t74.5 67t84.5 40.5t78.5 13.5q42 0 81 -14.5t76.5 -32t73 -32t70.5 -14.5q42 0 74.5 15t58.5 53l158 -70q-15 -45 -42.5 -84t-63.5 -68.5 t-79 -46t-90 -16.5q-52 0 -94 13.5t-79.5 30t-73.5 30.5t-76 14q-45 0 -76 -18.5t-51 -44.5zM354 319q0 -46 33.5 -77t101.5 -31q71 0 129 23t99 56v132h-240q-23 0 -45 -7t-39.5 -20t-28 -32t-10.5 -44z" />
<glyph unicode="&#xe4;" horiz-adv-x="1280" d="M72 307q0 72 27.5 133t79.5 104.5t127.5 68t172.5 24.5q71 0 129.5 -7.5t108.5 -18.5v32q0 39 -15 67.5t-42 47t-65 27t-83 8.5q-94 0 -165.5 -18.5t-137.5 -53.5l-96 194q102 70 213.5 107t236.5 37q97 0 179.5 -21.5t141.5 -70t92.5 -126.5t33.5 -190v-377h139v-274 h-432v56q-35 -22 -64 -37.5t-58 -25t-60 -14t-68 -4.5q-93 0 -166.5 25.5t-124 70t-77.5 105t-27 131.5zM213 1343q0 37 13.5 69.5t37.5 57t56.5 38.5t70.5 14q36 0 68 -14t56 -38.5t38 -57t14 -69.5t-14 -69.5t-38 -56.5t-56 -38t-68 -14q-38 0 -70.5 14t-56.5 38 t-37.5 56.5t-13.5 69.5zM354 319q0 -46 33.5 -77t101.5 -31q71 0 129 23t99 56v132h-240q-23 0 -45 -7t-39.5 -20t-28 -32t-10.5 -44zM692 1343q0 37 14 69.5t38 57t56.5 38.5t70.5 14q36 0 68 -14t56 -38.5t38 -57t14 -69.5t-14 -69.5t-38 -56.5t-56 -38t-68 -14 q-38 0 -70.5 14t-56.5 38t-38 56.5t-14 69.5z" />
<glyph unicode="&#xe5;" horiz-adv-x="1280" d="M72 307q0 72 27.5 133t79.5 104.5t127.5 68t172.5 24.5q71 0 129.5 -7.5t108.5 -18.5v32q0 39 -15 67.5t-42 47t-65 27t-83 8.5q-94 0 -165.5 -18.5t-137.5 -53.5l-96 194q102 70 213.5 107t236.5 37q97 0 179.5 -21.5t141.5 -70t92.5 -126.5t33.5 -190v-377h139v-274 h-432v56q-35 -22 -64 -37.5t-58 -25t-60 -14t-68 -4.5q-93 0 -166.5 25.5t-124 70t-77.5 105t-27 131.5zM259 1416q0 65 25 123t68 101t101 68t123 25t123 -25t101.5 -68t68.5 -101t25 -123t-25 -123t-68.5 -101.5t-101.5 -68.5t-123 -25t-123 25t-101 68.5t-68 101.5 t-25 123zM354 319q0 -46 33.5 -77t101.5 -31q71 0 129 23t99 56v132h-240q-23 0 -45 -7t-39.5 -20t-28 -32t-10.5 -44zM451 1416q0 -26 10 -49t27 -40t39.5 -26.5t48.5 -9.5t48.5 9.5t39 26.5t26 40t9.5 49t-9.5 48.5t-26 39t-39 26t-48.5 9.5t-48.5 -9.5t-39.5 -26t-27 -39 t-10 -48.5z" />
<glyph unicode="&#xe6;" horiz-adv-x="1851" d="M72 307q0 72 27.5 133t79.5 104.5t127.5 68t172.5 24.5q76 0 138 -8q50 -7 94 -16v30q0 79 -54 114.5t-145 35.5q-94 0 -165.5 -18.5t-137.5 -53.5l-96 194q102 70 213.5 107t236.5 37q97 0 178 -21.5t153 -83.5q60 51 137 84q100 43 222 43t216.5 -40.5t159.5 -112 t100 -168t38 -164.5t3.5 -92.5t-1.5 -50.5h-763l3 -31q11 -45 37.5 -79t62.5 -57t80 -34.5t89 -11.5t85.5 5.5t78.5 15t74 22t73 26.5l110 -205q-57 -35 -104.5 -59.5t-95.5 -40.5t-102 -23.5t-126 -7.5q-135 0 -240 44.5t-176 119.5q-28 -28 -64 -56.5t-84.5 -52.5 t-108 -38.5t-131.5 -14.5q-93 0 -166.5 25.5t-124 70t-77.5 105t-27 131.5zM354 319q0 -46 33.5 -77t101.5 -31q93 0 159 30q55 26 101 64q-2 5 -4 11q-19 51 -28 106h-240q-23 0 -45 -7t-39.5 -20t-28 -32t-10.5 -44zM1015 664h433q-7 34 -20 64t-36 53t-58.5 36.5 t-88.5 13.5q-56 0 -95.5 -13.5t-66.5 -37t-43 -53.5t-25 -63z" />
<glyph unicode="&#xe7;" horiz-adv-x="1180" d="M72 530q0 115 41.5 213.5t114.5 172t173.5 114.5t218.5 37q84 4 163 -19t150 -69h199v-301h-276q-43 54 -96 81.5t-125 23.5q-58 4 -105.5 -16t-82 -56t-53.5 -85.5t-19 -111.5q0 -55 20 -104t54.5 -84.5t82 -55.5t103.5 -24q47 4 85.5 19.5t68.5 40t51.5 55t33.5 57.5 l275 -76q-17 -60 -58.5 -125t-108 -118.5t-158 -88.5t-208.5 -35q-119 0 -219 43.5t-172 118.5t-112.5 176t-40.5 217zM355 -293q41 3 77.5 19.5t66 46.5t51 73.5t31.5 100.5l243 -86q-23 -79 -65 -138t-100 -98t-128.5 -59t-150.5 -21z" />
<glyph unicode="&#xe8;" horiz-adv-x="1186" d="M51 532q0 114 39.5 214t111.5 174.5t172 117.5t222 43t216.5 -40.5t159.5 -112t100 -168t38 -207.5q3 -25 3.5 -49.5t-1.5 -50.5h-763l3 -31q11 -45 37.5 -79t62.5 -57t80 -34.5t89 -11.5t85.5 5.5t78.5 15t74 22t73 26.5l110 -205q-57 -35 -104.5 -59.5t-95.5 -40.5 t-102 -23.5t-126 -7.5q-135 0 -240 44.5t-176.5 120.5t-109 178t-37.5 216zM332 1464v25h326l196 -311h-229zM358 664h433q-7 34 -20 64t-36 53t-58.5 36.5t-88.5 13.5q-56 0 -95.5 -13.5t-66.5 -37t-43 -53.5t-25 -63z" />
<glyph unicode="&#xe9;" horiz-adv-x="1186" d="M51 532q0 114 39.5 214t111.5 174.5t172 117.5t222 43t216.5 -40.5t159.5 -112t100 -168t38 -207.5q3 -25 3.5 -49.5t-1.5 -50.5h-763l3 -31q11 -45 37.5 -79t62.5 -57t80 -34.5t89 -11.5t85.5 5.5t78.5 15t74 22t73 26.5l110 -205q-57 -35 -104.5 -59.5t-95.5 -40.5 t-102 -23.5t-126 -7.5q-135 0 -240 44.5t-176.5 120.5t-109 178t-37.5 216zM322 1178l215 311h326v-25l-306 -286h-235zM358 664h433q-7 34 -20 64t-36 53t-58.5 36.5t-88.5 13.5q-56 0 -95.5 -13.5t-66.5 -37t-43 -53.5t-25 -63z" />
<glyph unicode="&#xea;" horiz-adv-x="1186" d="M51 532q0 114 39.5 214t111.5 174.5t172 117.5t222 43t216.5 -40.5t159.5 -112t100 -168t38 -207.5q3 -25 3.5 -49.5t-1.5 -50.5h-763l3 -31q11 -45 37.5 -79t62.5 -57t80 -34.5t89 -11.5t85.5 5.5t78.5 15t74 22t73 26.5l110 -205q-57 -35 -104.5 -59.5t-95.5 -40.5 t-102 -23.5t-126 -7.5q-135 0 -240 44.5t-176.5 120.5t-109 178t-37.5 216zM200 1176l272 325h240l274 -325h-245l-148 153l-145 -153h-248zM358 664h433q-7 34 -20 64t-36 53t-58.5 36.5t-88.5 13.5q-56 0 -95.5 -13.5t-66.5 -37t-43 -53.5t-25 -63z" />
<glyph unicode="&#xeb;" horiz-adv-x="1186" d="M51 532q0 114 39.5 214t111.5 174.5t172 117.5t222 43t216.5 -40.5t159.5 -112t100 -168t38 -207.5q3 -25 3.5 -49.5t-1.5 -50.5h-763l3 -31q11 -45 37.5 -79t62.5 -57t80 -34.5t89 -11.5t85.5 5.5t78.5 15t74 22t73 26.5l110 -205q-57 -35 -104.5 -59.5t-95.5 -40.5 t-102 -23.5t-126 -7.5q-135 0 -240 44.5t-176.5 120.5t-109 178t-37.5 216zM176 1343q0 37 13.5 69.5t37.5 57t56.5 38.5t70.5 14q36 0 68 -14t56 -38.5t38 -57t14 -69.5t-14 -69.5t-38 -56.5t-56 -38t-68 -14q-38 0 -70.5 14t-56.5 38t-37.5 56.5t-13.5 69.5zM358 664h433 q-7 34 -20 64t-36 53t-58.5 36.5t-88.5 13.5q-56 0 -95.5 -13.5t-66.5 -37t-43 -53.5t-25 -63zM655 1343q0 37 14 69.5t38 57t56.5 38.5t70.5 14q36 0 68 -14t56 -38.5t38 -57t14 -69.5t-14 -69.5t-38 -56.5t-56 -38t-68 -14q-38 0 -70.5 14t-56.5 38t-38 56.5t-14 69.5z " />
<glyph unicode="&#xec;" horiz-adv-x="790" d="M55 1464v25h326l196 -311h-229zM80 762v275l467 -1v-762h142v-274h-608v274h156v488h-157z" />
<glyph unicode="&#xed;" horiz-adv-x="790" d="M80 762v275l467 -1v-762h142v-274h-608v274h156v488h-157zM124 1178l215 311h326v-25l-306 -286h-235z" />
<glyph unicode="&#xee;" horiz-adv-x="790" d="M3 1176l272 325h240l274 -325h-245l-148 153l-145 -153h-248zM80 762v275l467 -1v-762h142v-274h-608v274h156v488h-157z" />
<glyph unicode="&#xef;" horiz-adv-x="790" d="M-21 1343q0 37 13.5 69.5t37.5 57t56.5 38.5t70.5 14q36 0 68 -14t56 -38.5t38 -57t14 -69.5t-14 -69.5t-38 -56.5t-56 -38t-68 -14q-38 0 -70.5 14t-56.5 38t-37.5 56.5t-13.5 69.5zM80 762v275l467 -1v-762h142v-274h-608v274h156v488h-157zM458 1343q0 37 14 69.5 t38 57t56.5 38.5t70.5 14q36 0 68 -14t56 -38.5t38 -57t14 -69.5t-14 -69.5t-38 -56.5t-56 -38t-68 -14q-38 0 -70.5 14t-56.5 38t-38 56.5t-14 69.5z" />
<glyph unicode="&#xf0;" horiz-adv-x="1250" d="M106 512q0 89 31.5 168t86.5 141.5t129 105t159 58.5q23 5 48 7.5t52 1.5l-65 114l-219 -53l-64 268l142 34l-101 177h350l57 -104l209 50l64 -267l-135 -33l180 -324q24 -43 46 -85t39.5 -85t27.5 -88.5t10 -95.5q0 -105 -41.5 -196t-113 -158t-166.5 -105.5t-201 -38.5 q-108 0 -204 38.5t-167 106.5t-112.5 161t-41.5 202zM403 504q0 -49 20 -87.5t52.5 -65t73 -40.5t82.5 -14q58 0 100.5 19.5t70 50.5t41 67.5t13.5 71.5q0 50 -17 88.5t-46 64.5t-69.5 39t-86.5 13q-48 0 -91 -15t-74.5 -42t-50 -65t-18.5 -85z" />
<glyph unicode="&#xf1;" horiz-adv-x="1460" d="M80 0v274h152v488h-150v274h472v-91q65 51 145.5 80.5t169.5 29.5q187 0 288 -104.5t101 -305.5v-371h147v-274h-473v596q0 87 -46 136.5t-122 49.5q-52 0 -105 -23t-103 -86v-399h168v-274h-644zM291 1264q14 54 47.5 94t74.5 67t84.5 40.5t78.5 13.5q42 0 81 -14.5 t76.5 -32t73 -32t70.5 -14.5q42 0 74.5 15t58.5 53l158 -70q-15 -45 -42.5 -84t-63.5 -68.5t-79 -46t-90 -16.5q-52 0 -94 13.5t-79.5 30t-73.5 30.5t-76 14q-45 0 -76 -18.5t-51 -44.5z" />
<glyph unicode="&#xf2;" d="M72 522q0 113 41 212t114 173t174 117t222 43t222.5 -43t174.5 -117t113.5 -173t40.5 -212t-39.5 -212.5t-112 -174t-174 -117.5t-225.5 -43q-125 0 -226.5 43t-173.5 117t-111.5 173.5t-39.5 213.5zM361 1464v25h326l196 -311h-229zM371 522q0 -59 20 -108.5t54.5 -85.5 t80 -56t97.5 -20q53 0 98.5 19.5t79 55.5t52.5 85.5t19 109.5q0 62 -19 112t-52.5 85t-79 53.5t-98.5 17.5q-52 1 -97.5 -17.5t-80 -53.5t-54.5 -85t-20 -112z" />
<glyph unicode="&#xf3;" d="M72 522q0 113 41 212t114 173t174 117t222 43t222.5 -43t174.5 -117t113.5 -173t40.5 -212t-39.5 -212.5t-112 -174t-174 -117.5t-225.5 -43q-125 0 -226.5 43t-173.5 117t-111.5 173.5t-39.5 213.5zM352 1178l215 311h326v-25l-306 -286h-235zM371 522q0 -59 20 -108.5 t54.5 -85.5t80 -56t97.5 -20q53 0 98.5 19.5t79 55.5t52.5 85.5t19 109.5q0 62 -19 112t-52.5 85t-79 53.5t-98.5 17.5q-52 1 -97.5 -17.5t-80 -53.5t-54.5 -85t-20 -112z" />
<glyph unicode="&#xf4;" d="M72 522q0 113 41 212t114 173t174 117t222 43t222.5 -43t174.5 -117t113.5 -173t40.5 -212t-39.5 -212.5t-112 -174t-174 -117.5t-225.5 -43q-125 0 -226.5 43t-173.5 117t-111.5 173.5t-39.5 213.5zM229 1176l272 325h240l274 -325h-245l-148 153l-145 -153h-248z M371 522q0 -59 20 -108.5t54.5 -85.5t80 -56t97.5 -20q53 0 98.5 19.5t79 55.5t52.5 85.5t19 109.5q0 62 -19 112t-52.5 85t-79 53.5t-98.5 17.5q-52 1 -97.5 -17.5t-80 -53.5t-54.5 -85t-20 -112z" />
<glyph unicode="&#xf5;" d="M72 522q0 113 41 212t114 173t174 117t222 43t222.5 -43t174.5 -117t113.5 -173t40.5 -212t-39.5 -212.5t-112 -174t-174 -117.5t-225.5 -43q-125 0 -226.5 43t-173.5 117t-111.5 173.5t-39.5 213.5zM184 1264q14 54 47.5 94t74.5 67t84.5 40.5t78.5 13.5q42 0 81 -14.5 t76.5 -32t73 -32t70.5 -14.5q42 0 74.5 15t58.5 53l158 -70q-15 -45 -42.5 -84t-63.5 -68.5t-79 -46t-90 -16.5q-52 0 -94 13.5t-79.5 30t-73.5 30.5t-76 14q-45 0 -76 -18.5t-51 -44.5zM371 522q0 -59 20 -108.5t54.5 -85.5t80 -56t97.5 -20q53 0 98.5 19.5t79 55.5 t52.5 85.5t19 109.5q0 62 -19 112t-52.5 85t-79 53.5t-98.5 17.5q-52 1 -97.5 -17.5t-80 -53.5t-54.5 -85t-20 -112z" />
<glyph unicode="&#xf6;" d="M72 522q0 113 41 212t114 173t174 117t222 43t222.5 -43t174.5 -117t113.5 -173t40.5 -212t-39.5 -212.5t-112 -174t-174 -117.5t-225.5 -43q-125 0 -226.5 43t-173.5 117t-111.5 173.5t-39.5 213.5zM205 1343q0 37 13.5 69.5t37.5 57t56.5 38.5t70.5 14q36 0 68 -14 t56 -38.5t38 -57t14 -69.5t-14 -69.5t-38 -56.5t-56 -38t-68 -14q-38 0 -70.5 14t-56.5 38t-37.5 56.5t-13.5 69.5zM371 522q0 -59 20 -108.5t54.5 -85.5t80 -56t97.5 -20q53 0 98.5 19.5t79 55.5t52.5 85.5t19 109.5q0 62 -19 112t-52.5 85t-79 53.5t-98.5 17.5 q-52 1 -97.5 -17.5t-80 -53.5t-54.5 -85t-20 -112zM684 1343q0 37 14 69.5t38 57t56.5 38.5t70.5 14q36 0 68 -14t56 -38.5t38 -57t14 -69.5t-14 -69.5t-38 -56.5t-56 -38t-68 -14q-38 0 -70.5 14t-56.5 38t-38 56.5t-14 69.5z" />
<glyph unicode="&#xf7;" horiz-adv-x="1270" d="M52 394v274h1125v-274h-1125zM398 145q0 37 13.5 69.5t37.5 57t56.5 38.5t70.5 14q36 0 68 -14t56 -38.5t38 -57t14 -69.5t-14 -69.5t-38 -56.5t-56 -38t-68 -14q-38 0 -70.5 14t-56.5 38t-37.5 56.5t-13.5 69.5zM398 907q0 37 13.5 69.5t37.5 56.5t56.5 38t70.5 14 q36 0 68 -14t56 -38t38 -56.5t14 -69.5t-14 -69.5t-38 -56.5t-56 -38t-68 -14q-38 0 -70.5 14t-56.5 38t-37.5 56.5t-13.5 69.5z" />
<glyph unicode="&#xf8;" horiz-adv-x="1196" d="M30 -61l164 216q-63 73 -97.5 166.5t-34.5 200.5q0 113 41 212t114 173t174 117t222 43q66 0 125.5 -13t113.5 -37l114 150h256l-204 -269q69 -74 107.5 -170t38.5 -206q0 -113 -39.5 -212.5t-112 -174t-174 -117.5t-225.5 -43q-71 0 -134 14t-119 40l-68 -90h-262z M361 522q0 -66 24 -118l289 380q-26 7 -61 7q-52 0 -97.5 -18.5t-80 -53.5t-54.5 -85t-20 -112zM538 263q36 -11 75 -11q53 0 98.5 19.5t79 55.5t52.5 85.5t19 109.5q0 74 -28 133z" />
<glyph unicode="&#xf9;" horiz-adv-x="1410" d="M60 762v274h458v-610q0 -104 53 -155.5t138 -51.5q60 0 109 37t71 100v406h-166v274h490v-762h125v-274h-439v88q-53 -48 -124 -74t-164 -26q-86 0 -162 27t-132.5 81.5t-89 136.5t-32.5 193v336h-135zM444 1464v25h326l196 -311h-229z" />
<glyph unicode="&#xfa;" horiz-adv-x="1410" d="M60 762v274h458v-610q0 -104 53 -155.5t138 -51.5q60 0 109 37t71 100v406h-166v274h490v-762h125v-274h-439v88q-53 -48 -124 -74t-164 -26q-86 0 -162 27t-132.5 81.5t-89 136.5t-32.5 193v336h-135zM434 1178l215 311h326v-25l-306 -286h-235z" />
<glyph unicode="&#xfb;" horiz-adv-x="1410" d="M60 762v274h458v-610q0 -104 53 -155.5t138 -51.5q60 0 109 37t71 100v406h-166v274h490v-762h125v-274h-439v88q-53 -48 -124 -74t-164 -26q-86 0 -162 27t-132.5 81.5t-89 136.5t-32.5 193v336h-135zM312 1176l272 325h240l274 -325h-245l-148 153l-145 -153h-248z" />
<glyph unicode="&#xfc;" horiz-adv-x="1410" d="M60 762v274h458v-610q0 -104 53 -155.5t138 -51.5q60 0 109 37t71 100v406h-166v274h490v-762h125v-274h-439v88q-53 -48 -124 -74t-164 -26q-86 0 -162 27t-132.5 81.5t-89 136.5t-32.5 193v336h-135zM288 1343q0 37 13.5 69.5t37.5 57t56.5 38.5t70.5 14q36 0 68 -14 t56 -38.5t38 -57t14 -69.5t-14 -69.5t-38 -56.5t-56 -38t-68 -14q-38 0 -70.5 14t-56.5 38t-37.5 56.5t-13.5 69.5zM767 1343q0 37 14 69.5t38 57t56.5 38.5t70.5 14q36 0 68 -14t56 -38.5t38 -57t14 -69.5t-14 -69.5t-38 -56.5t-56 -38t-68 -14q-38 0 -70.5 14t-56.5 38 t-38 56.5t-14 69.5z" />
<glyph unicode="&#xfd;" horiz-adv-x="1241" d="M51 762v274h508v-274h-80l149 -388l153 388h-89v274h508v-274h-113l-401 -959h178v-274h-643v274h181l78 197l-324 762h-105zM350 1178l215 311h326v-25l-306 -286h-235z" />
<glyph unicode="&#xfe;" horiz-adv-x="1198" d="M28 -197h144v1478h-144v275h451v-538q54 27 109 43t108 16q119 0 219 -43.5t172.5 -118t113 -174t40.5 -211.5q0 -113 -39.5 -212.5t-110.5 -173.5t-169 -117t-215 -43q-124 0 -228 46v-227h225v-274h-676v274zM479 371q32 -48 85.5 -77.5t119.5 -29.5q51 0 97 19.5 t80.5 54.5t54.5 83.5t20 106.5q0 59 -20 107t-54 81.5t-79.5 51.5t-96.5 18q-63 0 -116.5 -28.5t-90.5 -79.5v-307z" />
<glyph unicode="&#xff;" horiz-adv-x="1241" d="M51 762v274h508v-274h-80l149 -388l153 388h-89v274h508v-274h-113l-401 -959h178v-274h-643v274h181l78 197l-324 762h-105zM203 1343q0 37 13.5 69.5t37.5 57t56.5 38.5t70.5 14q36 0 68 -14t56 -38.5t38 -57t14 -69.5t-14 -69.5t-38 -56.5t-56 -38t-68 -14 q-38 0 -70.5 14t-56.5 38t-37.5 56.5t-13.5 69.5zM682 1343q0 37 14 69.5t38 57t56.5 38.5t70.5 14q36 0 68 -14t56 -38.5t38 -57t14 -69.5t-14 -69.5t-38 -56.5t-56 -38t-68 -14q-38 0 -70.5 14t-56.5 38t-38 56.5t-14 69.5z" />
<glyph unicode="&#x178;" horiz-adv-x="1536" d="M47 1241v275h649v-275h-127l203 -348l215 348h-145v275h649v-275h-112l-451 -612v-355h184v-274h-676v274h168v359l-424 608h-133zM351 1823q0 37 13.5 69.5t37.5 57t56.5 38.5t70.5 14q36 0 68 -14t56 -38.5t38 -57t14 -69.5t-14 -69.5t-38 -56.5t-56 -38t-68 -14 q-38 0 -70.5 14t-56.5 38t-37.5 56.5t-13.5 69.5zM830 1823q0 37 14 69.5t38 57t56.5 38.5t70.5 14q36 0 68 -14t56 -38.5t38 -57t14 -69.5t-14 -69.5t-38 -56.5t-56 -38t-68 -14q-38 0 -70.5 14t-56.5 38t-38 56.5t-14 69.5z" />
<glyph unicode="&#x2c6;" horiz-adv-x="827" d="M86 1176l272 325h240l274 -325h-245l-148 153l-145 -153h-248z" />
<glyph unicode="&#x2dc;" horiz-adv-x="903" d="M10 1264q14 54 47.5 94t74.5 67t84.5 40.5t78.5 13.5q42 0 81 -14.5t76.5 -32t73 -32t70.5 -14.5q42 0 74.5 15t58.5 53l158 -70q-15 -45 -42.5 -84t-63.5 -68.5t-79 -46t-90 -16.5q-52 0 -94 13.5t-79.5 30t-73.5 30.5t-76 14q-45 0 -76 -18.5t-51 -44.5z" />
<glyph unicode="&#x2000;" horiz-adv-x="1013" />
<glyph unicode="&#x2001;" horiz-adv-x="2026" />
<glyph unicode="&#x2002;" horiz-adv-x="1013" />
<glyph unicode="&#x2003;" horiz-adv-x="2026" />
<glyph unicode="&#x2004;" horiz-adv-x="675" />
<glyph unicode="&#x2005;" horiz-adv-x="506" />
<glyph unicode="&#x2006;" horiz-adv-x="337" />
<glyph unicode="&#x2007;" horiz-adv-x="337" />
<glyph unicode="&#x2008;" horiz-adv-x="253" />
<glyph unicode="&#x2009;" horiz-adv-x="405" />
<glyph unicode="&#x200a;" horiz-adv-x="112" />
<glyph unicode="&#x2010;" horiz-adv-x="770" d="M61 449v274h627v-274h-627z" />
<glyph unicode="&#x2011;" horiz-adv-x="770" d="M61 449v274h627v-274h-627z" />
<glyph unicode="&#x2012;" horiz-adv-x="770" d="M61 449v274h627v-274h-627z" />
<glyph unicode="&#x2013;" horiz-adv-x="1229" d="M102 459v274h1024v-274h-1024z" />
<glyph unicode="&#x2014;" horiz-adv-x="1843" d="M0 459v274h1843v-274h-1843z" />
<glyph unicode="&#x2018;" horiz-adv-x="530" d="M20 1110l285 541l205 -78l-184 -569z" />
<glyph unicode="&#x2019;" horiz-adv-x="532" d="M20 1065l185 569l305 -106l-285 -541z" />
<glyph unicode="&#x201c;" horiz-adv-x="938" d="M-31 1106l305 557l222 -92l-242 -572zM459 1096l278 561l221 -84l-215 -584z" />
<glyph unicode="&#x201d;" horiz-adv-x="981" d="M-6 1079l215 584l285 -107l-279 -561zM457 1081l241 572l285 -107l-305 -557z" />
<glyph unicode="&#x201e;" horiz-adv-x="981" d="M-6 -308l215 584l285 -107l-279 -561zM457 -306l241 572l285 -107l-305 -557z" />
<glyph unicode="&#x2022;" horiz-adv-x="1024" d="M180 778q0 69 26.5 129t71.5 104.5t105.5 70.5t128.5 26t128 -26t105 -70.5t71 -104.5t26 -129q0 -68 -26 -128.5t-71 -105.5t-105 -71.5t-128 -26.5t-128.5 26.5t-105.5 71.5t-71.5 105.5t-26.5 128.5z" />
<glyph unicode="&#x2026;" horiz-adv-x="1315" d="M31 143q0 37 14.5 69t40 55t59.5 36.5t72 13.5q37 0 72 -13.5t61 -36.5t42 -55t16 -69q0 -35 -16 -66.5t-42 -55.5t-61 -38t-72 -14q-38 0 -72 14t-59.5 38t-40 55.5t-14.5 66.5zM469 143q0 37 14.5 69t40 55t59.5 36.5t72 13.5t72.5 -13.5t61 -36.5t42 -55t15.5 -69 q0 -35 -15.5 -66.5t-42 -55.5t-61 -38t-72.5 -14t-72 14t-59.5 38t-40 55.5t-14.5 66.5zM907 143q0 37 14.5 69t40 55t59.5 36.5t73 13.5q37 0 71.5 -13.5t61 -36.5t42 -55t15.5 -69q0 -35 -15.5 -66.5t-42 -55.5t-61 -38t-71.5 -14q-39 0 -73 14t-59.5 38t-40 55.5 t-14.5 66.5z" />
<glyph unicode="&#x202f;" horiz-adv-x="405" />
<glyph unicode="&#x2039;" horiz-adv-x="598" d="M82 593v74l260 369h223l-211 -406l213 -407h-229z" />
<glyph unicode="&#x203a;" horiz-adv-x="594" d="M31 223l213 407l-211 406h223l260 -369v-74l-256 -370h-229z" />
<glyph unicode="&#x205f;" horiz-adv-x="506" />
<glyph unicode="&#x25fc;" horiz-adv-x="1035" d="M0 0v1035h1035v-1035h-1035z" />
</font>
</defs>
</svg>
