<?xml version="1.0" standalone="no"?>
<!DOCTYPE svg PUBLIC "-//W3C//DTD SVG 1.1//EN" "http://www.w3.org/Graphics/SVG/1.1/DTD/svg11.dtd" >
<svg xmlns="http://www.w3.org/2000/svg">
<metadata></metadata>
<defs>
<font id="archivo_blackregular" horiz-adv-x="1366" >
<font-face units-per-em="2048" ascent="1638" descent="-410" />
<missing-glyph horiz-adv-x="681" />
<glyph horiz-adv-x="2048" />
<glyph horiz-adv-x="2048" />
<glyph horiz-adv-x="682" />
<glyph unicode="&#xd;" horiz-adv-x="681" />
<glyph unicode=" "  horiz-adv-x="681" />
<glyph unicode="&#x09;" horiz-adv-x="681" />
<glyph unicode="&#xa0;" horiz-adv-x="681" />
<glyph unicode="!" horiz-adv-x="681" d="M96 1409h490l-117 -905h-260zM137 0v379h406v-379h-406z" />
<glyph unicode="&#x22;" horiz-adv-x="1024" d="M121 1108v301h334v-301l-97 -293h-141zM569 1108v301h334v-301l-98 -293h-139z" />
<glyph unicode="#" horiz-adv-x="1351" d="M41 326v223h258l57 252h-221v227h266l91 406h249l-92 -406h228l90 406h245l-94 -406h191v-227h-232l-53 -252h217v-223h-274l-76 -349h-240l76 349h-235l-74 -349h-246l74 349h-205zM543 547h233l60 252h-238z" />
<glyph unicode="$" d="M141 518h379v-8q1 -37 20 -63t48.5 -38.5t56.5 -18t53 -5.5q170 0 170 80q0 32 -38.5 52.5t-100 31.5t-136 22.5t-149 33t-136 55t-100 96t-38.5 149.5q0 89 32.5 156.5t92.5 109t134 64.5t167 31l-14 282h231l-16 -280q89 -7 164.5 -30t137 -63t97 -104.5t35.5 -146.5 h-379q-1 40 -27 64.5t-55.5 32t-62.5 7.5q-148 0 -148 -70q0 -31 38.5 -49.5t100 -28t136 -19.5t149 -31t136 -54.5t100 -97.5t38.5 -154q0 -96 -35.5 -168t-100 -115.5t-144.5 -67t-180 -30.5l16 -280h-231l14 282q-92 10 -171 36t-144 70t-102.5 112.5t-37.5 154.5z" />
<glyph unicode="%" horiz-adv-x="2048" d="M94 1065q0 173 92.5 271t284.5 98t283.5 -97.5t91.5 -271.5q0 -171 -91.5 -268t-283.5 -97t-284.5 97t-92.5 268zM348 1034q0 -81 30 -129.5t93 -48.5q121 0 121 178v66q0 178 -121 178q-63 0 -93 -48.5t-30 -129.5v-66zM473 0l858 1407h223l-854 -1407h-227zM1184 340 q0 173 92.5 271t284.5 98t283 -97.5t91 -271.5q0 -171 -91 -268t-283 -97t-284.5 97t-92.5 268zM1438 309q0 -81 30 -129.5t93 -48.5q120 0 120 178v66q0 178 -120 178q-63 0 -93 -48.5t-30 -129.5v-66z" />
<glyph unicode="&#x26;" horiz-adv-x="1820" d="M154 393q0 124 64.5 212.5t180.5 125.5v8q-88 33 -146 113t-58 178q0 172 172.5 288t486.5 116q313 0 496.5 -110.5t183.5 -274.5v-52h-363q0 64 -74 106t-216 42q-131 0 -200 -50.5t-69 -121.5q0 -64 42 -96.5t104 -32.5h213v-252h-258q-63 0 -103.5 -38t-40.5 -110 q0 -83 71 -131.5t224 -48.5q307 0 307 182v398h648v-252h-281v-137q0 -229 -162.5 -354.5t-509.5 -125.5q-357 0 -534.5 114.5t-177.5 303.5z" />
<glyph unicode="'" horiz-adv-x="569" d="M117 1108v301h334v-301l-99 -293h-139z" />
<glyph unicode="(" horiz-adv-x="796" d="M113 590q0 252 95.5 491t272.5 428h246q-121 -188 -196.5 -444.5t-75.5 -474.5q0 -219 75.5 -474.5t196.5 -443.5h-246q-177 189 -272.5 428t-95.5 490z" />
<glyph unicode=")" horiz-adv-x="796" d="M70 -328q121 188 196.5 443.5t75.5 474.5q0 218 -75.5 474.5t-196.5 444.5h245q177 -189 273 -428t96 -491q0 -251 -96 -490t-273 -428h-245z" />
<glyph unicode="*" horiz-adv-x="1138" d="M195 930l229 104l-229 107l96 164l207 -146l-25 250h191l-25 -248l207 144l96 -164l-229 -107l229 -104l-96 -166l-207 145l25 -250h-191l25 250l-207 -145z" />
<glyph unicode="+" horiz-adv-x="1351" d="M135 406v270h406v405h270v-405h406v-270h-406v-406h-270v406h-406z" />
<glyph unicode="," horiz-adv-x="681" d="M123 -375l168 375h-166v408h434v-385l-215 -398h-221z" />
<glyph unicode="-" horiz-adv-x="681" d="M80 401v324h522v-324h-522z" />
<glyph unicode="." horiz-adv-x="681" d="M125 0v408h434v-408h-434z" />
<glyph unicode="/" horiz-adv-x="569" d="M-4 -98l328 1605h247l-325 -1605h-250z" />
<glyph unicode="0" d="M84 705q0 136 17.5 243.5t59.5 200.5t109.5 154.5t172 96t241.5 34.5t241 -34.5t171.5 -96t109.5 -154.5t59 -200.5t17 -243.5t-17 -243.5t-59 -201t-109.5 -155t-171.5 -96t-241 -34.5q-115 0 -206.5 23.5t-157 69.5t-111.5 108t-73.5 146t-39.5 177t-12 206zM487 604 q0 -187 45.5 -269.5t151.5 -82.5t149.5 81.5t43.5 270.5v203q0 188 -43.5 269t-149.5 81q-107 0 -152 -81.5t-45 -268.5v-203z" />
<glyph unicode="1" d="M215 0v315h334v637h-334v238q136 9 306 73.5t298 147.5h137v-1096h322v-315h-1063z" />
<glyph unicode="2" d="M100 0v98q0 108 50.5 194t146.5 171q82 73 178 150.5t155 123.5t113 94t78.5 87t24.5 77q0 64 -44 107t-132 43q-93 0 -146 -54t-53 -139v-41h-365q-2 16 -2 45q0 222 154.5 350t450.5 128q249 0 395.5 -115.5t146.5 -308.5q0 -56 -14.5 -108t-37.5 -94.5t-62 -87 t-76 -78t-93 -75.5t-99.5 -71.5t-109 -74t-108.5 -75.5h617v-346h-1168z" />
<glyph unicode="3" d="M86 381v43h360q0 -168 213 -168t213 188q0 72 -40 110t-103 38h-149v252h116q63 0 103.5 37.5t40.5 109.5q0 67 -48.5 114.5t-132.5 47.5q-88 0 -137 -44.5t-49 -111.5h-342v52q0 165 151 275t412 110q252 0 398.5 -110t146.5 -273q0 -105 -57 -191.5t-148 -120.5v-8 q117 -37 181.5 -128t64.5 -220q-3 -69 -26.5 -129t-70.5 -111.5t-115 -88.5t-165.5 -58t-216.5 -21q-150 0 -267 32t-188.5 88t-108 128.5t-36.5 157.5z" />
<glyph unicode="4" d="M47 289v305q110 162 219 388t174 452h402q-22 -157 -187.5 -418.5t-326.5 -425.5h405v293q62 89 128.5 212t86.5 203h174v-708h197v-301h-197v-289h-389v289h-686z" />
<glyph unicode="5" d="M80 455h360q0 -84 57.5 -140.5t161.5 -56.5t161 58t57 151q0 94 -57 152.5t-158 58.5q-33 0 -61 -6t-45.5 -14t-34.5 -21.5t-24.5 -22t-18.5 -23t-13 -16.5l-324 46l60 788h975v-348h-670l-17 -213q5 4 13.5 10t38 22t62 28t84 22t104.5 10q225 0 357 -128t132 -351 q0 -206 -159.5 -346t-418.5 -140q-301 0 -461.5 129.5t-160.5 350.5z" />
<glyph unicode="6" d="M84 670q0 404 148.5 584t461.5 180q257 0 410 -124t153 -352h-364v15q0 80 -49.5 132t-143.5 52q-97 0 -150.5 -67t-53.5 -179v-118q59 53 141 79.5t156 26.5q142 0 253.5 -48.5t178.5 -148t67 -235.5q0 -234 -160.5 -363t-437.5 -129q-309 0 -459.5 169.5t-150.5 525.5z M496 453q0 -97 51 -149t147 -52q97 0 150 50.5t53 146.5q0 97 -52.5 150.5t-148.5 53.5q-97 0 -148.5 -51.5t-51.5 -148.5z" />
<glyph unicode="7" d="M92 1057v352h1188v-186q-110 -136 -190.5 -253t-156 -259t-115.5 -291t-40 -299v-121h-454q0 278 119.5 548t324.5 509h-676z" />
<glyph unicode="8" d="M84 387q0 118 55.5 190.5t167.5 135.5v8q-57 41 -90 74t-57.5 90.5t-24.5 132.5q0 98 42.5 177.5t116.5 131.5t173 79.5t213 27.5t213.5 -27.5t174.5 -79.5t118 -131.5t43 -177.5q0 -75 -24.5 -132.5t-57.5 -90.5t-90 -74v-8q74 -42 119.5 -81.5t75.5 -101.5t30 -143 q0 -198 -161.5 -305t-440.5 -107q-278 0 -437 107t-159 305zM492 420q0 -81 51 -124.5t137 -43.5t140 43.5t54 124.5q0 79 -56.5 123.5t-137.5 44.5t-134.5 -44t-53.5 -124zM492 1001q0 -78 52.5 -115.5t135.5 -37.5q84 0 139 37.5t55 115.5q0 79 -53 117.5t-141 38.5 t-138 -38t-50 -118z" />
<glyph unicode="9" d="M74 942q0 234 160.5 363t437.5 129q309 0 459.5 -169.5t150.5 -525.5q0 -404 -148.5 -584t-461.5 -180q-257 0 -410 124t-153 352h364v-15q0 -80 49.5 -132t143.5 -52q97 0 150.5 67t53.5 179v118q-59 -53 -141 -79.5t-156 -26.5q-142 0 -253.5 48.5t-178.5 148 t-67 235.5zM469 956q0 -97 51 -148.5t148 -51.5t149.5 50t52.5 146q0 97 -52 151t-148 54q-97 0 -149 -52t-52 -149z" />
<glyph unicode=":" horiz-adv-x="681" d="M125 0v408h434v-408h-434zM125 672v409h434v-409h-434z" />
<glyph unicode=";" horiz-adv-x="681" d="M123 -375l168 375h-166v408h434v-385l-215 -398h-221zM125 672v409h434v-409h-434z" />
<glyph unicode="&#x3c;" horiz-adv-x="1351" d="M137 387v293l1075 416v-293l-735 -271l735 -268v-291z" />
<glyph unicode="=" horiz-adv-x="1351" d="M135 174v270h1082v-270h-1082zM135 637v270h1082v-270h-1082z" />
<glyph unicode="&#x3e;" horiz-adv-x="1351" d="M139 -27v291l735 268l-735 271v293l1075 -416v-293z" />
<glyph unicode="?" horiz-adv-x="1251" d="M76 1001q0 130 72.5 229.5t199 151.5t287.5 52q236 0 380 -114t144 -304q0 -66 -26 -124t-65 -97.5t-84 -76.5t-84 -63t-65 -54.5t-26 -53.5v-43h-350v102q0 41 27.5 82.5t66.5 77t78 71.5t66.5 80.5t27.5 90.5q0 60 -36.5 101.5t-98.5 41.5q-133 0 -133 -172 q0 -37 2 -55h-377q0 4 -3 32.5t-3 44.5zM434 0v379h406v-379h-406z" />
<glyph unicode="@" horiz-adv-x="1515" d="M41 545q0 190 37 341t102 252.5t158.5 169t203 97t238.5 29.5q121 0 224.5 -27t191 -87t149 -149t96 -218.5t34.5 -290.5q0 -124 -21.5 -222t-56.5 -160t-82.5 -102.5t-96 -57t-100.5 -16.5q-157 0 -223 109q-117 -109 -274 -109q-291 0 -291 234q0 73 23.5 125.5 t64.5 85.5t109.5 51.5t146 25.5t186.5 7v41q0 48 -27.5 74t-70.5 26q-42 0 -72.5 -18.5t-30.5 -61.5h-305q-2 8 -2 21q0 117 108 186.5t306 69.5q85 0 155 -14t128.5 -44t91.5 -84t33 -127v-325q0 -62 59 -62q11 0 22 6t26 28t26.5 57.5t19.5 102.5t8 155q0 168 -40.5 293 t-115.5 201.5t-175 113.5t-226 37q-294 0 -446 -191t-152 -575q0 -362 132.5 -542.5t404.5 -180.5q66 0 157.5 19t139.5 46v-135q-54 -23 -144 -39t-153 -16q-324 0 -500 209t-176 641zM639 377q0 -80 86 -80q56 0 95.5 33.5t39.5 83.5v69q-112 0 -166.5 -29t-54.5 -77z" />
<glyph unicode="A" horiz-adv-x="1593" d="M20 0l515 1409h526l514 -1409h-479l-60 199h-493l-60 -199h-463zM637 514h305l-147 502h-9z" />
<glyph unicode="B" horiz-adv-x="1593" d="M152 0v1409h938q162 0 275.5 -98t113.5 -248q0 -259 -236 -328v-8q268 -61 268 -352q0 -166 -117.5 -270.5t-291.5 -104.5h-950zM604 328h344q44 0 74.5 31.5t30.5 78.5v21q0 46 -30.5 78t-74.5 32h-344v-241zM604 860h311q44 0 74.5 32.5t30.5 78.5v20q0 44 -31 76.5 t-74 32.5h-311v-240z" />
<glyph unicode="C" horiz-adv-x="1593" d="M92 705q0 361 185 545t546 184q313 0 495.5 -157.5t182.5 -447.5h-432q0 124 -64.5 195.5t-183.5 71.5q-266 0 -266 -326v-131q0 -152 64.5 -239t197.5 -87q131 0 198.5 67.5t67.5 190.5h418q0 -289 -177 -442.5t-501 -153.5q-361 0 -546 184.5t-185 545.5z" />
<glyph unicode="D" horiz-adv-x="1593" d="M152 0v1409h610q739 0 739 -704q0 -705 -739 -705h-610zM604 338h150q284 0 284 305v123q0 305 -284 305h-150v-733z" />
<glyph unicode="E" horiz-adv-x="1478" d="M152 0v1409h1218v-338h-766v-194h656v-324h-656v-215h780v-338h-1232z" />
<glyph unicode="F" d="M152 0v1409h1138v-338h-686v-242h590v-323h-590v-506h-452z" />
<glyph unicode="G" horiz-adv-x="1705" d="M92 705q0 357 199.5 543t568.5 186q150 0 279 -34.5t227.5 -100t154.5 -168.5t56 -232h-432q0 88 -77.5 142.5t-188.5 54.5q-159 0 -241.5 -85t-82.5 -241v-131q0 -156 82.5 -241t241.5 -85q110 0 188 52t78 135h-320v286h752v-786h-234l-45 139q-191 -164 -503 -164 q-351 0 -527 184t-176 546z" />
<glyph unicode="H" horiz-adv-x="1705" d="M152 0v1409h452v-514h498v514h452v-1409h-452v535h-498v-535h-452z" />
<glyph unicode="I" horiz-adv-x="796" d="M172 0v1409h453v-1409h-453z" />
<glyph unicode="J" d="M47 489v19h424v-16q0 -96 35.5 -137.5t109.5 -41.5t110 41.5t36 137.5v917h452v-920q0 -514 -583 -514q-282 0 -433 125.5t-151 388.5z" />
<glyph unicode="K" horiz-adv-x="1705" d="M152 0v1409h452v-602l502 602h561l-506 -580l516 -829h-534l-293 516l-246 -201v-315h-452z" />
<glyph unicode="L" d="M152 0v1409h452v-1049h723v-360h-1175z" />
<glyph unicode="M" horiz-adv-x="1933" d="M123 0v1409h639l213 -813h8l211 813h616v-1409h-448v508q0 95 8 206.5t16 175.5l9 64h-9l-260 -954h-354l-262 952h-8q37 -231 37 -444v-508h-416z" />
<glyph unicode="N" horiz-adv-x="1705" d="M152 0v1409h395l592 -694v694h415v-1409h-395l-592 684v-684h-415z" />
<glyph unicode="O" horiz-adv-x="1705" d="M92 705q0 357 197.5 543t562.5 186t563.5 -186t198.5 -543t-198.5 -543.5t-563.5 -186.5q-364 0 -562 186.5t-198 543.5zM555 639q0 -150 76 -238t221 -88t222 88.5t77 237.5v131q0 149 -77 237.5t-222 88.5t-221 -88t-76 -238v-131z" />
<glyph unicode="P" horiz-adv-x="1478" d="M152 0v1409h790q198 0 324.5 -131t126.5 -332v-26q0 -201 -126.5 -333t-324.5 -132h-338v-455h-452zM604 784h187q70 0 106.5 36.5t36.5 101.5v16q0 65 -35.5 101t-107.5 36h-187v-291z" />
<glyph unicode="Q" horiz-adv-x="1705" d="M92 705q0 357 197.5 543t562.5 186t563.5 -186t198.5 -543q0 -237 -89.5 -400.5t-258.5 -247.5l321 -325h-538l-218 243q-356 6 -547.5 191.5t-191.5 538.5zM555 639q0 -150 76 -238t221 -88t222 88.5t77 237.5v131q0 149 -77 237.5t-222 88.5t-221 -88t-76 -238v-131z " />
<glyph unicode="R" horiz-adv-x="1593" d="M152 0v1409h862q114 0 206 -35t149.5 -95t88.5 -137.5t31 -164.5q0 -128 -70 -233t-202 -154l313 -590h-508l-250 514h-168v-514h-452zM604 827h297q53 0 90 37.5t37 93.5t-37 92.5t-90 36.5h-297v-260z" />
<glyph unicode="S" horiz-adv-x="1478" d="M88 477h428q0 -106 55.5 -142t171.5 -36q39 0 67 2.5t62 11t52 29t18 51.5q0 32 -28.5 55.5t-76.5 38t-110.5 27.5t-131.5 28.5t-137.5 35.5t-131 53.5t-110.5 78.5t-76.5 115t-28.5 158q0 119 51 208t140.5 141t200 77t240.5 25t240.5 -26t196 -78t135 -136.5 t51.5 -194.5v-24h-424v8q0 61 -45 102t-137 41q-89 0 -138 -26.5t-49 -65.5q0 -33 28 -57.5t76 -39.5t109.5 -27.5t130 -27t137 -33.5t131 -50.5t111 -73.5t78 -108t31.5 -150q0 -103 -31 -185.5t-85.5 -139t-133 -94.5t-171 -55.5t-200.5 -17.5q-125 0 -224.5 13.5t-190 48 t-151 90.5t-95.5 144.5t-35 205.5z" />
<glyph unicode="T" horiz-adv-x="1478" d="M47 1049v360h1376v-360h-460v-1049h-453v1049h-463z" />
<glyph unicode="U" horiz-adv-x="1705" d="M152 567v842h452v-836q0 -118 63.5 -189t184.5 -71t185.5 71t64.5 189v836h452v-842q0 -289 -182.5 -440.5t-517.5 -151.5t-518.5 151.5t-183.5 440.5z" />
<glyph unicode="V" horiz-adv-x="1593" d="M35 1409h483l283 -942h8l285 942h462l-497 -1409h-524z" />
<glyph unicode="W" horiz-adv-x="2048" d="M10 1409h471l162 -799h8l160 799h446l170 -799h9l151 799h451l-330 -1409h-498l-182 858h-8l-182 -858h-498z" />
<glyph unicode="X" horiz-adv-x="1593" d="M8 0l504 745l-455 664h547l213 -360h8l215 360h506l-456 -666l503 -743h-549l-260 438h-8l-260 -438h-508z" />
<glyph unicode="Y" horiz-adv-x="1593" d="M14 1409h521l270 -469h8l270 469h494l-551 -862v-547h-453v547z" />
<glyph unicode="Z" horiz-adv-x="1478" d="M49 0v145l653 926h-604v338h1301v-145l-654 -926h670v-338h-1366z" />
<glyph unicode="[" horiz-adv-x="796" d="M135 -328v1837h559v-211h-233v-1415h233v-211h-559z" />
<glyph unicode="\" horiz-adv-x="569" d="M-4 1507h248l327 -1605h-249z" />
<glyph unicode="]" horiz-adv-x="796" d="M135 -117h234v1415h-234v211h559v-1837h-559v211z" />
<glyph unicode="^" horiz-adv-x="1351" d="M113 690l415 719h293l416 -719h-291l-268 434l-270 -434h-295z" />
<glyph unicode="_" horiz-adv-x="1024" d="M0 -131h1024v-127h-1024v127z" />
<glyph unicode="`" horiz-adv-x="681" d="M47 1477l4 8h395l189 -273h-260z" />
<glyph unicode="a" d="M61 279q0 96 33.5 164.5t92.5 111t156 67t205.5 33.5t260.5 9v53q0 63 -44 96t-114 33q-63 0 -109 -22.5t-46 -71.5v-9h-402q-2 10 -2 29q0 153 146.5 243.5t418.5 90.5q117 0 213.5 -18t176.5 -57.5t125 -110t45 -166.5v-422q0 -36 16.5 -58t48.5 -22h74v-236 q-9 -5 -25 -11.5t-71.5 -18t-116.5 -11.5q-120 0 -196 36t-105 100q-170 -136 -400 -136q-381 0 -381 304zM469 332q0 -103 139 -103q80 0 140.5 43t60.5 107v92q-173 0 -256.5 -37.5t-83.5 -101.5z" />
<glyph unicode="b" d="M125 0v1485h407v-504q116 125 304 125q219 0 337.5 -142t118.5 -421q0 -281 -118.5 -424.5t-337.5 -143.5q-226 0 -344 179l-35 -154h-332zM528 506q0 -102 45 -166t136 -64q176 0 176 209v109q0 211 -176 211q-90 0 -135.5 -65t-45.5 -167v-67z" />
<glyph unicode="c" d="M74 541q0 278 162 421.5t446 143.5q128 0 233 -26t188 -80t129 -144.5t46 -210.5h-395q0 184 -201 184t-201 -231v-117q0 -229 209 -229t209 188h379q0 -120 -46 -211t-128.5 -145.5t-188.5 -81.5t-233 -27q-284 0 -446 144t-162 422z" />
<glyph unicode="d" d="M74 543q0 279 118.5 421t337.5 142q188 0 304 -125v504h407v-1485h-332l-35 154q-118 -179 -344 -179q-219 0 -337.5 143.5t-118.5 424.5zM481 485q0 -209 176 -209q91 0 136 64t45 166v67q0 102 -45.5 167t-135.5 65q-176 0 -176 -211v-109z" />
<glyph unicode="e" d="M74 541q0 278 162 421.5t446 143.5q298 0 454 -139.5t156 -425.5v-70h-811q0 -116 51.5 -175.5t165.5 -59.5q103 0 151 43t48 114h395q0 -197 -149 -307.5t-436 -110.5q-301 0 -467 141t-166 425zM483 664h398q0 85 -48.5 133.5t-134.5 48.5q-192 0 -215 -182z" />
<glyph unicode="f" horiz-adv-x="796" d="M16 805v276h152v45q0 108 28.5 184t82.5 118.5t123 61.5t161 19q46 0 113.5 -10.5t107.5 -25.5v-240h-94q-66 0 -90.5 -25t-24.5 -84v-43h209v-276h-209v-805h-407v805h-152z" />
<glyph unicode="g" d="M10 -166q0 80 49.5 144.5t122.5 97.5q-106 72 -106 190q0 80 59.5 145t147.5 87q-79 50 -126.5 117t-47.5 141q0 97 43.5 167t122.5 109t175 56.5t216 17.5q110 0 178 -12q45 28 78.5 58t48.5 52.5t23 41t9 28.5l1 10h335q0 -126 -62.5 -193t-186.5 -100 q60 -45 93.5 -105.5t33.5 -127.5q0 -88 -36.5 -156t-100.5 -109t-144.5 -62t-173.5 -21h-156q-129 0 -129 -60q0 -63 129 -63h369q181 0 272.5 -94t91.5 -252q0 -117 -63.5 -202.5t-165 -127t-225.5 -41.5h-602q-113 0 -193 76t-80 188zM397 -98q0 -46 31 -75.5t76 -29.5 h319q46 0 77.5 28.5t31.5 74.5t-31.5 73t-77.5 27h-319q-46 0 -76.5 -26t-30.5 -72zM508 758q0 -68 40 -101.5t114 -33.5t115.5 34t41.5 101t-41.5 101t-115.5 34q-68 0 -111 -34.5t-43 -100.5z" />
<glyph unicode="h" d="M123 0v1485h407v-516q65 65 153.5 101t184.5 36q189 0 283 -105t94 -301v-700h-407v651q0 69 -36 111.5t-102 42.5q-75 0 -122.5 -49.5t-47.5 -120.5v-635h-407z" />
<glyph unicode="i" horiz-adv-x="681" d="M137 0v1081h408v-1081h-408zM137 1208v277h408v-277h-408z" />
<glyph unicode="j" horiz-adv-x="681" d="M-84 -150h107q114 0 114 132v1099h408v-1140q0 -196 -89 -283.5t-286 -87.5q-55 0 -132.5 10.5t-121.5 26.5v243zM137 1208v277h408v-277h-408z" />
<glyph unicode="k" d="M123 0v1487h407v-819l347 413h475l-400 -436l410 -645h-463l-227 371l-142 -138v-233h-407z" />
<glyph unicode="l" horiz-adv-x="681" d="M137 0v1485h408v-1485h-408z" />
<glyph unicode="m" horiz-adv-x="2048" d="M123 0v1081h334l26 -161q61 86 162.5 136t214.5 50q245 0 328 -186q63 85 163 135.5t208 50.5q184 0 276 -105t92 -301v-700h-407v651q0 69 -34 111.5t-95 42.5q-72 0 -117 -49.5t-45 -120.5v-635h-408v651q0 69 -34 111.5t-95 42.5q-72 0 -117 -49.5t-45 -120.5v-635 h-407z" />
<glyph unicode="n" d="M123 0v1081h334l26 -163q63 87 166.5 137.5t218.5 50.5q189 0 283 -105t94 -301v-700h-407v651q0 69 -36 111.5t-102 42.5q-75 0 -122.5 -49.5t-47.5 -120.5v-635h-407z" />
<glyph unicode="o" d="M74 541q0 278 162 421.5t446 143.5t447 -143.5t163 -421.5t-163 -422t-447 -144t-446 144t-162 422zM481 481q0 -229 201 -229q203 0 203 229v117q0 231 -203 231q-201 0 -201 -231v-117z" />
<glyph unicode="p" d="M125 -403v1484h332l35 -153q118 178 344 178q219 0 337.5 -143t118.5 -424q0 -279 -118.5 -421.5t-337.5 -142.5q-190 0 -304 123v-501h-407zM528 508q0 -102 45.5 -167t135.5 -65q176 0 176 211v109q0 209 -176 209q-91 0 -136 -64t-45 -166v-67z" />
<glyph unicode="q" d="M74 539q0 281 118.5 424t337.5 143q226 0 344 -178l35 153h332v-1484h-407v501q-114 -123 -304 -123q-219 0 -337.5 142.5t-118.5 421.5zM481 487q0 -211 176 -211q90 0 135.5 65t45.5 167v67q0 102 -45 166t-136 64q-176 0 -176 -209v-109z" />
<glyph unicode="r" horiz-adv-x="909" d="M123 0v1081h334l26 -163q37 93 116.5 141.5t180.5 48.5q34 0 64 -6t44 -12l13 -7v-342h-131q-128 0 -184 -66t-56 -194v-481h-407z" />
<glyph unicode="s" horiz-adv-x="1251" d="M66 352h378v-8q1 -37 20 -63t49 -38.5t57 -18t53 -5.5q170 0 170 80q0 32 -38.5 52.5t-100 31.5t-136 22.5t-149.5 33t-136.5 55t-100 96t-38.5 149.5q0 83 29.5 147.5t79 105t120.5 67t147.5 37t166.5 10.5q101 0 190 -19t164.5 -58.5t119.5 -109t44 -161.5h-379 q0 60 -53 84q-36 20 -92 20q-148 0 -148 -69q0 -31 38.5 -49.5t100 -28.5t136 -20t149.5 -31t136.5 -54.5t100 -97.5t38.5 -154q0 -87 -30 -154t-80.5 -109.5t-123.5 -70t-152.5 -38.5t-172.5 -11q-106 0 -202 21.5t-177 65t-129.5 118.5t-48.5 172z" />
<glyph unicode="t" horiz-adv-x="909" d="M55 805v276h168l88 328h303v-328h230v-276h-230v-412q0 -73 24.5 -107t90.5 -34h115v-240q-48 -16 -126 -26.5t-136 -10.5q-87 0 -152.5 14.5t-117 47t-78.5 89.5t-27 138v541h-152z" />
<glyph unicode="u" d="M119 381v700h407v-651q0 -69 36 -111.5t102 -42.5q75 0 122.5 49.5t47.5 120.5v635h407v-1081h-334l-26 164q-63 -88 -166 -138.5t-219 -50.5q-189 0 -283 105t-94 301z" />
<glyph unicode="v" horiz-adv-x="1251" d="M0 1081h438l199 -673h14l199 673h401l-413 -1081h-428z" />
<glyph unicode="w" horiz-adv-x="1933" d="M0 1081h438l164 -639h14l170 639h406l164 -639h14l166 639h397l-397 -1081h-397l-168 602h-8l-170 -602h-398z" />
<glyph unicode="x" d="M8 0l416 573l-375 508h479l172 -286h9l172 286h450l-381 -518l406 -563h-475l-205 340h-8l-207 -340h-453z" />
<glyph unicode="y" horiz-adv-x="1251" d="M0 1081h438l207 -719h14l191 719h401l-385 -1048q-32 -86 -64.5 -151.5t-79.5 -126.5t-102.5 -100t-132 -62t-168.5 -23q-130 0 -235 37v243h164q154 0 182 150z" />
<glyph unicode="z" horiz-adv-x="1138" d="M41 0v133l455 672h-430v276h1011v-127l-459 -678h478v-276h-1055z" />
<glyph unicode="{" horiz-adv-x="796" d="M61 512v162q70 0 124.5 30t54.5 87v489q0 75 44 128.5t107.5 77t136.5 23.5h187v-200q-152 0 -156 -84l-20 -412q-10 -211 -207 -211v-18q197 0 207 -211l20 -414q4 -86 156 -86v-201h-187q-73 0 -136.5 23.5t-107.5 77.5t-44 129v497q0 57 -51.5 85t-127.5 28z" />
<glyph unicode="|" horiz-adv-x="569" d="M158 -432v1919h254v-1919h-254z" />
<glyph unicode="}" horiz-adv-x="796" d="M82 -127q152 0 156 86l20 414q10 211 207 211v18q-197 0 -207 211l-20 412q-4 84 -156 84v200h186q73 0 137 -23.5t108 -77t44 -128.5v-489q0 -57 54 -87t124 -30v-162q-76 0 -127 -27.5t-51 -85.5v-497q0 -75 -44 -129t-108 -77.5t-137 -23.5h-186v201z" />
<glyph unicode="~" horiz-adv-x="1351" d="M80 383v266q6 7 16.5 18t46.5 39t73.5 50t94.5 39.5t113 17.5q42 0 89.5 -11.5t77.5 -23.5t83 -35q50 -22 82.5 -34.5t80.5 -23.5t91 -11q56 0 112.5 17t96 41t71.5 48t48 41l16 17v-267q-6 -7 -16.5 -18t-46.5 -39t-73.5 -49.5t-94.5 -39t-113 -17.5q-42 0 -89 11 t-78.5 23t-82.5 35q-53 23 -83 35t-78.5 23.5t-92.5 11.5q-56 0 -112.5 -17t-96 -41t-71.5 -48t-48 -41z" />
<glyph unicode="&#xa1;" horiz-adv-x="681" d="M96 -328l113 906h260l117 -906h-490zM137 702v379h406v-379h-406z" />
<glyph unicode="&#xa2;" d="M74 707q0 252 135.5 394.5t376.5 166.5l-15 280h232l-17 -282q108 -10 195.5 -41.5t155 -85.5t104.5 -137.5t37 -190.5h-395q0 184 -201 184t-201 -231v-117q0 -229 209 -229t209 188h379q0 -108 -37 -192.5t-104 -139t-155 -87t-196 -42.5l17 -282h-232l15 282 q-241 24 -376.5 166.5t-135.5 395.5z" />
<glyph unicode="&#xa3;" d="M63 565v260h193v185q0 90 31 166t93.5 134.5t164.5 91t235 32.5q250 0 388.5 -119.5t138.5 -302.5v-58h-408v58q0 49 -34.5 83.5t-84.5 34.5t-84 -34t-34 -84v-187h196v-260h-199l-41 -264h578v-301h-1071v301h131v264h-193z" />
<glyph unicode="&#xa4;" horiz-adv-x="1351" d="M141 289l119 119q-94 108 -94 286q0 87 24 165t70 122l-119 119l129 129l117 -117q46 40 125.5 65t161.5 25q85 0 161 -24t117 -62l119 119l139 -139l-114 -115q39 -42 62.5 -121t23.5 -166q0 -84 -24 -161.5t-66 -129.5l114 -114l-123 -123l-118 119 q-46 -46 -124.5 -72.5t-166.5 -26.5q-86 0 -163.5 25.5t-127.5 69.5l-117 -117zM412 694q0 -119 75 -200.5t187 -81.5q116 0 189 82.5t73 199.5t-73 200t-189 83q-113 0 -187.5 -82.5t-74.5 -200.5z" />
<glyph unicode="&#xa5;" d="M4 1409h471l217 -469h8l218 469h444l-256 -469h201v-190h-306l-53 -99h359v-190h-414v-461h-412v461h-415v190h358l-55 99h-303v190h198z" />
<glyph unicode="&#xa6;" horiz-adv-x="569" d="M160 369h254v-799h-254v799zM160 688v799h254v-799h-254z" />
<glyph unicode="&#xa7;" d="M111 522q0 58 19 111t50.5 92t58.5 64t56 45q-154 104 -154 249q0 77 34 139t88.5 100.5t126.5 64.5t143 36.5t143 10.5t141.5 -9t141.5 -31.5t126 -57t88.5 -90.5t34.5 -126v-20h-370q0 47 -44 69.5t-100 22.5q-61 0 -108 -18t-47 -56q0 -33 31 -62.5t81 -51.5 t114.5 -47.5t131.5 -50t131.5 -60.5t114.5 -77t81 -101.5t31 -132.5q0 -58 -19 -111t-51 -92.5t-59 -64t-57 -44.5q156 -107 156 -250q0 -77 -34 -139t-88.5 -100.5t-126.5 -64t-143 -36t-143 -10.5t-141.5 9t-141.5 31.5t-126 57t-88.5 90.5t-34.5 126v20h370 q0 -47 44 -69.5t100 -22.5q61 0 108 18t47 56q0 33 -31 62.5t-81 51.5t-114.5 47.5t-131.5 50t-131.5 60.5t-114.5 77t-81 101.5t-31 132.5zM453 616q0 -21 6.5 -40t21.5 -37t30.5 -32.5t43 -31t48 -28.5t57.5 -28.5t60 -26t65.5 -27.5t64.5 -27q63 51 63 102q0 21 -6.5 40 t-21.5 37t-30 32.5t-43.5 31.5t-48.5 28.5t-57.5 28.5t-59.5 26.5t-65.5 27.5t-64.5 27q-63 -51 -63 -103z" />
<glyph unicode="&#xa8;" horiz-adv-x="681" d="M-41 1200v285h311v-285h-311zM410 1200v285h311v-285h-311z" />
<glyph unicode="&#xa9;" horiz-adv-x="1638" d="M90 707q0 152 54 285.5t149 231t231.5 154t294.5 56.5q211 0 379.5 -96.5t261 -262.5t92.5 -368q0 -151 -54.5 -286t-150 -233t-233 -155.5t-295.5 -57.5t-295 57t-231.5 155.5t-148.5 233t-54 286.5zM248 707q0 -271 155 -434.5t416 -163.5q262 0 419 163.5t157 434.5 q0 270 -157 433t-419 163t-416.5 -162.5t-154.5 -433.5zM389 705q0 217 111 327.5t329 110.5q188 0 298 -94.5t110 -268.5h-260q0 73 -39.5 116.5t-110.5 43.5q-159 0 -159 -197v-77q0 -92 38.5 -144.5t118.5 -52.5q79 0 119.5 40.5t40.5 115.5h252q0 -174 -106.5 -266.5 t-301.5 -92.5q-218 0 -329 111t-111 328z" />
<glyph unicode="&#xaa;" horiz-adv-x="819" d="M25 1012q0 58 22 99t60.5 66.5t102 40t134.5 20t170 5.5v33q0 37 -28.5 56.5t-73.5 19.5q-42 0 -72.5 -14.5t-30.5 -47.5h-262q-2 6 -2 19q0 92 96 146t275 54q76 0 139 -11t115 -35t81 -66.5t29 -100.5v-252q0 -21 11 -35t32 -14l49 6v-141q-51 -31 -139 -31 q-154 0 -196 82q-113 -82 -263 -82q-249 0 -249 183zM293 1044q0 -61 90 -61q53 0 92 25.5t39 64.5v55q-113 0 -167 -23t-54 -61z" />
<glyph unicode="&#xab;" d="M123 664l342 417h293l-283 -417l283 -420h-293zM606 664l342 417h293l-283 -417l283 -420h-293z" />
<glyph unicode="&#xac;" horiz-adv-x="1351" d="M102 686v318h1135v-689h-315v371h-820z" />
<glyph unicode="&#xad;" horiz-adv-x="681" d="M80 401v324h522v-324h-522z" />
<glyph unicode="&#xae;" horiz-adv-x="1638" d="M90 707q0 152 54 285.5t149 231t231.5 154t294.5 56.5q211 0 379.5 -96.5t261 -262.5t92.5 -368q0 -151 -54.5 -286t-150 -233t-233 -155.5t-295.5 -57.5t-295 57t-231.5 155.5t-148.5 233t-54 286.5zM248 707q0 -271 155 -434.5t416 -163.5q262 0 419 163.5t157 434.5 q0 270 -157 433t-419 163t-416.5 -162.5t-154.5 -433.5zM475 283v845h463q99 0 167.5 -59t68.5 -154q0 -85 -42 -136t-96 -74v-11q69 -20 103.5 -72t34.5 -126q0 -26 1.5 -44t7 -43.5t19 -42t35.5 -22.5v-51q-63 -25 -150 -25q-96 0 -143 35t-47 117q0 27 -1 45t-7.5 42.5 t-17.5 39t-33 25t-52 10.5h-38v-299h-273zM748 770h71q33 0 55.5 24t22.5 60q0 35 -22.5 58.5t-55.5 23.5h-71v-166z" />
<glyph unicode="&#xaf;" horiz-adv-x="681" d="M18 1239v205h648v-205h-648z" />
<glyph unicode="&#xb0;" horiz-adv-x="819" d="M102 1126q0 126 90.5 217t217.5 91q126 0 216.5 -91t90.5 -217q0 -127 -90.5 -217t-216.5 -90q-127 0 -216.5 89.5t-91.5 217.5zM281 1124q0 -52 37.5 -89.5t89.5 -37.5t89.5 37.5t37.5 89.5q0 53 -37.5 90t-91.5 37q-50 0 -87.5 -37.5t-37.5 -89.5z" />
<glyph unicode="&#xb1;" horiz-adv-x="1351" d="M135 0v270h1082v-270h-1082zM135 733v271h406v372h270v-372h406v-271h-406v-373h-270v373h-406z" />
<glyph unicode="&#xb2;" horiz-adv-x="819" d="M33 649v60q0 65 33 117t96 102q53 44 116.5 90t102 73.5t74 56t51.5 52t16 45.5q0 38 -29 64t-87 26q-60 0 -95 -31.5t-35 -82.5v-25h-239q-2 10 -2 27q0 132 102 209t295 77q163 0 259.5 -69.5t96.5 -184.5q0 -38 -11 -72.5t-34.5 -65.5t-48.5 -55.5t-65.5 -53 t-71.5 -48.5t-81 -51t-81 -51h404v-209h-766z" />
<glyph unicode="&#xb3;" horiz-adv-x="819" d="M31 879v26h237q0 -100 140 -100q139 0 139 113q0 43 -26 65.5t-68 22.5h-99v151h78q41 0 67.5 22.5t26.5 65.5q0 39 -32 67.5t-86 28.5q-58 0 -90.5 -26.5t-32.5 -65.5h-224v31q0 98 99 163.5t270 65.5q166 0 262 -65.5t96 -163.5q0 -63 -37.5 -113.5t-97.5 -70.5v-9 q77 -23 119.5 -76.5t42.5 -129.5q-6 -108 -103.5 -176t-287.5 -68q-192 0 -292.5 68t-100.5 174z" />
<glyph unicode="&#xb4;" horiz-adv-x="681" d="M61 1212l189 273h395l4 -8l-327 -265h-261z" />
<glyph unicode="&#xb5;" d="M119 -401v1482h407v-651q0 -69 36 -111.5t102 -42.5q75 0 122.5 49.5t47.5 120.5v635h407v-1081h-334l-26 164q-60 -82 -154.5 -131.5t-200.5 -55.5v-378h-407z" />
<glyph unicode="&#xb6;" horiz-adv-x="1740" d="M223 965q0 185 129.5 314.5t313.5 129.5h858v-248h-135v-1491h-263v1491h-217v-1491h-262v852q-178 6 -301 134.5t-123 308.5z" />
<glyph unicode="&#xb7;" horiz-adv-x="681" d="M145 481v375h392v-375h-392z" />
<glyph unicode="&#xb8;" horiz-adv-x="681" d="M96 -289q134 -16 240 -16q82 0 82 63q0 66 -78 66h-78l39 256h127l-22 -139q190 -19 190 -183q0 -55 -24 -95t-63 -59t-77 -27.5t-78 -8.5q-161 0 -258 33v110z" />
<glyph unicode="&#xb9;" horiz-adv-x="819" d="M61 647v189h220v383h-220v141q90 6 203 45t195 88h90v-657h211v-189h-699z" />
<glyph unicode="&#xba;" horiz-adv-x="819" d="M25 1169q0 166 106 253t291 87q186 0 292.5 -86.5t106.5 -253.5t-106.5 -253.5t-292.5 -86.5q-185 0 -291 87t-106 253zM291 1135q0 -140 131 -140q133 0 133 140v69q0 139 -133 139q-131 0 -131 -139v-69z" />
<glyph unicode="&#xbb;" d="M125 244l283 420l-283 417h293l342 -417l-342 -420h-293zM608 244l283 420l-283 417h293l342 -417l-342 -420h-293z" />
<glyph unicode="&#xbc;" horiz-adv-x="2048" d="M78 573v189h219v383h-219v141q90 6 202.5 44.5t194.5 88.5h90v-657h211v-189h-698zM532 -25l840 1459h197l-842 -1459h-195zM1169 174v182q72 98 143.5 233.5t114.5 270.5h263q-13 -94 -121 -250t-215 -256h266v174q42 56 84.5 129.5t54.5 120.5h115v-424h129v-180h-129 v-174h-254v174h-451z" />
<glyph unicode="&#xbd;" horiz-adv-x="2048" d="M78 575v189h219v383h-219v141q90 6 202.5 44.5t194.5 88.5h90v-657h211v-189h-698zM532 -25l840 1459h197l-842 -1459h-195zM1231 0v59q0 65 33.5 117.5t95.5 102.5q53 44 116.5 90t102 73.5t74 56t51.5 52t16 45.5q0 38 -29 64t-87 26q-60 0 -94.5 -32t-34.5 -83v-24 h-240q-2 10 -2 26q0 133 102 210t295 77q163 0 260 -69.5t97 -184.5q0 -38 -11 -72.5t-34.5 -65.5t-48.5 -55.5t-66 -53t-72 -48.5t-81 -51t-81 -51h404v-209h-766z" />
<glyph unicode="&#xbe;" horiz-adv-x="2048" d="M57 805v26h238q0 -100 139 -100t139 113q0 43 -26 65.5t-68 22.5h-98v151h78q41 0 67.5 22.5t26.5 65.5q0 39 -32.5 68t-86.5 29q-58 0 -90.5 -26.5t-32.5 -65.5h-223v30q0 98 99 164t270 66q166 0 262 -66t96 -164q0 -63 -37.5 -113.5t-97.5 -70.5v-8q77 -23 119.5 -77 t42.5 -130q-6 -108 -103.5 -176t-287.5 -68q-192 0 -293 68t-101 174zM532 -25l840 1459h197l-842 -1459h-195zM1153 174v182q72 98 143.5 233.5t114.5 270.5h262q-13 -94 -121 -250t-215 -256h267v174q42 56 84.5 129.5t54.5 120.5h115v-424h129v-180h-129v-174h-254v174 h-451z" />
<glyph unicode="&#xbf;" horiz-adv-x="1251" d="M94 63q0 66 26 124t65 97.5t84 76.5t84 63t65 54.5t26 53.5v43h351v-102q0 -41 -27.5 -82.5t-66.5 -76.5t-78.5 -71t-67 -80.5t-27.5 -90.5q0 -60 37 -102t99 -42q133 0 133 172q0 38 -2 56h376q1 -8 4 -35t3 -43q0 -196 -157 -314t-403 -118q-236 0 -380 113.5 t-144 303.5zM414 700v379h405v-379h-405z" />
<glyph unicode="&#xc0;" horiz-adv-x="1593" d="M20 0l515 1409h526l514 -1409h-479l-60 199h-493l-60 -199h-463zM406 1804l4 8h395l188 -272h-260zM637 514h305l-147 502h-9z" />
<glyph unicode="&#xc1;" horiz-adv-x="1593" d="M20 0l515 1409h526l514 -1409h-479l-60 199h-493l-60 -199h-463zM600 1540l188 272h396l4 -8l-328 -264h-260zM637 514h305l-147 502h-9z" />
<glyph unicode="&#xc2;" horiz-adv-x="1593" d="M20 0l515 1409h526l514 -1409h-479l-60 199h-493l-60 -199h-463zM381 1516l285 296h262l284 -296h-266l-151 157l-152 -157h-262zM637 514h305l-147 502h-9z" />
<glyph unicode="&#xc3;" horiz-adv-x="1593" d="M20 0l515 1409h526l514 -1409h-479l-60 199h-493l-60 -199h-463zM342 1520q0 115 81.5 203.5t205.5 88.5q68 0 184.5 -40.5t169.5 -40.5q37 0 64 22.5t38 58.5h166q0 -115 -81 -203.5t-205 -88.5q-68 0 -185 41t-170 41q-37 0 -64 -22.5t-38 -59.5h-166zM637 514h305 l-147 502h-9z" />
<glyph unicode="&#xc4;" horiz-adv-x="1593" d="M20 0l515 1409h526l514 -1409h-479l-60 199h-493l-60 -199h-463zM416 1528v284h311v-284h-311zM637 514h305l-147 502h-9zM866 1528v284h312v-284h-312z" />
<glyph unicode="&#xc5;" horiz-adv-x="1593" d="M20 0l515 1409h526l514 -1409h-479l-60 199h-493l-60 -199h-463zM573 1731q0 92 66 157.5t158 65.5q91 0 157 -65t66 -158q0 -91 -65.5 -156.5t-157.5 -65.5q-91 0 -157.5 65t-66.5 157zM637 514h305l-147 502h-9zM715 1729q0 -35 23.5 -57.5t58.5 -22.5q37 0 59.5 23.5 t22.5 60.5q0 35 -23 57t-59 22q-37 0 -59.5 -23t-22.5 -60z" />
<glyph unicode="&#xc6;" horiz-adv-x="2048" d="M-31 0l596 1409h1391v-338h-748l45 -194h588v-324h-512l49 -215h592v-338h-944l-45 199h-479l-70 -199h-463zM614 514h297l-110 502h-8z" />
<glyph unicode="&#xc7;" horiz-adv-x="1593" d="M92 705q0 361 185 545t546 184q313 0 495.5 -157.5t182.5 -447.5h-432q0 124 -64.5 195.5t-183.5 71.5q-266 0 -266 -326v-131q0 -152 64.5 -239t197.5 -87q131 0 198.5 67.5t67.5 190.5h418q0 -280 -166.5 -433.5t-472.5 -162.5l-6 -34q85 -8 138 -51.5t53 -131.5 q0 -55 -24 -95t-63 -59t-77 -27.5t-78 -8.5q-161 0 -258 33v110q133 -16 239 -16q82 0 82 63q0 33 -17.5 49.5t-59.5 16.5h-78l22 153q-318 22 -480.5 206t-162.5 522z" />
<glyph unicode="&#xc8;" horiz-adv-x="1478" d="M152 0v1409h1218v-338h-766v-194h656v-324h-656v-215h780v-338h-1232zM399 1804l4 8h396l188 -272h-260z" />
<glyph unicode="&#xc9;" horiz-adv-x="1478" d="M152 0v1409h1218v-338h-766v-194h656v-324h-656v-215h780v-338h-1232zM594 1540l188 272h396l4 -8l-328 -264h-260z" />
<glyph unicode="&#xca;" horiz-adv-x="1478" d="M152 0v1409h1218v-338h-766v-194h656v-324h-656v-215h780v-338h-1232zM375 1516l284 296h263l284 -296h-266l-152 157l-151 -157h-262z" />
<glyph unicode="&#xcb;" horiz-adv-x="1478" d="M152 0v1409h1218v-338h-766v-194h656v-324h-656v-215h780v-338h-1232zM410 1528v284h311v-284h-311zM860 1528v284h311v-284h-311z" />
<glyph unicode="&#xcc;" horiz-adv-x="796" d="M8 1804l4 8h396l188 -272h-260zM172 0v1409h453v-1409h-453z" />
<glyph unicode="&#xcd;" horiz-adv-x="796" d="M172 0v1409h453v-1409h-453zM203 1540l188 272h395l5 -8l-328 -264h-260z" />
<glyph unicode="&#xce;" horiz-adv-x="796" d="M-16 1516l284 296h262l285 -296h-266l-152 157l-151 -157h-262zM172 0v1409h453v-1409h-453z" />
<glyph unicode="&#xcf;" horiz-adv-x="796" d="M18 1528v284h312v-284h-312zM172 0v1409h453v-1409h-453zM469 1528v284h311v-284h-311z" />
<glyph unicode="&#xd0;" horiz-adv-x="1593" d="M2 623v200h150v586h610q739 0 739 -704q0 -705 -739 -705h-610v623h-150zM604 338h150q284 0 284 305v123q0 305 -284 305h-150v-248h199v-200h-199v-285z" />
<glyph unicode="&#xd1;" horiz-adv-x="1705" d="M152 0v1409h395l592 -694v694h415v-1409h-395l-592 684v-684h-415zM397 1520q0 115 81.5 203.5t205.5 88.5q68 0 185 -40.5t169 -40.5q77 0 105 81h166q0 -115 -81.5 -203.5t-205.5 -88.5q-68 0 -185 41t-169 41q-38 0 -65 -22.5t-40 -59.5h-166z" />
<glyph unicode="&#xd2;" horiz-adv-x="1705" d="M92 705q0 357 197.5 543t562.5 186t563.5 -186t198.5 -543t-198.5 -543.5t-563.5 -186.5q-364 0 -562 186.5t-198 543.5zM463 1804l4 8h393l191 -272h-260zM555 639q0 -150 76 -238t221 -88t222 88.5t77 237.5v131q0 149 -77 237.5t-222 88.5t-221 -88t-76 -238v-131z " />
<glyph unicode="&#xd3;" horiz-adv-x="1705" d="M92 705q0 357 197.5 543t562.5 186t563.5 -186t198.5 -543t-198.5 -543.5t-563.5 -186.5q-364 0 -562 186.5t-198 543.5zM555 639q0 -150 76 -238t221 -88t222 88.5t77 237.5v131q0 149 -77 237.5t-222 88.5t-221 -88t-76 -238v-131zM655 1540l191 272h393l4 -8 l-325 -264h-263z" />
<glyph unicode="&#xd4;" horiz-adv-x="1705" d="M92 705q0 357 197.5 543t562.5 186t563.5 -186t198.5 -543t-198.5 -543.5t-563.5 -186.5q-364 0 -562 186.5t-198 543.5zM436 1516l287 296h260l287 -296h-266l-152 157l-154 -157h-262zM555 639q0 -150 76 -238t221 -88t222 88.5t77 237.5v131q0 149 -77 237.5 t-222 88.5t-221 -88t-76 -238v-131z" />
<glyph unicode="&#xd5;" horiz-adv-x="1705" d="M92 705q0 357 197.5 543t562.5 186t563.5 -186t198.5 -543t-198.5 -543.5t-563.5 -186.5q-364 0 -562 186.5t-198 543.5zM397 1520q0 115 81.5 203.5t205.5 88.5q68 0 185 -40.5t169 -40.5q77 0 105 81h166q0 -115 -81.5 -203.5t-205.5 -88.5q-68 0 -185 41t-169 41 q-38 0 -65 -22.5t-40 -59.5h-166zM555 639q0 -150 76 -238t221 -88t222 88.5t77 237.5v131q0 149 -77 237.5t-222 88.5t-221 -88t-76 -238v-131z" />
<glyph unicode="&#xd6;" horiz-adv-x="1705" d="M92 705q0 357 197.5 543t562.5 186t563.5 -186t198.5 -543t-198.5 -543.5t-563.5 -186.5q-364 0 -562 186.5t-198 543.5zM471 1528v284h311v-284h-311zM555 639q0 -150 76 -238t221 -88t222 88.5t77 237.5v131q0 149 -77 237.5t-222 88.5t-221 -88t-76 -238v-131z M924 1528v284h311v-284h-311z" />
<glyph unicode="&#xd7;" horiz-adv-x="1351" d="M139 197l346 344l-346 344l193 192l344 -346l344 346l192 -192l-346 -344l346 -344l-192 -193l-344 346l-344 -346z" />
<glyph unicode="&#xd8;" horiz-adv-x="1705" d="M92 705q0 357 197.5 543t562.5 186q238 0 414 -84l108 135h221l-188 -232q207 -186 207 -548q0 -357 -198.5 -543.5t-563.5 -186.5q-246 0 -414 82l-106 -131h-221l184 230q-203 188 -203 549zM555 639q0 -80 20 -139l447 551q-70 45 -170 45q-145 0 -221 -88t-76 -238 v-131zM682 358q70 -45 170 -45q145 0 222 88.5t77 237.5v131q0 72 -23 139z" />
<glyph unicode="&#xd9;" horiz-adv-x="1705" d="M152 567v842h452v-836q0 -118 63.5 -189t184.5 -71t185.5 71t64.5 189v836h452v-842q0 -289 -182.5 -440.5t-517.5 -151.5t-518.5 151.5t-183.5 440.5zM463 1804l4 8h393l191 -272h-260z" />
<glyph unicode="&#xda;" horiz-adv-x="1705" d="M152 567v842h452v-836q0 -118 63.5 -189t184.5 -71t185.5 71t64.5 189v836h452v-842q0 -289 -182.5 -440.5t-517.5 -151.5t-518.5 151.5t-183.5 440.5zM655 1540l191 272h393l4 -8l-325 -264h-263z" />
<glyph unicode="&#xdb;" horiz-adv-x="1705" d="M152 567v842h452v-836q0 -118 63.5 -189t184.5 -71t185.5 71t64.5 189v836h452v-842q0 -289 -182.5 -440.5t-517.5 -151.5t-518.5 151.5t-183.5 440.5zM436 1516l287 296h260l287 -296h-266l-152 157l-154 -157h-262z" />
<glyph unicode="&#xdc;" horiz-adv-x="1705" d="M152 567v842h452v-836q0 -118 63.5 -189t184.5 -71t185.5 71t64.5 189v836h452v-842q0 -289 -182.5 -440.5t-517.5 -151.5t-518.5 151.5t-183.5 440.5zM471 1528v284h311v-284h-311zM924 1528v284h311v-284h-311z" />
<glyph unicode="&#xdd;" horiz-adv-x="1593" d="M14 1409h521l270 -469h8l270 469h494l-551 -862v-547h-453v547zM600 1540l188 272h396l4 -8l-328 -264h-260z" />
<glyph unicode="&#xde;" horiz-adv-x="1478" d="M152 0v1409h452v-205h338q198 0 324.5 -131t126.5 -332v-26q0 -201 -126.5 -333t-324.5 -132h-338v-250h-452zM604 580h187q71 0 107 36t36 101v16q0 65 -35.5 101t-107.5 36h-187v-290z" />
<glyph unicode="&#xdf;" d="M137 0v1059q0 94 32 171t85 128t125 85.5t149.5 50t159.5 15.5q79 0 152 -11t144 -39.5t123 -71t84 -111t32 -154.5q0 -99 -52.5 -183t-140.5 -120v-10q109 -40 178.5 -144t69.5 -227q0 -214 -138.5 -326t-365.5 -112h-131v279h57q70 0 120 56.5t50 133.5q0 81 -50.5 139 t-119.5 58h-57v288h55q57 0 95 40.5t38 99.5q0 62 -38.5 101.5t-104.5 39.5q-65 0 -104 -40t-39 -101v-1094h-408z" />
<glyph unicode="&#xe0;" d="M61 279q0 96 33.5 164.5t92.5 111t156 67t205.5 33.5t260.5 9v53q0 63 -44 96t-114 33q-63 0 -109 -22.5t-46 -71.5v-9h-402q-2 10 -2 29q0 153 146.5 243.5t418.5 90.5q117 0 213.5 -18t176.5 -57.5t125 -110t45 -166.5v-422q0 -36 16.5 -58t48.5 -22h74v-236 q-9 -5 -25 -11.5t-71.5 -18t-116.5 -11.5q-120 0 -196 36t-105 100q-170 -136 -400 -136q-381 0 -381 304zM266 1477l4 8h396l188 -273h-258zM469 332q0 -103 139 -103q80 0 140.5 43t60.5 107v92q-173 0 -256.5 -37.5t-83.5 -101.5z" />
<glyph unicode="&#xe1;" d="M61 279q0 96 33.5 164.5t92.5 111t156 67t205.5 33.5t260.5 9v53q0 63 -44 96t-114 33q-63 0 -109 -22.5t-46 -71.5v-9h-402q-2 10 -2 29q0 153 146.5 243.5t418.5 90.5q117 0 213.5 -18t176.5 -57.5t125 -110t45 -166.5v-422q0 -36 16.5 -58t48.5 -22h74v-236 q-9 -5 -25 -11.5t-71.5 -18t-116.5 -11.5q-120 0 -196 36t-105 100q-170 -136 -400 -136q-381 0 -381 304zM461 1212l188 273h395l5 -8l-326 -265h-262zM469 332q0 -103 139 -103q80 0 140.5 43t60.5 107v92q-173 0 -256.5 -37.5t-83.5 -101.5z" />
<glyph unicode="&#xe2;" d="M61 279q0 96 33.5 164.5t92.5 111t156 67t205.5 33.5t260.5 9v53q0 63 -44 96t-114 33q-63 0 -109 -22.5t-46 -71.5v-9h-402q-2 10 -2 29q0 153 146.5 243.5t418.5 90.5q117 0 213.5 -18t176.5 -57.5t125 -110t45 -166.5v-422q0 -36 16.5 -58t48.5 -22h74v-236 q-9 -5 -25 -11.5t-71.5 -18t-116.5 -11.5q-120 0 -196 36t-105 100q-170 -136 -400 -136q-381 0 -381 304zM266 1188l287 297h260l287 -297h-266l-152 158l-154 -158h-262zM469 332q0 -103 139 -103q80 0 140.5 43t60.5 107v92q-173 0 -256.5 -37.5t-83.5 -101.5z" />
<glyph unicode="&#xe3;" d="M61 279q0 96 33.5 164.5t92.5 111t156 67t205.5 33.5t260.5 9v53q0 63 -44 96t-114 33q-63 0 -109 -22.5t-46 -71.5v-9h-402q-2 10 -2 29q0 153 146.5 243.5t418.5 90.5q117 0 213.5 -18t176.5 -57.5t125 -110t45 -166.5v-422q0 -36 16.5 -58t48.5 -22h74v-236 q-9 -5 -25 -11.5t-71.5 -18t-116.5 -11.5q-120 0 -196 36t-105 100q-170 -136 -400 -136q-381 0 -381 304zM227 1192q0 115 81.5 204t205.5 89q68 0 185 -41t169 -41q38 0 65 22.5t40 59.5h166q0 -115 -81.5 -204t-205.5 -89q-68 0 -185 41t-169 41q-38 0 -65 -22.5 t-40 -59.5h-166zM469 332q0 -103 139 -103q80 0 140.5 43t60.5 107v92q-173 0 -256.5 -37.5t-83.5 -101.5z" />
<glyph unicode="&#xe4;" d="M61 279q0 96 33.5 164.5t92.5 111t156 67t205.5 33.5t260.5 9v53q0 63 -44 96t-114 33q-63 0 -109 -22.5t-46 -71.5v-9h-402q-2 10 -2 29q0 153 146.5 243.5t418.5 90.5q117 0 213.5 -18t176.5 -57.5t125 -110t45 -166.5v-422q0 -36 16.5 -58t48.5 -22h74v-236 q-9 -5 -25 -11.5t-71.5 -18t-116.5 -11.5q-120 0 -196 36t-105 100q-170 -136 -400 -136q-381 0 -381 304zM301 1200v285h311v-285h-311zM469 332q0 -103 139 -103q80 0 140.5 43t60.5 107v92q-173 0 -256.5 -37.5t-83.5 -101.5zM754 1200v285h311v-285h-311z" />
<glyph unicode="&#xe5;" d="M61 279q0 96 33.5 164.5t92.5 111t156 67t205.5 33.5t260.5 9v53q0 63 -44 96t-114 33q-63 0 -109 -22.5t-46 -71.5v-9h-402q-2 10 -2 29q0 153 146.5 243.5t418.5 90.5q117 0 213.5 -18t176.5 -57.5t125 -110t45 -166.5v-422q0 -36 16.5 -58t48.5 -22h74v-236 q-9 -5 -25 -11.5t-71.5 -18t-116.5 -11.5q-120 0 -196 36t-105 100q-170 -136 -400 -136q-381 0 -381 304zM461 1403q0 92 64.5 157.5t156.5 65.5q93 0 158 -65t65 -158q0 -91 -65 -156t-158 -65q-91 0 -156 64.5t-65 156.5zM469 332q0 -103 139 -103q80 0 140.5 43 t60.5 107v92q-173 0 -256.5 -37.5t-83.5 -101.5zM600 1401q0 -35 24 -57.5t58 -22.5q37 0 60.5 23.5t23.5 60.5q0 35 -24 57.5t-60 22.5q-35 0 -58.5 -23.5t-23.5 -60.5z" />
<glyph unicode="&#xe6;" horiz-adv-x="2048" d="M61 299q0 65 17 116.5t48 89.5t80.5 66t108 45.5t138.5 28.5t164.5 15t191.5 4v53q0 63 -42 96t-108 33q-67 0 -115 -22.5t-48 -71.5v-9h-402q-2 10 -2 29q0 153 146.5 243.5t418.5 90.5q265 0 404 -98q146 98 360 98q570 0 570 -565v-70h-770q0 -116 46.5 -175.5 t149.5 -59.5q93 0 135.5 43t42.5 114h396q0 -197 -139.5 -307.5t-405.5 -110.5q-319 0 -479 150q-200 -150 -443 -150q-112 0 -193.5 16t-144 52t-94 100t-31.5 156zM469 332q0 -103 139 -103q80 0 140.5 43t60.5 107v92q-173 0 -256.5 -37.5t-83.5 -101.5zM1223 664h356 q0 85 -44.5 133.5t-125.5 48.5q-167 0 -186 -182z" />
<glyph unicode="&#xe7;" d="M74 541q0 278 162 421.5t446 143.5q128 0 233 -26t188 -80t129 -144.5t46 -210.5h-395q0 184 -201 184t-201 -231v-117q0 -229 209 -229t209 188h379q0 -112 -40.5 -199t-113 -141.5t-167 -85t-209.5 -37.5l-5 -36q85 -8 138 -51.5t53 -131.5q0 -55 -24 -95t-63 -59 t-77.5 -27.5t-79.5 -8.5q-157 0 -258 33v110q133 -16 242 -16q82 0 82 63q0 66 -78 66h-80l25 153q-258 15 -403.5 158t-145.5 406z" />
<glyph unicode="&#xe8;" d="M74 541q0 278 162 421.5t446 143.5q298 0 454 -139.5t156 -425.5v-70h-811q0 -116 51.5 -175.5t165.5 -59.5q103 0 151 43t48 114h395q0 -197 -149 -307.5t-436 -110.5q-301 0 -467 141t-166 425zM293 1477l4 8h393l191 -273h-260zM483 664h398q0 85 -48.5 133.5 t-134.5 48.5q-192 0 -215 -182z" />
<glyph unicode="&#xe9;" d="M74 541q0 278 162 421.5t446 143.5q298 0 454 -139.5t156 -425.5v-70h-811q0 -116 51.5 -175.5t165.5 -59.5q103 0 151 43t48 114h395q0 -197 -149 -307.5t-436 -110.5q-301 0 -467 141t-166 425zM483 664h398q0 85 -48.5 133.5t-134.5 48.5q-192 0 -215 -182zM485 1212 l191 273h393l4 -8l-325 -265h-263z" />
<glyph unicode="&#xea;" d="M74 541q0 278 162 421.5t446 143.5q298 0 454 -139.5t156 -425.5v-70h-811q0 -116 51.5 -175.5t165.5 -59.5q103 0 151 43t48 114h395q0 -197 -149 -307.5t-436 -110.5q-301 0 -467 141t-166 425zM266 1188l287 297h260l287 -297h-266l-152 158l-154 -158h-262zM483 664 h398q0 85 -48.5 133.5t-134.5 48.5q-192 0 -215 -182z" />
<glyph unicode="&#xeb;" d="M74 541q0 278 162 421.5t446 143.5q298 0 454 -139.5t156 -425.5v-70h-811q0 -116 51.5 -175.5t165.5 -59.5q103 0 151 43t48 114h395q0 -197 -149 -307.5t-436 -110.5q-301 0 -467 141t-166 425zM301 1200v285h311v-285h-311zM483 664h398q0 85 -48.5 133.5t-134.5 48.5 q-192 0 -215 -182zM754 1200v285h311v-285h-311z" />
<glyph unicode="&#xec;" horiz-adv-x="681" d="M-49 1477l4 8h393l191 -273h-260zM137 0v1081h408v-1081h-408z" />
<glyph unicode="&#xed;" horiz-adv-x="681" d="M137 0v1081h408v-1081h-408zM143 1212l191 273h393l4 -8l-325 -265h-263z" />
<glyph unicode="&#xee;" horiz-adv-x="681" d="M-76 1188l287 297h260l287 -297h-266l-152 158l-154 -158h-262zM137 0v1081h408v-1081h-408z" />
<glyph unicode="&#xef;" horiz-adv-x="681" d="M-41 1200v285h311v-285h-311zM137 0v1081h408v-1081h-408zM412 1200v285h311v-285h-311z" />
<glyph unicode="&#xf0;" d="M74 541q0 239 145 385.5t391 146.5q78 0 135 -16q-46 71 -102 143l-338 -39v160l201 22q-97 87 -170 134l2 8h405q60 -30 140 -96l284 32v-159l-139 -17q264 -310 264 -704q0 -278 -163 -422t-447 -144t-446 144t-162 422zM481 481q0 -229 201 -229q203 0 203 229v117 q0 231 -203 231q-201 0 -201 -231v-117z" />
<glyph unicode="&#xf1;" d="M123 0v1081h334l26 -163q63 87 166.5 137.5t218.5 50.5q189 0 283 -105t94 -301v-700h-407v651q0 69 -36 111.5t-102 42.5q-75 0 -122.5 -49.5t-47.5 -120.5v-635h-407zM227 1192q0 115 81.5 204t205.5 89q68 0 185 -41t169 -41q38 0 65 22.5t40 59.5h166 q0 -115 -81.5 -204t-205.5 -89q-68 0 -185 41t-169 41q-38 0 -65 -22.5t-40 -59.5h-166z" />
<glyph unicode="&#xf2;" d="M74 541q0 278 162 421.5t446 143.5t447 -143.5t163 -421.5t-163 -422t-447 -144t-446 144t-162 422zM293 1477l4 8h393l191 -273h-260zM481 481q0 -229 201 -229q203 0 203 229v117q0 231 -203 231q-201 0 -201 -231v-117z" />
<glyph unicode="&#xf3;" d="M74 541q0 278 162 421.5t446 143.5t447 -143.5t163 -421.5t-163 -422t-447 -144t-446 144t-162 422zM481 481q0 -229 201 -229q203 0 203 229v117q0 231 -203 231q-201 0 -201 -231v-117zM485 1212l191 273h393l4 -8l-325 -265h-263z" />
<glyph unicode="&#xf4;" d="M74 541q0 278 162 421.5t446 143.5t447 -143.5t163 -421.5t-163 -422t-447 -144t-446 144t-162 422zM266 1188l287 297h260l287 -297h-266l-152 158l-154 -158h-262zM481 481q0 -229 201 -229q203 0 203 229v117q0 231 -203 231q-201 0 -201 -231v-117z" />
<glyph unicode="&#xf5;" d="M74 541q0 278 162 421.5t446 143.5t447 -143.5t163 -421.5t-163 -422t-447 -144t-446 144t-162 422zM227 1192q0 115 81.5 204t205.5 89q68 0 185 -41t169 -41q38 0 65 22.5t40 59.5h166q0 -115 -81.5 -204t-205.5 -89q-68 0 -185 41t-169 41q-38 0 -65 -22.5t-40 -59.5 h-166zM481 481q0 -229 201 -229q203 0 203 229v117q0 231 -203 231q-201 0 -201 -231v-117z" />
<glyph unicode="&#xf6;" d="M74 541q0 278 162 421.5t446 143.5t447 -143.5t163 -421.5t-163 -422t-447 -144t-446 144t-162 422zM301 1200v285h311v-285h-311zM481 481q0 -229 201 -229q203 0 203 229v117q0 231 -203 231q-201 0 -201 -231v-117zM754 1200v285h311v-285h-311z" />
<glyph unicode="&#xf7;" horiz-adv-x="1351" d="M135 401v271h1082v-271h-1082zM545 31v268h268v-268h-268zM545 772v268h268v-268h-268z" />
<glyph unicode="&#xf8;" d="M74 541q0 278 162 421.5t446 143.5q188 0 322 -64l81 103h189l-146 -182q164 -148 164 -422q0 -278 -163 -422t-447 -144q-170 0 -303 54l-96 -121h-189l158 196q-178 148 -178 437zM481 481q0 -45 6 -82l318 398q-50 32 -123 32q-201 0 -201 -231v-117zM575 274 q46 -22 107 -22q203 0 203 229v117q0 21 -4 57z" />
<glyph unicode="&#xf9;" d="M119 381v700h407v-651q0 -69 36 -111.5t102 -42.5q75 0 122.5 49.5t47.5 120.5v635h407v-1081h-334l-26 164q-63 -88 -166 -138.5t-219 -50.5q-189 0 -283 105t-94 301zM293 1477l4 8h393l191 -273h-260z" />
<glyph unicode="&#xfa;" d="M119 381v700h407v-651q0 -69 36 -111.5t102 -42.5q75 0 122.5 49.5t47.5 120.5v635h407v-1081h-334l-26 164q-63 -88 -166 -138.5t-219 -50.5q-189 0 -283 105t-94 301zM485 1212l191 273h393l4 -8l-325 -265h-263z" />
<glyph unicode="&#xfb;" d="M119 381v700h407v-651q0 -69 36 -111.5t102 -42.5q75 0 122.5 49.5t47.5 120.5v635h407v-1081h-334l-26 164q-63 -88 -166 -138.5t-219 -50.5q-189 0 -283 105t-94 301zM266 1188l287 297h260l287 -297h-266l-152 158l-154 -158h-262z" />
<glyph unicode="&#xfc;" d="M119 381v700h407v-651q0 -69 36 -111.5t102 -42.5q75 0 122.5 49.5t47.5 120.5v635h407v-1081h-334l-26 164q-63 -88 -166 -138.5t-219 -50.5q-189 0 -283 105t-94 301zM301 1200v285h311v-285h-311zM754 1200v285h311v-285h-311z" />
<glyph unicode="&#xfd;" horiz-adv-x="1251" d="M0 1081h438l207 -719h14l191 719h401l-385 -1048q-32 -86 -64.5 -151.5t-79.5 -126.5t-102.5 -100t-132 -62t-168.5 -23q-130 0 -235 37v243h164q154 0 182 150zM428 1212l190 273h396l4 -8l-328 -265h-262z" />
<glyph unicode="&#xfe;" d="M125 -403v1888h407v-506q115 127 304 127q219 0 337.5 -143t118.5 -424q0 -279 -118.5 -421.5t-337.5 -142.5q-190 0 -304 123v-501h-407zM528 508q0 -102 45.5 -167t135.5 -65q176 0 176 211v109q0 209 -176 209q-91 0 -136 -64t-45 -166v-67z" />
<glyph unicode="&#xff;" horiz-adv-x="1251" d="M0 1081h438l207 -719h14l191 719h401l-385 -1048q-32 -86 -64.5 -151.5t-79.5 -126.5t-102.5 -100t-132 -62t-168.5 -23q-130 0 -235 37v243h164q154 0 182 150zM246 1200v285h309v-285h-309zM696 1200v285h312v-285h-312z" />
<glyph unicode="&#x152;" horiz-adv-x="2048" d="M72 705q0 347 146.5 538t414.5 191q236 0 381 -154v129h964v-338h-567v-194h457v-324h-457v-215h582v-338h-979v127q-146 -152 -381 -152q-268 0 -414.5 191.5t-146.5 538.5zM500 639q0 -150 65.5 -238t192.5 -88t192.5 88t65.5 238v131q0 150 -65.5 238t-192.5 88 t-192.5 -88t-65.5 -238v-131z" />
<glyph unicode="&#x153;" horiz-adv-x="2048" d="M59 541q0 278 157 421.5t431 143.5q234 0 381 -102q147 102 377 102q590 0 590 -565v-70h-770q0 -116 46.5 -175.5t149.5 -59.5q93 0 135.5 43t42.5 114h396q0 -197 -144 -307.5t-421 -110.5q-252 0 -402 103q-147 -103 -381 -103q-274 0 -431 144t-157 422zM467 481 q0 -229 180 -229q182 0 182 229v117q0 231 -182 231q-180 0 -180 -231v-117zM1227 664h356q0 85 -43 133.5t-119 48.5q-175 0 -194 -182z" />
<glyph unicode="&#x178;" horiz-adv-x="1593" d="M14 1409h521l270 -469h8l270 469h494l-551 -862v-547h-453v547zM416 1528v284h311v-284h-311zM866 1528v284h312v-284h-312z" />
<glyph unicode="&#x2c6;" horiz-adv-x="681" d="M-72 1188l285 297h262l285 -297h-266l-152 158l-152 -158h-262z" />
<glyph unicode="&#x2dc;" horiz-adv-x="681" d="M-115 1192q0 115 81.5 204t205.5 89q68 0 184.5 -41t169.5 -41q37 0 64.5 23t38.5 59h166q0 -115 -81.5 -204t-205.5 -89q-68 0 -184.5 41t-169.5 41q-37 0 -64.5 -23t-38.5 -59h-166z" />
<glyph unicode="&#x2000;" horiz-adv-x="977" />
<glyph unicode="&#x2001;" horiz-adv-x="1954" />
<glyph unicode="&#x2002;" horiz-adv-x="977" />
<glyph unicode="&#x2003;" horiz-adv-x="1954" />
<glyph unicode="&#x2004;" horiz-adv-x="651" />
<glyph unicode="&#x2005;" horiz-adv-x="488" />
<glyph unicode="&#x2006;" horiz-adv-x="325" />
<glyph unicode="&#x2007;" horiz-adv-x="325" />
<glyph unicode="&#x2008;" horiz-adv-x="244" />
<glyph unicode="&#x2009;" horiz-adv-x="390" />
<glyph unicode="&#x200a;" horiz-adv-x="108" />
<glyph unicode="&#x2010;" horiz-adv-x="681" d="M80 401v324h522v-324h-522z" />
<glyph unicode="&#x2011;" horiz-adv-x="681" d="M80 401v324h522v-324h-522z" />
<glyph unicode="&#x2012;" horiz-adv-x="681" d="M80 401v324h522v-324h-522z" />
<glyph unicode="&#x2013;" horiz-adv-x="1024" d="M0 401v283h1024v-283h-1024z" />
<glyph unicode="&#x2014;" horiz-adv-x="2048" d="M0 401v283h2052v-283h-2052z" />
<glyph unicode="&#x2018;" horiz-adv-x="569" d="M90 678v338l186 393h195l-145 -373h145v-358h-381z" />
<glyph unicode="&#x2019;" horiz-adv-x="569" d="M98 678l146 373h-146v358h381v-338l-186 -393h-195z" />
<glyph unicode="&#x201a;" horiz-adv-x="569" d="M90 0v358h381v-338l-186 -393h-195l146 373h-146z" />
<glyph unicode="&#x201c;" horiz-adv-x="1024" d="M84 678v338l186 393h195l-146 -373h146v-358h-381zM553 678v338l186 393h195l-146 -373h146v-358h-381z" />
<glyph unicode="&#x201d;" horiz-adv-x="1024" d="M90 678l146 373h-146v358h381v-338l-186 -393h-195zM559 678l146 373h-146v358h381v-338l-186 -393h-195z" />
<glyph unicode="&#x201e;" horiz-adv-x="1024" d="M90 0v358h381v-338l-186 -393h-195l146 373h-146zM559 0v358h381v-338l-186 -393h-195l146 373h-146z" />
<glyph unicode="&#x2022;" horiz-adv-x="1024" d="M180 707q0 136 97.5 233.5t234.5 97.5t234.5 -97.5t97.5 -233.5q0 -137 -98 -234.5t-234 -97.5t-234 97.5t-98 234.5z" />
<glyph unicode="&#x2026;" horiz-adv-x="2048" d="M125 0v408h434v-408h-434zM807 0v408h434v-408h-434zM1491 0v408h434v-408h-434z" />
<glyph unicode="&#x202f;" horiz-adv-x="390" />
<glyph unicode="&#x2039;" horiz-adv-x="681" d="M23 664l342 417h292l-282 -417l282 -420h-292z" />
<glyph unicode="&#x203a;" horiz-adv-x="681" d="M25 244l282 420l-282 417h292l342 -417l-342 -420h-292z" />
<glyph unicode="&#x205f;" horiz-adv-x="488" />
<glyph unicode="&#x20ac;" d="M47 465v190h184v99h-184v190h211q30 109 88 195t128.5 140.5t156.5 90t169.5 50t170.5 14.5q175 0 315 -39v-297q-12 6 -33.5 14.5t-87.5 22.5t-131 14q-131 0 -221 -53.5t-135 -151.5h428v-190h-473v-45q0 -38 2 -54h471v-190h-426q47 -98 136 -151.5t218 -53.5 q65 0 128 14t94 28l30 13v-288q-166 -52 -321 -52q-68 0 -135.5 10.5t-139 32t-137 60.5t-123 91.5t-102.5 128t-70 167.5h-211z" />
<glyph unicode="&#x2122;" horiz-adv-x="1945" d="M37 1200v209h797v-209h-267v-606h-262v606h-268zM897 594v815h369l120 -471h11l119 471h356v-815h-258v254q0 61 5.5 135.5t10.5 118.5l6 45h-8l-151 -553h-205l-152 551h-8q25 -160 25 -297v-254h-240z" />
<glyph unicode="&#xe000;" horiz-adv-x="1085" d="M0 0v1085h1085v-1085h-1085z" />
<glyph unicode="&#xfb01;" d="M16 805v276h140v45q0 108 28.5 184t82.5 118.5t123 61.5t161 19q41 0 100.5 -10.5t96.5 -25.5v-240h-74q-65 0 -88 -24.5t-23 -84.5v-43h185v-276h-185v-805h-407v805h-140zM834 0v1081h407v-1081h-407zM834 1208v277h407v-277h-407z" />
<glyph unicode="&#xfb02;" d="M16 805v276h140v45q0 108 28.5 184t82.5 118.5t123 61.5t161 19q41 0 100.5 -10.5t96.5 -25.5v-240h-74q-65 0 -88 -24.5t-23 -84.5v-43h185v-276h-185v-805h-407v805h-140zM836 0v1485h407v-1485h-407z" />
</font>
</defs>
</svg>
