<?xml version="1.0" standalone="no"?>
<!DOCTYPE svg PUBLIC "-//W3C//DTD SVG 1.1//EN" "http://www.w3.org/Graphics/SVG/1.1/DTD/svg11.dtd" >
<svg xmlns="http://www.w3.org/2000/svg">
<metadata></metadata>
<defs>
<font id="alegreya_sansmedium_italic" horiz-adv-x="390" >
<font-face units-per-em="1000" ascent="800" descent="-200" />
<missing-glyph horiz-adv-x="143" />
<glyph unicode="&#xa8;I" horiz-adv-x="270" d="M57 0l30 193l50 449h99l-60 -441l-20 -201h-99zM87 789q0 24 14 38.5t38 14.5q22 0 35 -13t13 -36q0 -25 -14 -39.5t-37 -14.5q-49 0 -49 50zM222 789q0 24 14 38.5t38 14.5q22 0 35 -13t13 -36q0 -25 -14 -39.5t-37 -14.5q-49 0 -49 50z" />
<glyph unicode="&#xa8;O" horiz-adv-x="618" d="M43 257q0 184 83.5 288t236.5 104q113 0 175.5 -67.5t62.5 -192.5q0 -185 -84 -291t-237 -106q-112 0 -174.5 69.5t-62.5 195.5zM144 262q0 -97 35.5 -144t109.5 -47q208 0 208 308q0 97 -36 143t-110 46q-207 0 -207 -306zM246 790q0 24 14 38.5t39 14.5 q22 0 34.5 -13.5t12.5 -35.5q0 -25 -14 -39.5t-37 -14.5q-49 0 -49 50zM411 789q0 24 14 38.5t38 14.5q22 0 34.5 -13t12.5 -36q0 -25 -13.5 -39.5t-36.5 -14.5q-49 0 -49 50z" />
<glyph unicode="&#xb4;Y" horiz-adv-x="518" d="M62 642h102l8 -39l89 -273h8l168 270l21 42h104l-266 -415l-7 -43l-19 -184h-99l30 184l4 44zM222 765q130 66 198 107l10 -3l25 -57l-4 -10q-78 -35 -201 -83l-11 4z" />
<glyph unicode="&#xa8;i" horiz-adv-x="225" d="M38 -4l51 361l4 101l94 7l-50 -354l-4 -108zM40 608q0 24 14 38.5t38 14.5q22 0 35 -13t13 -36q0 -25 -14 -39.5t-37 -14.5q-49 0 -49 50zM175 608q0 24 14 38.5t38 14.5q22 0 35 -13t13 -36q0 -25 -14 -39.5t-37 -14.5q-49 0 -49 50z" />
<glyph unicode="&#xa8;o" horiz-adv-x="420" d="M32 155q0 136 62.5 222t169.5 92h10q116 -22 116 -157q0 -140 -61 -226.5t-168 -94.5l-10 1q-60 12 -89.5 51t-29.5 112zM120 155q0 -48 12.5 -69t42.5 -21q62 0 93 63.5t31 176.5q0 48 -12.5 68t-41.5 20q-125 0 -125 -238zM134 609q0 24 14 38.5t39 14.5 q22 0 34.5 -13.5t12.5 -35.5q0 -25 -14 -39.5t-37 -14.5q-49 0 -49 50zM299 608q0 24 14 38.5t38 14.5q22 0 34.5 -13t12.5 -36q0 -25 -13.5 -39.5t-36.5 -14.5q-49 0 -49 50z" />
<glyph unicode="&#xb4;y" horiz-adv-x="421" d="M-94 -99l10 8q42 -14 75 -14q84 0 154 93l-94 470l94 7l10 -82l43 -275h15l76 152q34 70 34 110q0 35 -22 67l4 11l88 19q21 -36 21 -80q0 -65 -50 -154l-108 -195q-71 -127 -131.5 -180t-130.5 -53q-44 0 -83 16zM124 558q109 91 170 148l9 -1l37 -52l-3 -10 q-98 -71 -178 -124l-10 1z" />
<glyph unicode="&#xfb01;" horiz-adv-x="515" d="M50 397l7 54h75l7 56q14 97 61 147t134 50l115 -23l3 -8l-22 -73l-14 -3q-57 37 -100 37q-35 0 -58.5 -26.5t-30.5 -76.5l-11 -80h175l76 16l7 -6l-49 -350l-4 -108l-96 -7l52 361l1 33h-171q-24 -177 -55 -399l-4 -108l-97 -7l46 314l26 200h-68z" />
<glyph unicode="&#xfb02;" horiz-adv-x="521" d="M50 397l8 54h74l9 64q28 197 204 197l95 -13l72 5l-83 -593l-4 -108l-95 -7l85 600l1 29q-48 16 -91 16q-26 0 -45.5 -11.5t-33 -34.5t-19.5 -57l-12 -87h106l7 -8l-8 -53h-113q-24 -178 -56 -399l-4 -108l-95 -7q52 371 72 514h-69z" />
<glyph horiz-adv-x="1000" />
<glyph horiz-adv-x="1000" />
<glyph unicode="&#xd;" horiz-adv-x="1000" />
<glyph unicode=" "  horiz-adv-x="143" />
<glyph unicode="&#x09;" horiz-adv-x="143" />
<glyph unicode="&#xa0;" horiz-adv-x="143" />
<glyph unicode="!" horiz-adv-x="266" d="M62 48q0 26 15 41t41 15q24 0 37.5 -14t13.5 -39q0 -26 -15 -41t-40 -15q-52 0 -52 53zM100 228l49 418l11 11l76 5l10 -12l-79 -426l-58 -7z" />
<glyph unicode="&#x22;" horiz-adv-x="306" d="M79 437l27 197l75 6l6 -8l-52 -195l-49 -7zM206 437l27 197l76 6l5 -8l-52 -195l-49 -7z" />
<glyph unicode="#" horiz-adv-x="526" d="M20 198l4 52h107l24 112h-94l-7 7l5 51h108l33 154h56l6 -9l-31 -145h106l33 154h56l7 -9l-31 -145h98l7 -6l-6 -52h-112l-24 -112h101l6 -7l-5 -52h-115l-34 -159h-56l-6 7l32 152h-106l-34 -159h-57l-5 7l32 152h-91zM195 250h106l24 112h-106z" />
<glyph unicode="$" horiz-adv-x="434" d="M22 27l18 81l11 5q47 -49 118 -56l22 162q-27 12 -44 21.5t-37 25.5t-29.5 37t-9.5 48q0 56 42.5 99t114.5 52l16 139h48l9 -9l-17 -129q61 -3 107 -23l-21 -77l-14 -4q-38 32 -79 40l-21 -159q35 -16 56 -29t39.5 -39.5t18.5 -60.5q0 -53 -40 -97t-110 -56l-16 -129h-48 l-8 9l14 116q-81 4 -140 33zM152 366q0 -33 50 -61l18 132q-32 -7 -50 -27t-18 -44zM228 63q28 10 44.5 29t16.5 42q0 34 -44 59z" />
<glyph unicode="%" horiz-adv-x="841" d="M64 429q0 102 47 159.5t133 57.5q61 0 93.5 -35.5t32.5 -103.5q0 -102 -46.5 -159.5t-133.5 -57.5q-61 0 -93.5 36.5t-32.5 102.5zM107 -54l561 735l37 -25l5 -15l-560 -732l-39 25zM128 441q0 -89 73 -89q104 0 104 140q0 89 -75 89q-50 0 -76 -36t-26 -104zM492 135 q0 101 47 158.5t133 57.5q61 0 93.5 -35.5t32.5 -103.5q0 -102 -46.5 -159.5t-133.5 -57.5q-61 0 -93.5 36.5t-32.5 103.5zM556 147q0 -90 73 -90q104 0 104 139q0 90 -75 90q-50 0 -76 -36t-26 -103z" />
<glyph unicode="&#x26;" horiz-adv-x="642" d="M53 150q0 114 145 177v4q-81 44 -81 140q0 82 59 131t163 49q75 0 159 -34l-25 -79l-14 -4q-73 44 -138 44q-56 0 -87.5 -27.5t-31.5 -79.5q0 -49 25.5 -76.5t71.5 -29.5l265 14l103 14l9 -14l-18 -66l-163 -8l-2 -5q26 -40 26 -98q0 -90 -65 -150.5t-185 -60.5 q-101 0 -158.5 43t-57.5 116zM148 162q0 -48 35.5 -75.5t97.5 -27.5q76 0 116 39t40 104q0 66 -41 99l-140 -5q-108 -50 -108 -134z" />
<glyph unicode="'" horiz-adv-x="179" d="M79 437l27 197l75 6l6 -8l-52 -195l-49 -7z" />
<glyph unicode="(" horiz-adv-x="290" d="M62 153q0 66 9.5 130t32 136.5t68 136.5t110.5 106h9l32 -32l-1 -8q-54 -40 -92 -101t-56 -129t-25.5 -125.5t-7.5 -114.5q0 -89 20.5 -147.5t71.5 -105.5l-1 -8l-40 -32h-9q-66 54 -93.5 121.5t-27.5 172.5z" />
<glyph unicode=")" horiz-adv-x="291" d="M-25 -109l1 8q54 40 92 101t56 129t25.5 126t7.5 115q0 88 -20.5 146.5t-71.5 105.5l1 8l39 32h9q66 -54 94 -121.5t28 -172.5q0 -65 -9.5 -129.5t-32 -137t-68.5 -136.5t-110 -106h-9z" />
<glyph unicode="*" horiz-adv-x="378" d="M83 590q0 40 9 67l9 2l98 -62l-5 -37l-9 -4zM104 446v8l87 83l32 -17l1 -10l-58 -94q-24 7 -62 30zM211 726q31 11 66 11l4 -8l-25 -120l-37 -5l-6 8zM243 513l26 25l10 -1l63 -92q-16 -25 -47 -48l-8 1zM268 590l4 9l100 37q22 -32 30 -61l-4 -5l-114 -14z" />
<glyph unicode="+" horiz-adv-x="477" d="M28 237l13 60h171l22 173l61 6l7 -8l-22 -171h170l8 -7l-14 -60h-172l-21 -173l-61 -5l-6 7l20 171h-171z" />
<glyph unicode="," horiz-adv-x="229" d="M13 -81q55 44 55 91q0 29 -31 52v9q34 21 69 31q43 -29 43 -73q0 -72 -103 -147l-33 29v8z" />
<glyph unicode="-" horiz-adv-x="306" d="M26 210l8 62l244 34l8 -8l-8 -61l-244 -35z" />
<glyph unicode="." horiz-adv-x="230" d="M39 48q0 26 15 41t41 15q24 0 37.5 -14t13.5 -39q0 -26 -15 -41t-40 -15q-52 0 -52 53z" />
<glyph unicode="/" horiz-adv-x="286" d="M-12 -105l260 784h66l7 -10l-260 -783h-68z" />
<glyph unicode="0" horiz-adv-x="529" d="M44 211q0 131 68 213.5t188 82.5q190 0 190 -220q0 -133 -67 -214t-186 -81q-193 0 -193 219zM122 223q0 -74 29.5 -109.5t94.5 -35.5q81 0 123.5 51t42.5 142q0 75 -30.5 111t-95.5 36q-80 0 -122 -52t-42 -143z" />
<glyph unicode="1" horiz-adv-x="349" d="M27 365l9 77l221 63l12 -10l-41 -288l-20 -207h-98l29 196l24 198l-128 -34z" />
<glyph unicode="2" horiz-adv-x="461" d="M16 2l8 60l153 149q65 63 92.5 98t27.5 63q0 23 -16 36.5t-47 13.5q-70 0 -143 -65h-12l-6 75q97 73 187 73q60 0 98 -30t38 -80q0 -41 -32.5 -86.5t-119.5 -135.5l-90 -94l2 -4h165l87 7l6 -6l-22 -80l-108 4h-225l-37 -2z" />
<glyph unicode="3" horiz-adv-x="419" d="M-2 -86l4 84l9 8q49 -26 102 -26q67 0 108.5 31t41.5 84q0 77 -105 82h-62l-5 6l11 68l46 1q43 0 83.5 33t40.5 79q0 29 -19 45.5t-53 16.5q-57 0 -130 -56h-11l-4 75q83 61 162 61q72 0 114.5 -33.5t42.5 -87.5q0 -43 -30.5 -86t-88.5 -70v-4q103 -31 103 -124 q0 -85 -73 -141.5t-182 -56.5q-52 0 -105 11z" />
<glyph unicode="4" horiz-adv-x="488" d="M6 77l7 64l292 360h91l-45 -356h90l5 -9l-13 -68l-91 2l-15 -154l-7 -7l-75 -6l-5 7l23 160h-178l-73 -2zM100 145h174l30 241h-7z" />
<glyph unicode="5" horiz-adv-x="422" d="M-1 -87l4 83l8 8q56 -26 111 -26q67 0 108.5 35.5t41.5 90.5q0 71 -98 91l-98 18l-7 8l33 269l16 13l55 -2h137l97 4l5 -7l-19 -76l-8 -7l-79 7h-136l-19 -141l62 -13q152 -32 152 -152q0 -90 -76 -152t-187 -62q-44 0 -103 11z" />
<glyph unicode="6" horiz-adv-x="474" d="M37 183q0 56 19 111.5t57.5 111t107.5 105t160 83.5h5l72 -44l-1 -10q-238 -74 -304 -218l6 -8q63 39 116 39q68 0 112 -45t44 -111q0 -25 -6 -51.5t-21.5 -54.5t-38.5 -49.5t-59.5 -35.5t-82.5 -14q-90 0 -138 51t-48 140zM126 188q0 -60 22 -93.5t79 -33.5 q61 0 87.5 36.5t26.5 89.5q0 96 -88 96q-64 0 -125 -53q-2 -28 -2 -42z" />
<glyph unicode="7" horiz-adv-x="423" d="M40 -61l284 481h-193l-82 -9l-6 10l17 83l97 -3h226l44 2l-7 -72l-235 -403l-64 -129l-77 24z" />
<glyph unicode="8" horiz-adv-x="482" d="M36 139q0 56 35 91t98 63l1 5q-38 22 -59 50.5t-21 76.5q0 74 52 121t136 47q73 0 116.5 -36t43.5 -99q0 -92 -111 -149l-1 -5q47 -24 72.5 -54.5t25.5 -83.5q0 -77 -56.5 -125.5t-148.5 -48.5q-84 0 -133.5 40.5t-49.5 106.5zM119 151q0 -43 26.5 -67.5t75.5 -24.5 q54 0 88 29t34 72q0 39 -26 60.5t-82 44.5q-27 -10 -44 -18t-35.5 -21.5t-27.5 -32t-9 -42.5zM170 433q0 -38 22 -58.5t67 -39.5q47 21 73.5 46.5t26.5 67.5q0 36 -21.5 56t-61.5 20q-47 0 -76.5 -25.5t-29.5 -66.5z" />
<glyph unicode="9" horiz-adv-x="474" d="M21 -49l1 10q238 74 304 218l-6 8q-63 -39 -116 -39q-68 0 -112 45t-44 111q0 25 6 51.5t21.5 54.5t38.5 49.5t59.5 35.5t82.5 14q90 0 138 -51t48 -140q0 -56 -19 -111.5t-57.5 -111t-107.5 -105t-160 -83.5h-5zM138 314q0 -96 88 -96q64 0 125 53q2 28 2 42 q0 60 -22 93.5t-79 33.5q-61 0 -87.5 -36.5t-26.5 -89.5z" />
<glyph unicode=":" horiz-adv-x="229" d="M38 48q0 26 15 41t41 15q24 0 37.5 -14t13.5 -39q0 -26 -15 -41t-40 -15q-52 0 -52 53zM71 315q0 26 15 41t41 15q24 0 37.5 -14t13.5 -38q0 -26 -15 -41.5t-40 -15.5t-38.5 14t-13.5 39z" />
<glyph unicode=";" horiz-adv-x="229" d="M11 -81q55 44 55 91q0 29 -32 52l1 9q34 21 69 31q42 -30 42 -73q0 -73 -103 -147l-32 29v8zM69 315q0 25 15.5 40.5t40.5 15.5q24 0 37.5 -14t13.5 -38q0 -26 -14.5 -41.5t-39.5 -15.5t-39 14t-14 39z" />
<glyph unicode="&#x3c;" horiz-adv-x="497" d="M34 223l9 80l9 10l397 153l14 -56l-5 -9l-347 -133v-6l315 -126l-21 -55l-11 -7z" />
<glyph unicode="=" horiz-adv-x="478" d="M24 149l5 60h410l8 -6l-5 -60h-412zM45 323l6 60h410l8 -6l-6 -61h-411z" />
<glyph unicode="&#x3e;" horiz-adv-x="503" d="M51 136l347 126v6l-314 133l-3 9l28 56l360 -153l6 -10l-9 -80l-399 -149l-9 7z" />
<glyph unicode="?" horiz-adv-x="335" d="M72 48q0 26 15 41t41 15q24 0 37.5 -14t13.5 -39q0 -26 -15 -41t-40 -15q-52 0 -52 53zM93 605l25 53l11 6q116 -7 178 -44.5t62 -101.5q0 -90 -104 -148l-86 -51l-2 -4l-6 -92l-69 -9l-7 8l6 117l6 10l101 54q71 39 71 96q0 84 -180 96z" />
<glyph unicode="@" horiz-adv-x="831" d="M33 187q0 191 118.5 312.5t311.5 121.5q155 0 248 -86.5t93 -231.5q0 -143 -91.5 -222t-260.5 -84l27 189h-11q-69 -118 -147 -194h-16q-85 43 -85 160q0 70 25.5 134.5t81 114.5t131.5 64h5l67 -23l56 24l10 -6l-49 -349l-2 -44q91 12 142 73.5t51 159.5 q0 119 -77.5 189.5t-208.5 68.5q-158 -2 -255 -102.5t-97 -256.5q0 -161 103.5 -252.5t278.5 -91.5l4 -10l-29 -47q-193 2 -308.5 106t-115.5 283zM301 179q0 -91 29 -91q12 0 37.5 27t63 89.5t71.5 142.5l1 8l1 15l-63 23q-64 0 -102 -61t-38 -153z" />
<glyph unicode="A" horiz-adv-x="561" d="M-16 0l298 642h115l118 -642h-99l-7 71l-16 92l-129 3l-117 -2l-40 -89l-26 -75h-97zM185 245l96 -2l99 1l-51 300h-8z" />
<glyph unicode="B" horiz-adv-x="532" d="M57 0l30 193l51 449l185 1q81 0 127 -35t46 -102q0 -60 -29.5 -104.5t-83.5 -67.5q111 -37 111 -134q0 -204 -286 -204q-95 0 -150 4h-1zM163 77q48 -4 69 -4q77 0 119.5 32.5t42.5 91.5q0 78 -94 92l-113 -1l-12 -87zM198 365l98 -3q99 24 99 127q0 41 -24 59t-78 18 h-68z" />
<glyph unicode="C" horiz-adv-x="503" d="M43 257q0 184 85 287.5t238 103.5q97 0 164 -45l-30 -87l-9 -3q-58 53 -137 53q-99 0 -153 -76.5t-54 -217.5q0 -96 38 -146t109 -50q85 0 161 56l9 -6l-20 -90q-80 -43 -165 -43q-113 0 -174.5 69t-61.5 195z" />
<glyph unicode="D" horiz-adv-x="627" d="M57 0l30 193l51 449h1l224 4q118 0 182.5 -65.5t64.5 -185.5q0 -188 -88.5 -294.5t-252.5 -106.5q-99 0 -211 6h-1zM164 80q77 -7 125 -7q104 0 160.5 77.5t56.5 227.5q0 187 -154 187q-54 0 -126 -4l-51 -360z" />
<glyph unicode="E" horiz-adv-x="475" d="M57 0l30 193l51 449h362l5 -9l-17 -76l-145 4l-117 -1l-27 -192l112 -2l101 3l5 -7l-16 -76l-108 3l-105 -2l-12 -86l-12 -120l119 -2l147 5l3 -8l-15 -76h-361z" />
<glyph unicode="F" horiz-adv-x="426" d="M57 0l30 193l51 449h342l5 -9l-18 -78l-141 6l-100 -1l-29 -206l96 -2l103 3l5 -9l-17 -74l-109 3l-89 -1l-10 -73l-20 -201h-99z" />
<glyph unicode="G" horiz-adv-x="578" d="M41 249q0 191 90 295t256 104q100 0 183 -43l-33 -92l-10 -2q-82 55 -159 55q-226 0 -226 -310q0 -94 39.5 -138t122.5 -44q41 0 107 21l11 67l10 94l92 7l-12 -87l-15 -145q-111 -39 -201 -39q-125 0 -190 67.5t-65 189.5z" />
<glyph unicode="H" horiz-adv-x="662" d="M57 0l29 193l51 449h99l-38 -276l150 -3l150 3l31 276h100l-61 -441l-20 -201h-98l29 193l10 89l-159 3l-144 -3l-11 -81l-19 -201h-99z" />
<glyph unicode="I" horiz-adv-x="270" d="M57 0l29 193l51 449h99l-61 -441l-19 -201h-99z" />
<glyph unicode="J" horiz-adv-x="311" d="M-30 -49l1 11q71 36 102.5 70.5t38.5 87.5q12 86 30.5 255.5t20.5 189.5l-113 -2l-8 8l14 71h216l-60 -430l-9 -93q-10 -78 -56 -128t-149 -94z" />
<glyph unicode="K" horiz-adv-x="538" d="M56 0l30 193l51 449h99l-61 -441l-20 -201h-99zM200 336l1 6l223 242l45 58h108l-274 -305q89 -151 214 -316l-3 -12q-52 -12 -97 -18l-10 5q-122 185 -207 340z" />
<glyph unicode="L" horiz-adv-x="406" d="M54 0l30 193l50 449h100l-61 -441l-12 -119h220l4 -8l-17 -74h-314z" />
<glyph unicode="M" horiz-adv-x="761" d="M25 0l143 642h112q11 -68 26.5 -142t35.5 -162.5t30 -138.5h8l169 350l41 93h111l-23 -642h-88l13 195l8 296h-7l-210 -419h-79l-95 419h-8l-64 -288l-41 -203h-82z" />
<glyph unicode="N" horiz-adv-x="662" d="M57 0l29 190l53 452h103l230 -489h7l58 484l93 7l-63 -453l-20 -191h-104l-230 488h-7l-35 -274l-23 -214h-91z" />
<glyph unicode="O" horiz-adv-x="618" d="M43 257q0 184 83 288t237 104q113 0 175.5 -67.5t62.5 -192.5q0 -185 -84.5 -291t-237.5 -106q-111 0 -173.5 69.5t-62.5 195.5zM144 262q0 -97 35.5 -144t109.5 -47q208 0 208 308q0 97 -35.5 143t-109.5 46q-208 0 -208 -306z" />
<glyph unicode="P" horiz-adv-x="514" d="M57 0l30 193l51 449l197 1q84 0 132 -43t48 -126q0 -112 -72.5 -183.5t-193.5 -71.5h-71q-4 -42 -12 -121t-10 -98h-99zM189 298l105 -3q54 10 86.5 54.5t32.5 109.5q0 52 -24.5 77.5t-80.5 28.5l-82 -3z" />
<glyph unicode="Q" horiz-adv-x="617" d="M43 257q0 184 83.5 288t236.5 104q113 0 175.5 -67.5t62.5 -192.5q0 -148 -55 -247t-158 -133q128 -94 290 -126l2 -12q-19 -35 -45 -63l-8 -3q-192 52 -333 187h-15q-111 0 -173.5 69.5t-62.5 195.5zM144 262q0 -97 35.5 -144t109.5 -47q208 0 208 308q0 97 -35.5 143 t-109.5 46q-208 0 -208 -306z" />
<glyph unicode="R" horiz-adv-x="547" d="M57 0l29 193l52 449l200 1q83 0 130.5 -41.5t47.5 -117.5q0 -75 -39.5 -134.5t-109.5 -92.5q57 -119 126 -234l-2 -11q-49 -17 -96 -21l-10 8q-64 135 -102 232h-104l-4 -30l-19 -201h-99zM191 311l107 -3q115 36 115 160q0 92 -105 97l-82 -3z" />
<glyph unicode="S" horiz-adv-x="464" d="M15 36l25 97l12 6q63 -69 151 -69q53 0 86 28t33 69q0 32 -24.5 57.5t-60 46t-71 43t-60 59.5t-24.5 85q0 81 64 135.5t161 54.5q76 0 150 -31l-27 -90l-17 -6q-54 48 -121 48q-51 0 -82 -27t-31 -65q0 -30 25 -55.5t60.5 -46t71.5 -44t61 -60.5t25 -85q0 -82 -65.5 -138 t-165.5 -56q-96 0 -176 44z" />
<glyph unicode="T" horiz-adv-x="475" d="M61 567l18 75h424l5 -9l-17 -75l-109 6h-52l-50 -363l-20 -201h-99l31 193l40 371h-52l-113 -6z" />
<glyph unicode="U" horiz-adv-x="606" d="M65 180q0 24 3 53l13 88l37 321h97l-53 -396q-3 -24 -3 -43q0 -126 124 -126q146 0 164 159l45 406h98l-43 -327l-9 -74q-14 -120 -80.5 -184.5t-181.5 -64.5q-99 0 -155 49t-56 139z" />
<glyph unicode="V" horiz-adv-x="548" d="M63 642h100l6 -72l82 -474h6l215 469l26 77h96l-296 -642h-116z" />
<glyph unicode="W" horiz-adv-x="859" d="M71 642h96l2 -67l76 -470h7l167 377l-29 160h101l5 -77l78 -460h7l207 464l24 73h92l-293 -642h-102l-65 351h-8l-156 -351h-104z" />
<glyph unicode="X" horiz-adv-x="573" d="M-8 0l243 327l-155 315h115l19 -56l95 -189l143 192l32 53h105l-229 -313l159 -329h-114l-19 56l-102 202l-158 -208l-32 -50h-102z" />
<glyph unicode="Y" horiz-adv-x="518" d="M62 642h102l7 -39l89 -273h9l167 270l21 42h105l-267 -416l-6 -42l-19 -184h-99l30 184l4 44z" />
<glyph unicode="Z" horiz-adv-x="514" d="M2 -3l10 72l392 494h-218l-100 -8l-4 6l19 82l376 -1l52 1l-9 -73l-391 -492h234l98 8l4 -6l-18 -82l-123 2h-259z" />
<glyph unicode="[" horiz-adv-x="291" d="M41 -118l51 377l41 378l191 10l4 -6l-6 -45l-116 -13l-79 -648l113 -12l-6 -46l-6 -5z" />
<glyph unicode="\" horiz-adv-x="298" d="M24 669l8 10h66l206 -784l-7 -9h-67z" />
<glyph unicode="]" horiz-adv-x="291" d="M-30 -122l6 45l116 12l80 649l-114 12l6 46l6 5l187 -10l-50 -378l-42 -377l-191 -10z" />
<glyph unicode="^" horiz-adv-x="429" d="M7 133l196 354l11 6h80l105 -355l-8 -9l-57 -14l-88 307h-6l-170 -305l-10 -5z" />
<glyph unicode="_" horiz-adv-x="448" d="M-61 -144l12 56h466l6 -7l-12 -56h-465z" />
<glyph unicode="`" d="M133 653l36 52l10 1q64 -62 170 -148l-26 -38l-10 -1q-80 53 -178 124z" />
<glyph unicode="a" horiz-adv-x="447" d="M28 153q0 108 62 200.5t174 114.5h5l67 -24l59 25l10 -6l-49 -352l-4 -108l-96 -7l26 182h-11q-65 -111 -140 -186h-16q-87 41 -87 161zM115 180q0 -87 27 -87q12 0 36.5 27t60 89t69.5 144v15l-63 24q-60 0 -95 -60t-35 -152z" />
<glyph unicode="b" horiz-adv-x="449" d="M44 19l82 577l1 101l96 7l-59 -422h12q61 107 140 186h16q86 -42 86 -161q0 -70 -25 -134.5t-80 -115.5t-130 -65h-5l-74 16zM139 85l63 -18q60 0 95 60.5t35 151.5q0 89 -27 89q-12 0 -35.5 -26.5t-59.5 -87t-69 -139.5z" />
<glyph unicode="c" horiz-adv-x="341" d="M30 163q0 132 61 218.5t180 86.5l68 -22l6 -13l-26 -74l-20 -2q-34 37 -67 37q-52 0 -82.5 -56.5t-30.5 -156.5q0 -58 13 -83t41 -25q49 0 93 85l14 -1l30 -40q-31 -53 -65 -81t-81 -43h-14q-64 10 -92 48t-28 122z" />
<glyph unicode="d" horiz-adv-x="449" d="M27 153q0 69 25 133.5t81 116t132 65.5h5l51 -19l21 147l2 101l97 7l-84 -593l-4 -108l-96 -7l26 182h-11q-64 -109 -141 -186h-17q-87 41 -87 161zM113 181q0 -89 28 -89q12 0 36 26.5t60.5 87.5t69.5 140l3 22l-64 24q-61 0 -97 -60t-36 -151z" />
<glyph unicode="e" horiz-adv-x="385" d="M30 159q0 134 64 220t169 91l11 -1q91 -16 91 -97q0 -117 -245 -197q3 -104 60 -104q32 0 62.5 24.5t51.5 63.5l14 -1l32 -42q-74 -101 -162 -123h-13q-135 10 -135 166zM123 241q157 47 157 124q0 38 -43 38q-44 0 -75 -43.5t-39 -118.5z" />
<glyph unicode="f" horiz-adv-x="290" d="M50 397l7 54h75l8 56q13 97 61.5 147t137.5 50l97 -15l4 -8l-26 -68l-13 -2q-41 23 -82 23q-37 0 -61.5 -26.5t-30.5 -76.5l-11 -80h105l7 -8l-8 -53h-112q-24 -178 -56 -399l-4 -108l-96 -7q53 370 72 514h-69z" />
<glyph unicode="g" horiz-adv-x="450" d="M-56 -50l4 10l139 78l1 9q-44 37 -44 121q0 109 58.5 194t164.5 105h5l67 -24l58 26l11 -6l-50 -351l-7 -72q-15 -110 -82 -174t-157 -64q-68 0 -112 38.5t-56 109.5zM45 -60q0 -26 24.5 -46.5t63.5 -20.5q50 0 85 36.5t45 104.5l24 175h-12q-55 -103 -133 -167l-86 -63 q-11 -10 -11 -19zM128 202q0 -32 5 -54.5t10.5 -31t11.5 -8.5q10 0 32.5 26t56 81.5t65.5 126.5l2 15l1 12l-63 25q-58 0 -89.5 -54t-31.5 -138z" />
<glyph unicode="h" horiz-adv-x="479" d="M40 -4l86 600l1 101l96 7l-62 -445h10q84 144 161 207h11q26 -5 45.5 -16.5t31 -30.5t11.5 -43q-7 -52 -22 -146.5t-19 -119.5l-5 -107l-98 -7l53 330l1 11q0 26 -18 26q-28 0 -76 -66t-107 -190l-4 -104z" />
<glyph unicode="i" horiz-adv-x="225" d="M38 -4l51 361l4 101l94 7l-50 -354l-4 -108zM105 618q0 26 15 41t40 15t38.5 -14t13.5 -38q0 -26 -15 -41.5t-40 -15.5q-52 0 -52 53z" />
<glyph unicode="j" horiz-adv-x="242" d="M-44 -151l1 10q47 30 70 64.5t30 92.5l47 340l2 34h-73l-5 7l8 54h68l94 13l4 -4l-50 -348l-9 -92q-10 -78 -45 -126t-111 -88zM116 618q0 26 15 41t40 15t38.5 -14t13.5 -38q0 -26 -15 -41.5t-40 -15.5q-52 0 -52 53z" />
<glyph unicode="k" horiz-adv-x="477" d="M41 -4l85 600l2 101l96 7l-62 -440h12q99 150 172 201l14 1q92 -19 92 -105q0 -96 -136 -179q46 -82 106 -173l-4 -7l-80 -14l-9 4q-46 76 -97 184l3 15q123 79 123 144q0 28 -20 28q-32 0 -83 -65t-115 -199l-3 -96z" />
<glyph unicode="l" horiz-adv-x="231" d="M41 -4l85 600l2 101l95 7l-83 -593l-4 -108z" />
<glyph unicode="m" horiz-adv-x="730" d="M38 -4l52 361l4 101l94 7l-29 -206h10q84 144 161 207h11q40 -8 64.5 -31.5t23.5 -58.5l-1 -13l-16 -104h10q84 144 161 207h11q40 -8 64.5 -31.5t23.5 -58.5q-7 -52 -22.5 -146.5t-19.5 -119.5l-5 -107l-97 -7l52 330l1 11q0 26 -17 26q-29 0 -77.5 -67.5t-108.5 -195.5 l-5 -97l-98 -7l53 330l1 11q0 26 -18 26q-28 0 -76 -66t-107 -190l-4 -104z" />
<glyph unicode="n" horiz-adv-x="477" d="M38 -4l52 361l4 101l94 7l-29 -206h10q84 144 161 207h11q39 -8 64 -31.5t24 -58.5q-7 -52 -22 -146.5t-19 -119.5l-5 -107l-98 -7l53 330l1 11q0 26 -18 26q-28 0 -76 -66t-107 -190l-4 -104z" />
<glyph unicode="o" horiz-adv-x="420" d="M32 155q0 136 62.5 222t168.5 92h10q116 -22 116 -157q0 -141 -60.5 -227t-168.5 -94l-10 1q-118 23 -118 163zM120 155q0 -48 12.5 -69t42.5 -21q62 0 93 63.5t31 176.5q0 48 -12.5 68t-41.5 20q-125 0 -125 -238z" />
<glyph unicode="p" horiz-adv-x="446" d="M13 -192l78 549l4 101l94 7l-26 -183h13q62 108 141 186h16q86 -42 86 -161q0 -70 -25 -134.5t-80.5 -115.5t-130.5 -65h-5l-54 12l-11 -79l-4 -110zM136 86l66 -19q60 0 95 60t35 152q0 89 -27 89q-12 0 -36.5 -27t-60.5 -89.5t-69 -143.5z" />
<glyph unicode="q" horiz-adv-x="446" d="M27 153q0 108 62 201t174 114h6l67 -24l59 25l10 -6l-76 -541l-4 -107l-96 -7l53 370h-12q-65 -111 -140 -186h-16q-87 41 -87 161zM113 181q0 -89 27 -89q13 0 37.5 27t60.5 89.5t69 144.5v3l1 12l-64 24q-61 0 -96 -60t-35 -151z" />
<glyph unicode="r" horiz-adv-x="338" d="M40 -4l52 361l4 101l94 7l-28 -199h9q66 124 162 199l26 -2l-18 -126l-8 -5l-11 2q-49 -7 -89 -55.5t-93 -177.5l-4 -98z" />
<glyph unicode="s" horiz-adv-x="326" d="M-7 25l24 88l13 5q45 -62 101 -62q29 0 47 18.5t18 42.5t-24 46.5t-52.5 39t-52 47.5t-23.5 70q0 65 54 107t130 41q44 -10 90 -26l-26 -85l-14 -4q-42 48 -85 48q-26 0 -43.5 -18t-17.5 -41q0 -22 23.5 -43.5t52 -38t52 -47.5t23.5 -71q0 -65 -51.5 -107t-131.5 -43 q-59 8 -107 33z" />
<glyph unicode="t" horiz-adv-x="330" d="M48 397l6 54h70l10 104l91 36l10 -6l-21 -134h116l7 -8l-6 -53h-127l-42 -260l-2 -17q0 -27 24 -27q32 0 81 67l14 -1l28 -38q-64 -80 -130 -118l-13 -1q-92 15 -92 91l1 16l42 257l3 31h-64z" />
<glyph unicode="u" horiz-adv-x="478" d="M47 86q7 53 22.5 147.5t19.5 119.5l7 106l94 8l-50 -322l-2 -21q-1 -24 18 -24q28 0 75 64.5t105 187.5l1 5l4 101l95 7l-51 -354l-3 -108l-96 -7l29 204h-8q-84 -141 -160 -203h-11q-40 8 -65 31t-24 58z" />
<glyph unicode="v" horiz-adv-x="419" d="M65 458l94 7l3 -82l21 -283h8l100 179q30 55 30 92q0 31 -22 66l4 11l88 19q21 -39 21 -80q0 -55 -44 -134l-147 -253h-105z" />
<glyph unicode="w" horiz-adv-x="692" d="M65 458l93 7l1 -65l25 -293h9l124 287l23 67h100l3 -61l26 -292h7l90 171q30 60 30 92q0 31 -22 66l4 11l88 19q21 -39 21 -80q0 -53 -44 -134l-138 -253h-101l-31 333h-9l-143 -333h-103z" />
<glyph unicode="x" horiz-adv-x="451" d="M-7 0l172 238l-100 219l101 11l13 -44l58 -124l89 119l24 42h100l-167 -229l112 -228l-104 -10l-15 54l-60 128l-94 -129l-25 -47h-104z" />
<glyph unicode="y" horiz-adv-x="421" d="M-94 -99l10 8q42 -14 75 -14q84 0 154 93l-94 470l93 7q7 -54 16 -113.5t20.5 -131.5t17.5 -112h14l76 152q35 68 35 110q0 35 -22 67l4 11l88 19q21 -36 21 -80q0 -65 -50 -154l-108 -195q-71 -127 -131.5 -180t-130.5 -53q-43 0 -84 16z" />
<glyph unicode="z" horiz-adv-x="414" d="M-16 21l272 361l-120 -1l-74 -10l-8 7l18 85l9 6l72 -5l185 -3l28 16l29 -28l-274 -359l30 7q13 0 43.5 -9.5t42.5 -9.5q40 0 58.5 25t22.5 89l13 7l45 -21q-4 -95 -40 -141.5t-99 -46.5q-29 0 -79.5 16.5t-71.5 16.5q-33 0 -62 -29h-11z" />
<glyph unicode="{" horiz-adv-x="291" d="M35 239l6 48q46 10 67 35.5t21 73.5q0 15 -1.5 53.5t-1.5 55.5q0 150 139 150q24 0 55 -7l3 -8l-15 -51q-22 5 -36 5q-70 0 -70 -94q0 -17 3 -56.5t3 -54.5q0 -89 -81 -123l-1 -4q56 -27 56 -90q0 -26 -22 -90.5t-22 -92.5q0 -56 53 -56q14 0 37 5l3 -51l-6 -7 q-25 -8 -57 -8q-108 0 -108 97q0 36 21 105.5t21 92.5q0 59 -67 72z" />
<glyph unicode="|" horiz-adv-x="312" d="M59 -252q66 548 129 1046l69 5l6 -6q-62 -492 -130 -1050l-68 -4z" />
<glyph unicode="}" horiz-adv-x="291" d="M-23 -113l15 52q22 -5 36 -5q70 0 70 93q0 17 -3 56.5t-3 54.5q0 88 81 124l1 4q-56 26 -56 89q0 26 21.5 90.5t21.5 92.5q0 57 -52 57q-14 0 -37 -5l-3 50l6 8q27 7 57 7q108 0 108 -96q0 -36 -21.5 -106t-21.5 -92q0 -58 68 -73l-6 -48q-46 -9 -67.5 -35t-21.5 -74 q0 -14 2 -52.5t2 -55.5q0 -151 -139 -151q-26 0 -55 8z" />
<glyph unicode="~" horiz-adv-x="480" d="M44 230l1 10l86 79l11 5q23 -4 101 -27t95 -23q4 0 8 1t9 4t9 6t11 8.5t11.5 9.5t13.5 11.5t14 12.5h10l21 -33l-1 -10l-85 -80l-12 -4q-24 3 -101 26.5t-94 23.5q-5 0 -11 -2.5t-14.5 -8.5t-14 -10.5t-18 -15.5t-18.5 -16h-10z" />
<glyph unicode="&#xa1;" horiz-adv-x="266" d="M24 -185l79 426l58 7l9 -11l-49 -418l-11 -11l-76 -5zM101 414q0 26 15 41t40 15q52 0 52 -53q0 -26 -15 -41t-41 -15q-24 0 -37.5 14t-13.5 39z" />
<glyph unicode="&#xa2;" d="M37 207q0 112 47 191.5t140 101.5l25 153h48l7 -9l-22 -137h8l72 -21l6 -11l-22 -62l-17 -3q-28 28 -57 33l-55 -331q40 19 75 80l12 -1l26 -35q-51 -84 -124 -111l-27 -166h-48l-6 9l23 149q-57 12 -84 50t-27 120zM113 221q0 -100 46 -115l55 331q-48 -17 -74.5 -73.5 t-26.5 -142.5z" />
<glyph unicode="&#xa3;" horiz-adv-x="430" d="M-2 6l11 51q75 16 85 105l15 123h-71l-3 6l10 47h70l11 87q9 81 60 124.5t136 43.5q53 0 108 -16l-14 -73l-6 -5q-53 33 -101 33q-88 0 -99 -94l-13 -100h128l3 -6l-11 -47h-127l-15 -115q-9 -69 -52 -98v-4h158l95 7l3 -7l-15 -70l-107 2h-255z" />
<glyph unicode="&#xa4;" horiz-adv-x="436" d="M22 204l3 10l74 62q-17 28 -17 66q0 45 36 90l-61 61v10l47 44h10l56 -69q37 25 81 25q43 0 72 -23l70 68l10 1l39 -42l-2 -10l-75 -63q17 -28 17 -65q0 -49 -35 -90l62 -61v-10l-48 -44l-10 1l-54 67q-41 -26 -83 -26q-43 0 -73 25l-69 -69h-10zM138 345q0 -37 23 -60 t60 -23q45 0 76 29.5t31 73.5q0 36 -23.5 59.5t-60.5 23.5q-43 0 -74.5 -30t-31.5 -73z" />
<glyph unicode="&#xa5;" horiz-adv-x="534" d="M26 123l8 42h180l1 8l-32 79h-137l-3 6l8 40h113l-82 201h86l8 -30l86 -209h7l149 206l18 33h85l-140 -201h121l4 -4l-9 -42h-149l-58 -83v-4h194l5 -6l-8 -41h-198l-12 -118h-81l18 118h-178z" />
<glyph unicode="&#xa6;" horiz-adv-x="312" d="M59 -252l50 404l67 8l7 -10l-50 -407l-67 -4zM136 372l51 422l70 5l6 -6l-52 -419l-69 -8z" />
<glyph unicode="&#xa7;" horiz-adv-x="427" d="M3 -69l21 80l10 7q56 -56 121 -56q38 0 63.5 21t25.5 46t-31 52t-68 48t-68 57.5t-31 79.5q0 45 30 84t80 63q-40 40 -40 86q0 61 54 105t132 44q61 0 112 -22l-21 -79l-13 -3q-52 40 -98 40q-34 0 -58 -21t-24 -45q0 -21 20 -41t49 -38.5t58 -39.5t49 -51.5t20 -65.5 q0 -44 -29.5 -82.5t-79.5 -61.5q41 -41 41 -89q0 -61 -55 -105t-134 -44q-77 0 -136 31zM131 290q0 -11 5 -22t10.5 -19t19 -19t21 -17t26 -18.5t25.5 -17.5q75 31 75 80q0 10 -3 19.5t-9.5 18.5t-12.5 16t-18.5 16.5t-19.5 14.5t-22.5 15.5t-21.5 15.5q-75 -34 -75 -83z " />
<glyph unicode="&#xa8;" d="M109 609q0 24 14 38.5t39 14.5q22 0 34.5 -13.5t12.5 -35.5q0 -25 -14 -39.5t-37 -14.5q-49 0 -49 50zM274 608q0 24 14 38.5t38 14.5q22 0 34.5 -13t12.5 -36q0 -25 -13.5 -39.5t-36.5 -14.5q-49 0 -49 50z" />
<glyph unicode="&#xa9;" horiz-adv-x="692" d="M56 293q0 137 81.5 221t215.5 84t215.5 -84t81.5 -221t-81.5 -221t-215.5 -84t-215.5 84t-81.5 221zM94 293q0 -120 71.5 -193.5t187.5 -73.5t187.5 73.5t71.5 193.5t-71.5 193.5t-187.5 73.5t-187.5 -73.5t-71.5 -193.5zM205 294q0 82 43 126.5t123 44.5q43 0 92 -21 l-13 -53l-6 -3q-34 21 -76 21q-94 0 -94 -109q0 -118 95 -118q41 0 81 20l7 -2l-6 -54q-42 -20 -86 -20q-79 0 -119.5 43t-40.5 125z" />
<glyph unicode="&#xaa;" horiz-adv-x="317" d="M58 431q0 77 40.5 137.5t115.5 76.5h5l53 -7l46 11l7 -5l-32 -237l-5 -72l-72 -6l16 126h-8q-45 -83 -89 -127h-11q-37 13 -51.5 37t-14.5 66zM125 459q0 -22 3.5 -37t8 -21t8.5 -6q6 0 20 17t35.5 53t43.5 82l3 23l1 15l-43 8q-37 -1 -58.5 -38t-21.5 -96z" />
<glyph unicode="&#xab;" horiz-adv-x="409" d="M35 220l2 18l163 171l43 -26v-11l-135 -146l100 -146l-4 -11l-49 -25zM207 220l2 18l163 171l43 -26v-11l-135 -146l100 -146l-4 -11l-49 -25z" />
<glyph unicode="&#xac;" horiz-adv-x="480" d="M28 237l12 60h389l5 -7l-29 -233l-60 -5l-7 7l21 171h-325z" />
<glyph unicode="&#xad;" horiz-adv-x="306" d="M26 210l8 62l244 34l8 -8l-8 -61l-244 -35z" />
<glyph unicode="&#xae;" horiz-adv-x="441" d="M38 520q0 82 50 132t133 50t133 -50t50 -132q0 -83 -50 -133.5t-133 -50.5t-133 50.5t-50 133.5zM67 520q0 -70 42.5 -112.5t112.5 -42.5q69 0 111.5 42.5t42.5 112.5q0 69 -42.5 111t-111.5 42q-70 0 -112.5 -41.5t-42.5 -111.5zM153 429l1 58l-1 136h77q66 0 66 -58 q0 -39 -39 -59q31 -45 52 -69l-1 -4q-14 -5 -39 -7l-4 3q-18 25 -41 67h-33v-5l2 -62h-40zM192 528l34 -2q29 11 29 35q0 30 -38 32l-24 -1z" />
<glyph unicode="&#xaf;" d="M94 588l6 55h282l6 -7l-5 -56h-282z" />
<glyph unicode="&#xb0;" horiz-adv-x="293" d="M54 510q0 57 43 98t101 41q49 0 81 -32.5t32 -80.5q0 -56 -43 -97.5t-100 -41.5q-50 0 -82 32.5t-32 80.5zM100 515q0 -30 21 -51.5t51 -21.5q38 0 65.5 26t27.5 63q0 31 -20.5 52t-51.5 21q-37 0 -65 -26.5t-28 -62.5z" />
<glyph unicode="&#xb1;" horiz-adv-x="478" d="M-9 -93l6 60h410l8 -7l-6 -60h-411zM28 237l13 60h172l21 173l61 6l7 -8l-22 -171h170l8 -7l-13 -60h-173l-20 -173l-62 -5l-6 7l21 171h-172z" />
<glyph unicode="&#xb2;" horiz-adv-x="353" d="M27 322l5 48l111 109q49 49 69 75.5t20 48.5q0 16 -11.5 26t-32.5 10q-51 0 -103 -49h-9l-7 60q74 54 139 54q46 0 77 -23t31 -60q0 -31 -23.5 -65.5t-80.5 -94.5l-73 -77l1 -2h116l66 3l3 -6l-16 -62l-85 3h-166l-27 -1z" />
<glyph unicode="&#xb3;" horiz-adv-x="312" d="M54 323l3 56l6 5q42 -10 70 -10q43 0 69 17.5t26 46.5q0 45 -62 48h-45l-4 4l7 53h32q28 1 51.5 19.5t23.5 43.5q0 37 -45 37q-36 0 -84 -30h-9l-6 53q60 39 114 39q48 0 80.5 -23.5t32.5 -60.5q0 -28 -18.5 -54t-55.5 -42l-1 -3q66 -18 66 -80q0 -56 -50 -91t-130 -35 q-40 0 -71 7z" />
<glyph unicode="&#xb4;" d="M133 558q109 91 170 148l9 -1l37 -52l-3 -10q-98 -71 -178 -124l-10 1z" />
<glyph unicode="&#xb5;" horiz-adv-x="488" d="M17 -194l77 551l4 101l90 6l-46 -336l-2 -11q1 -23 20 -23q28 0 78.5 69t111.5 199l4 96l90 6l-49 -353l-4 -108l-92 -7l30 211h-10q-89 -151 -167 -211h-11q-8 1 -17 5l-11 -78l-4 -110z" />
<glyph unicode="&#xb6;" horiz-adv-x="499" d="M59 412q0 107 71 168.5t192 61.5h197l6 -9l-16 -67h-71l-50 -379l-6 -55q-8 -70 -53.5 -120t-142.5 -92l-22 45l2 10q40 22 65.5 45t39.5 49t18 57q11 85 29.5 245.5t22.5 195.5h-54q-60 -7 -92.5 -46.5t-32.5 -103.5q0 -103 102 -140l-39 -53q-80 17 -123 65.5 t-43 122.5z" />
<glyph unicode="&#xb7;" horiz-adv-x="230" d="M64 246q0 26 15 41t40 15t38.5 -14t13.5 -38q0 -26 -15 -41.5t-40 -15.5q-52 0 -52 53z" />
<glyph unicode="&#xb8;" d="M67 -166l9 45l5 2q28 -30 57 -30q30 0 30 24q0 14 -20 23l-49 29l24 94h53l-20 -71l34 -20q39 -22 39 -57q0 -31 -23.5 -50.5t-62.5 -19.5q-41 0 -76 31z" />
<glyph unicode="&#xb9;" horiz-adv-x="264" d="M59 601l8 62l162 43l9 -9l-32 -242l-14 -135h-81l18 126l21 171l-86 -20z" />
<glyph unicode="&#xba;" horiz-adv-x="302" d="M58 438q0 92 43 149t115 61h8q81 -14 81 -107q0 -95 -43 -152.5t-116 -61.5l-6 1q-82 11 -82 110zM126 438q0 -59 33 -59q75 0 75 157q0 31 -7 44.5t-24 13.5q-38 0 -57.5 -41.5t-19.5 -114.5z" />
<glyph unicode="&#xbb;" horiz-adv-x="404" d="M-4 71v11l135 146l-100 146l4 11l49 25l120 -176l-2 -18l-163 -171zM168 71v11l135 146l-99 146l3 11l49 25l121 -176l-3 -18l-163 -171z" />
<glyph unicode="&#xbc;" horiz-adv-x="716" d="M18 -54l561 735l37 -25l5 -15l-561 -732l-38 25zM51 543l8 62l162 43l9 -9l-32 -242l-14 -135h-81l18 126l21 171l-86 -20zM368 101l6 50l195 230h73l-29 -224h57l4 -8l-10 -54l-57 2l-7 -92l-6 -5l-63 -3l-4 4l14 96h-113l-55 -2zM446 157h103l17 136h-5z" />
<glyph unicode="&#xbd;" horiz-adv-x="733" d="M18 -54l561 735l37 -25l5 -15l-561 -732l-38 25zM51 543l8 62l162 43l9 -9l-32 -242l-14 -135h-81l18 126l21 171l-86 -20zM389 2l5 48l111 109q49 49 69 75.5t20 48.5q0 16 -11.5 26t-32.5 10q-51 0 -103 -49h-9l-7 60q74 54 139 54q46 0 77 -23t31 -60 q0 -31 -23.5 -65.5t-80.5 -94.5l-73 -77l1 -2h116l66 3l3 -6l-16 -62l-85 3h-166l-27 -1z" />
<glyph unicode="&#xbe;" horiz-adv-x="754" d="M38 265l3 56l6 5q42 -10 70 -10q43 0 69 17.5t26 46.5q0 45 -62 48h-45l-4 4l7 53h32q28 1 51.5 19.5t23.5 43.5q0 37 -45 37q-36 0 -84 -30h-9l-6 53q60 39 114 39q48 0 80.5 -23.5t32.5 -60.5q0 -28 -18.5 -54t-55.5 -42l-1 -3q66 -18 66 -80q0 -56 -50 -91t-130 -35 q-40 0 -71 7zM56 -54l561 735l37 -25l5 -15l-561 -732l-38 25zM407 101l6 50l195 230h73l-29 -224h57l4 -8l-10 -54l-57 2l-7 -92l-6 -5l-63 -3l-4 4l14 96h-113l-55 -2zM485 157h103l17 136h-5z" />
<glyph unicode="&#xbf;" horiz-adv-x="334" d="M-30 -53q0 90 104 148l86 51l2 4l6 92l69 9l7 -8l-6 -117l-6 -10l-101 -54q-71 -39 -71 -96q0 -84 180 -96l6 -10l-25 -53l-11 -6q-116 7 -178 44.5t-62 101.5zM160 414q0 26 15 41t40 15q52 0 52 -53q0 -26 -15 -41t-41 -15q-24 0 -37.5 14t-13.5 39z" />
<glyph unicode="&#xc0;" horiz-adv-x="561" d="M-16 0l298 642h115l118 -642h-99l-6 71l-16 92l-130 3l-117 -2l-40 -89l-26 -75h-97zM185 245l96 -2l99 1l-51 300h-8zM237 815l25 57l10 2q88 -51 198 -106l-17 -42l-11 -4q-134 53 -201 83z" />
<glyph unicode="&#xc1;" horiz-adv-x="561" d="M-16 0l298 642h115l118 -642h-99l-6 71l-16 92l-130 3l-117 -2l-40 -89l-26 -75h-97zM185 245l96 -2l99 1l-51 300h-8zM246 765q130 66 198 107l10 -3l25 -57l-4 -10q-78 -35 -201 -83l-11 4z" />
<glyph unicode="&#xc2;" horiz-adv-x="561" d="M-16 0l298 642h115l118 -642h-99l-6 71l-16 92l-130 3l-117 -2l-40 -89l-26 -75h-97zM185 245l96 -2l99 1l-51 300h-8zM220 771q65 41 131 95h24q49 -46 114 -95l-25 -41h-10q-44 29 -95 66q-17 -10 -36 -21t-42 -24.5t-36 -20.5h-11z" />
<glyph unicode="&#xc3;" horiz-adv-x="561" d="M-16 0l298 642h115l118 -642h-99l-6 71l-16 92l-130 3l-117 -2l-40 -89l-26 -75h-97zM185 245l96 -2l99 1l-51 300h-8zM189 759v9l64 76l11 3q22 -3 82.5 -19t72.5 -16q5 0 10 2t11.5 7.5t10 9.5t13.5 14t14 15h9l29 -30v-9l-64 -76l-10 -4q-22 3 -82 20t-73 17 q-5 0 -10 -2.5t-11.5 -8t-10.5 -10t-13 -14t-14 -14.5h-9z" />
<glyph unicode="&#xc4;" horiz-adv-x="561" d="M-16 0l298 642h115l118 -642h-99l-6 71l-16 92l-130 3l-117 -2l-40 -89l-26 -75h-97zM185 245l96 -2l99 1l-51 300h-8zM221 790q0 24 14 38.5t39 14.5q22 0 34.5 -13.5t12.5 -35.5q0 -25 -14 -39.5t-37 -14.5q-49 0 -49 50zM386 789q0 24 14 38.5t38 14.5q22 0 34.5 -13 t12.5 -36q0 -25 -13.5 -39.5t-36.5 -14.5q-49 0 -49 50z" />
<glyph unicode="&#xc5;" horiz-adv-x="561" d="M-16 0l298 642h115l118 -642h-99l-6 71l-16 92l-130 3l-117 -2l-40 -89l-26 -75h-97zM185 245l96 -2l99 1l-51 300h-8zM267 800q0 41 23.5 64t65.5 23t64 -23t22 -61q0 -42 -25 -65.5t-65 -23.5q-38 0 -61.5 22.5t-23.5 63.5zM311 801q0 -43 44 -43q43 0 43 41 q0 43 -45 43q-42 0 -42 -41z" />
<glyph unicode="&#xc6;" horiz-adv-x="778" d="M-44 0l393 642h382l5 -9l-17 -76l-152 5h-89v-218l204 47l7 -6l-2 -71l-208 -45v-191h106l157 6l5 -8l-17 -76h-348l4 71l-1 176l-223 -54l-71 -118l-36 -75h-99zM217 283l167 39l-2 222h-6z" />
<glyph unicode="&#xc7;" horiz-adv-x="503" d="M43 257q0 184 85 287.5t238 103.5q97 0 164 -45l-29 -87l-10 -3q-58 53 -137 53q-99 0 -153 -76.5t-54 -217.5q0 -96 38 -146t109 -50q85 0 161 56l9 -6l-20 -90q-66 -35 -130 -41l-12 -44l34 -20q39 -22 39 -57q0 -31 -23.5 -50.5t-62.5 -19.5q-41 0 -76 31l9 45l5 2 q28 -30 57 -30q30 0 30 24q0 14 -20 23l-49 29l17 65q-105 6 -162 74.5t-57 189.5z" />
<glyph unicode="&#xc8;" horiz-adv-x="475" d="M57 0l30 193l51 449h362l5 -9l-17 -76l-145 4l-117 -1l-27 -192l113 -2l100 3l6 -7l-17 -76l-108 3l-105 -2l-12 -86l-12 -120l120 -2l146 5l4 -8l-16 -76h-361zM215 815l25 57l10 2q88 -51 198 -106l-17 -42l-11 -4q-134 53 -201 83z" />
<glyph unicode="&#xc9;" horiz-adv-x="475" d="M57 0l30 193l51 449h362l5 -9l-17 -76l-145 4l-117 -1l-27 -192l113 -2l100 3l6 -7l-17 -76l-108 3l-105 -2l-12 -86l-12 -120l120 -2l146 5l4 -8l-16 -76h-361zM224 765q130 66 198 107l10 -3l25 -57l-4 -10q-78 -35 -201 -83l-11 4z" />
<glyph unicode="&#xca;" horiz-adv-x="475" d="M57 0l30 193l51 449h362l5 -9l-17 -76l-145 4l-117 -1l-27 -192l113 -2l100 3l6 -7l-17 -76l-108 3l-105 -2l-12 -86l-12 -120l120 -2l146 5l4 -8l-16 -76h-361zM198 771q65 41 131 95h24q49 -46 114 -95l-25 -41h-10q-44 29 -95 66l-114 -66h-11z" />
<glyph unicode="&#xcb;" horiz-adv-x="475" d="M57 0l30 193l51 449h362l5 -9l-17 -76l-145 4l-117 -1l-27 -192l113 -2l100 3l6 -7l-17 -76l-108 3l-105 -2l-12 -86l-12 -120l120 -2l146 5l4 -8l-16 -76h-361zM199 790q0 24 14 38.5t39 14.5q22 0 34.5 -13.5t12.5 -35.5q0 -25 -14 -39.5t-37 -14.5q-49 0 -49 50z M364 789q0 24 14 38.5t38 14.5q22 0 34.5 -13t12.5 -36q0 -25 -13.5 -39.5t-36.5 -14.5q-49 0 -49 50z" />
<glyph unicode="&#xcc;" horiz-adv-x="270" d="M57 0l30 193l50 449h99l-60 -441l-20 -201h-99zM88 815l25 57l10 2q88 -51 198 -106l-17 -42l-11 -4q-134 53 -201 83z" />
<glyph unicode="&#xcd;" horiz-adv-x="270" d="M57 0l30 193l50 449h99l-60 -441l-20 -201h-99zM97 765q130 66 198 107l10 -3l25 -57l-4 -10q-78 -35 -201 -83l-11 4z" />
<glyph unicode="&#xce;" horiz-adv-x="270" d="M57 0l30 193l50 449h99l-60 -441l-20 -201h-99zM71 771q65 41 131 95h24q49 -46 114 -95l-25 -41h-10q-44 29 -95 66q-17 -10 -36 -21t-42 -24.5t-36 -20.5h-11z" />
<glyph unicode="&#xd0;" horiz-adv-x="653" d="M29 297l9 60h92l32 285h1l225 4q117 0 182 -65.5t65 -185.5q0 -187 -89 -294t-252 -107q-99 0 -211 6h-1l30 193l11 96h-90zM188 80q77 -7 126 -7q104 0 160.5 77.5t56.5 227.5q0 187 -154 187q-52 0 -126 -4l-29 -204h143l3 -8l-7 -60h-149l-12 -88z" />
<glyph unicode="&#xd1;" horiz-adv-x="662" d="M57 0l29 190l53 452h103l230 -489h7l59 484l92 7l-63 -453l-20 -191h-104l-230 488h-7l-35 -274l-23 -214h-91zM237 759v9l64 76l11 3q22 -3 82.5 -19t72.5 -16q5 0 10 2t11.5 7.5t10 9.5t13.5 14t14 15h9l29 -30v-9l-64 -76l-10 -4q-22 3 -82 20t-73 17q-5 0 -10 -2.5 t-11.5 -8t-10.5 -10t-13 -14t-14 -14.5h-9z" />
<glyph unicode="&#xd2;" horiz-adv-x="618" d="M43 257q0 184 83.5 288t236.5 104q113 0 175.5 -67.5t62.5 -192.5q0 -185 -84 -291t-237 -106q-112 0 -174.5 69.5t-62.5 195.5zM144 262q0 -97 35.5 -144t109.5 -47q208 0 208 308q0 97 -36 143t-110 46q-207 0 -207 -306zM262 815l25 57l10 2q88 -51 198 -106l-17 -42 l-11 -4q-134 53 -201 83z" />
<glyph unicode="&#xd3;" horiz-adv-x="618" d="M43 257q0 184 83.5 288t236.5 104q113 0 175.5 -67.5t62.5 -192.5q0 -185 -84 -291t-237 -106q-112 0 -174.5 69.5t-62.5 195.5zM144 262q0 -97 35.5 -144t109.5 -47q208 0 208 308q0 97 -36 143t-110 46q-207 0 -207 -306zM272 765q130 66 198 107l10 -3l25 -57l-4 -10 q-78 -35 -201 -83l-11 4z" />
<glyph unicode="&#xd4;" horiz-adv-x="618" d="M43 257q0 184 83.5 288t236.5 104q113 0 175.5 -67.5t62.5 -192.5q0 -185 -84 -291t-237 -106q-112 0 -174.5 69.5t-62.5 195.5zM144 262q0 -97 35.5 -144t109.5 -47q208 0 208 308q0 97 -36 143t-110 46q-207 0 -207 -306zM245 771q65 41 131 95h24q49 -46 114 -95 l-25 -41h-10q-44 29 -95 66q-17 -10 -36 -21t-42 -24.5t-36 -20.5h-11z" />
<glyph unicode="&#xd5;" horiz-adv-x="618" d="M43 257q0 184 83.5 288t236.5 104q113 0 175.5 -67.5t62.5 -192.5q0 -185 -84 -291t-237 -106q-112 0 -174.5 69.5t-62.5 195.5zM144 262q0 -97 35.5 -144t109.5 -47q208 0 208 308q0 97 -36 143t-110 46q-207 0 -207 -306zM214 759v9l64 76l11 3q22 -3 82.5 -19 t72.5 -16q5 0 10 2t11.5 7.5t10 9.5t13.5 14t14 15h9l29 -30v-9l-64 -76l-10 -4q-22 3 -82 20t-73 17q-5 0 -10 -2.5t-11.5 -8t-10.5 -10t-13 -14t-14 -14.5h-9z" />
<glyph unicode="&#xd7;" horiz-adv-x="481" d="M60 133l1 9l136 122l-106 120l1 11l50 39l109 -123l136 123l42 -39l-1 -11l-136 -120l106 -121l-1 -10l-51 -40l-108 122l-138 -122z" />
<glyph unicode="&#xd8;" horiz-adv-x="619" d="M43 257q0 184 83.5 288t236.5 104q56 0 98 -16l54 95l54 -22l4 -11l-54 -95q82 -67 82 -211q0 -185 -84 -291t-237 -106q-56 0 -101 18l-67 -117l-55 22l-3 9l69 120q-80 69 -80 213zM144 262q0 -86 28 -133l245 427q-29 12 -66 12q-207 0 -207 -306zM222 84 q27 -13 67 -13q208 0 208 308q0 86 -29 133z" />
<glyph unicode="&#xd9;" horiz-adv-x="606" d="M65 180q0 28 4 53q8 60 16.5 128t18 151.5t15.5 129.5h97l-54 -396q-3 -24 -3 -43q0 -126 124 -126q146 0 164 159l46 406h98l-44 -327l-9 -74q-13 -120 -80 -184.5t-182 -64.5q-99 0 -155 49t-56 139zM257 815l25 57l10 2q88 -51 198 -106l-17 -42l-11 -4 q-134 53 -201 83z" />
<glyph unicode="&#xda;" horiz-adv-x="606" d="M65 180q0 28 4 53q8 60 16.5 128t18 151.5t15.5 129.5h97l-54 -396q-3 -24 -3 -43q0 -126 124 -126q146 0 164 159l46 406h98l-44 -327l-9 -74q-13 -120 -80 -184.5t-182 -64.5q-99 0 -155 49t-56 139zM266 765q130 66 198 107l10 -3l25 -57l-4 -10q-78 -35 -201 -83 l-11 4z" />
<glyph unicode="&#xdb;" horiz-adv-x="606" d="M65 180q0 28 4 53q8 60 16.5 128t18 151.5t15.5 129.5h97l-54 -396q-3 -24 -3 -43q0 -126 124 -126q146 0 164 159l46 406h98l-44 -327l-9 -74q-13 -120 -80 -184.5t-182 -64.5q-99 0 -155 49t-56 139zM240 771q65 41 131 95h24q49 -46 114 -95l-25 -41h-10 q-44 29 -95 66q-17 -10 -36 -21t-42 -24.5t-36 -20.5h-11z" />
<glyph unicode="&#xdc;" horiz-adv-x="606" d="M65 180q0 28 4 53q8 60 16.5 128t18 151.5t15.5 129.5h97l-54 -396q-3 -24 -3 -43q0 -126 124 -126q146 0 164 159l46 406h98l-44 -327l-9 -74q-13 -120 -80 -184.5t-182 -64.5q-99 0 -155 49t-56 139zM241 790q0 16 6.5 28t18.5 18.5t28 6.5q22 0 34.5 -13.5t12.5 -35.5 q0 -25 -14 -39.5t-37 -14.5q-49 0 -49 50zM406 789q0 24 14 38.5t38 14.5q22 0 34.5 -13t12.5 -36q0 -25 -13.5 -39.5t-36.5 -14.5q-12 0 -21 3.5t-15.5 10t-9.5 15.5t-3 21z" />
<glyph unicode="&#xde;" horiz-adv-x="520" d="M58 0l28 193l53 449h98l-15 -108l104 1q85 0 132.5 -42.5t47.5 -126.5q0 -111 -72.5 -182.5t-192.5 -71.5h-74l-11 -112h-98zM175 191l110 -3q54 10 86.5 54.5t32.5 109.5q0 51 -24.5 76.5t-80.5 28.5l-88 -3l-35 -253z" />
<glyph unicode="&#xdf;" horiz-adv-x="565" d="M50 397l8 54h75l9 66q11 89 66 138t144 49q74 0 114.5 -33t40.5 -92q0 -33 -12.5 -61t-30.5 -47.5t-36 -36.5t-30.5 -37.5t-12.5 -43.5q0 -20 15 -39t36 -35.5t42.5 -35t36.5 -46t15 -59.5q0 -62 -51 -103.5t-129 -42.5q-61 6 -109 33l21 83l12 6q46 -60 103 -60 q30 0 50 18.5t20 45.5q0 24 -23 48.5t-50 43.5t-50 52t-23 72q0 42 18.5 75.5t41 52.5t41 46t18.5 57q0 65 -77 65q-45 0 -75.5 -22.5t-39.5 -68.5q-54 -399 -76 -548l-4 -108l-95 -7q52 371 72 514h-70z" />
<glyph unicode="&#xe0;" horiz-adv-x="447" d="M28 153q0 108 62 200.5t174 114.5h5l67 -24l59 25l10 -6l-50 -352l-4 -108l-95 -7l26 182h-12q-63 -111 -140 -186h-16q-86 42 -86 161zM115 180q0 -87 26 -87q13 0 37 27t60 89t69 144v3l1 12l-63 24q-60 0 -95 -60t-35 -152zM149 654l36 52l10 1q64 -62 170 -148 l-26 -38l-10 -1q-80 53 -178 124z" />
<glyph unicode="&#xe1;" horiz-adv-x="447" d="M28 153q0 108 62 200.5t174 114.5h5l67 -24l59 25l10 -6l-50 -352l-4 -108l-95 -7l26 182h-12q-63 -111 -140 -186h-16q-86 42 -86 161zM115 180q0 -87 26 -87q13 0 37 27t60 89t69 144v3l1 12l-63 24q-60 0 -95 -60t-35 -152zM161 559q109 91 170 148l9 -1l37 -52 l-3 -10q-98 -71 -178 -124l-10 1z" />
<glyph unicode="&#xe2;" horiz-adv-x="447" d="M28 153q0 108 62 200.5t174 114.5h5l67 -24l59 25l10 -6l-50 -352l-4 -108l-95 -7l26 182h-12q-63 -111 -140 -186h-16q-86 42 -86 161zM115 180q0 -87 26 -87q13 0 37 27t60 89t69 144v3l1 12l-63 24q-60 0 -95 -60t-35 -152zM128 563q53 47 143 137h25q54 -74 111 -137 l-30 -38h-10q-58 58 -91 100q-37 -35 -117 -100h-11z" />
<glyph unicode="&#xe3;" horiz-adv-x="447" d="M28 153q0 108 62 200.5t174 114.5h5l67 -24l59 25l10 -6l-50 -352l-4 -108l-95 -7l26 182h-12q-63 -111 -140 -186h-16q-86 42 -86 161zM103 579v9l64 76l11 3q22 -3 82.5 -19t72.5 -16q5 0 10 2t11.5 7.5t10 9.5t13.5 14t14 15h9l29 -30v-9l-64 -76l-10 -4q-22 3 -82 20 t-73 17q-5 0 -10 -2.5t-11.5 -8t-10.5 -10t-13 -14t-14 -14.5h-9zM115 180q0 -87 26 -87q13 0 37 27t60 89t69 144v3l1 12l-63 24q-60 0 -95 -60t-35 -152z" />
<glyph unicode="&#xe4;" horiz-adv-x="447" d="M28 153q0 108 62 200.5t174 114.5h5l67 -24l59 25l10 -6l-50 -352l-4 -108l-95 -7l26 182h-12q-63 -111 -140 -186h-16q-86 42 -86 161zM115 180q0 -87 26 -87q13 0 37 27t60 89t69 144v3l1 12l-63 24q-60 0 -95 -60t-35 -152zM135 610q0 24 14 38.5t39 14.5 q22 0 34.5 -13.5t12.5 -35.5q0 -25 -14 -39.5t-37 -14.5q-49 0 -49 50zM300 609q0 24 14 38.5t38 14.5q22 0 34.5 -13t12.5 -36q0 -25 -13.5 -39.5t-36.5 -14.5q-49 0 -49 50z" />
<glyph unicode="&#xe5;" horiz-adv-x="447" d="M28 153q0 108 62 200.5t174 114.5h5l67 -24l59 25l10 -6l-50 -352l-4 -108l-95 -7l26 182h-12q-63 -111 -140 -186h-16q-86 42 -86 161zM115 180q0 -87 26 -87q13 0 37 27t60 89t69 144v3l1 12l-63 24q-60 0 -95 -60t-35 -152zM181 620q0 41 23.5 64t65.5 23t64 -23 t22 -61q0 -42 -25 -65.5t-65 -23.5q-38 0 -61.5 22.5t-23.5 63.5zM225 621q0 -43 44 -43q43 0 43 41q0 43 -45 43q-42 0 -42 -41z" />
<glyph unicode="&#xe6;" horiz-adv-x="623" d="M34 153q0 69 25 133.5t80.5 115.5t132.5 66h5l112 -40q53 39 122 42l11 -1q91 -16 91 -97q0 -59 -59.5 -107.5t-187.5 -90.5v-11q6 -92 61 -92q33 0 64.5 24.5t51.5 63.5l14 -1l31 -42q-74 -101 -162 -123h-13q-72 7 -103 48t-33 118q-1 7 -2 7q-62 -101 -138 -174h-16 q-87 41 -87 161zM120 181q0 -89 28 -89q11 0 34 24.5t57.5 80t66.5 127.5q9 20 21 40l-74 29q-61 0 -97 -60.5t-36 -151.5zM368 240q161 49 161 125q0 38 -44 38q-46 0 -77 -44t-40 -119z" />
<glyph unicode="&#xe7;" horiz-adv-x="341" d="M30 163q0 132 61 218.5t180 86.5l69 -22l6 -13l-27 -74l-20 -2q-33 37 -66 37q-52 0 -83 -56.5t-31 -156.5q0 -58 13 -83t41 -25q48 0 94 85l13 -1l30 -40q-51 -88 -122 -115l-14 -51l34 -20q39 -22 39 -57q0 -31 -23.5 -50.5t-62.5 -19.5q-41 0 -76 31l9 45l5 2 q28 -30 57 -30q30 0 30 24q0 14 -20 23l-49 29l17 68q-55 12 -79.5 50t-24.5 117z" />
<glyph unicode="&#xe8;" horiz-adv-x="385" d="M30 159q0 134 64 220t169 91l11 -1q91 -16 91 -97q0 -117 -245 -197q3 -104 60 -104q32 0 62.5 24.5t51.5 63.5l14 -1l32 -42q-72 -101 -162 -123h-13q-135 10 -135 166zM123 241q157 47 157 124q0 38 -42 38q-45 0 -76 -43.5t-39 -118.5zM136 654l36 52l10 1 q64 -62 170 -148l-26 -38l-10 -1q-80 53 -178 124z" />
<glyph unicode="&#xe9;" horiz-adv-x="385" d="M30 159q0 134 64 220t169 91l11 -1q91 -16 91 -97q0 -117 -245 -197q3 -104 60 -104q32 0 62.5 24.5t51.5 63.5l14 -1l32 -42q-72 -101 -162 -123h-13q-135 10 -135 166zM123 241q157 47 157 124q0 38 -42 38q-45 0 -76 -43.5t-39 -118.5zM148 559q109 91 170 148l9 -1 l37 -52l-3 -10q-98 -71 -178 -124l-10 1z" />
<glyph unicode="&#xea;" horiz-adv-x="385" d="M30 159q0 134 64 220t169 91l11 -1q91 -16 91 -97q0 -117 -245 -197q3 -104 60 -104q32 0 62.5 24.5t51.5 63.5l14 -1l32 -42q-72 -101 -162 -123h-13q-135 10 -135 166zM115 563q53 47 143 137h25q54 -74 111 -137l-30 -38h-10q-58 58 -91 100q-37 -35 -117 -100h-11z M123 241q157 47 157 124q0 38 -42 38q-45 0 -76 -43.5t-39 -118.5z" />
<glyph unicode="&#xeb;" horiz-adv-x="385" d="M30 159q0 134 64 220t169 91l11 -1q91 -16 91 -97q0 -117 -245 -197q3 -104 60 -104q32 0 62.5 24.5t51.5 63.5l14 -1l32 -42q-72 -101 -162 -123h-13q-135 10 -135 166zM122 610q0 24 14 38.5t39 14.5q22 0 34.5 -13.5t12.5 -35.5q0 -25 -14 -39.5t-37 -14.5 q-49 0 -49 50zM123 241q157 47 157 124q0 38 -42 38q-45 0 -76 -43.5t-39 -118.5zM287 609q0 24 14 38.5t38 14.5q22 0 34.5 -13t12.5 -36q0 -25 -13.5 -39.5t-36.5 -14.5q-49 0 -49 50z" />
<glyph unicode="&#xec;" horiz-adv-x="225" d="M38 -4l51 361l4 101l94 7l-50 -354l-4 -108zM39 653l36 52l10 1q64 -62 170 -148l-26 -38l-10 -1q-80 53 -178 124z" />
<glyph unicode="&#xed;" horiz-adv-x="225" d="M38 -4l51 361l4 101l94 7l-50 -354l-4 -108zM51 558q109 91 170 148l9 -1l37 -52l-3 -10q-98 -71 -178 -124l-10 1z" />
<glyph unicode="&#xee;" horiz-adv-x="225" d="M18 562q53 47 143 137h25q54 -74 111 -137l-30 -38h-10q-58 58 -91 100q-37 -35 -117 -100h-11zM38 -4l51 361l4 101l94 7l-50 -354l-4 -108z" />
<glyph unicode="&#xf0;" horiz-adv-x="446" d="M43 155q0 132 61.5 216t165.5 89h10l5 -1q-23 51 -67 93l-125 -63l-7 3l-15 45l103 52q-43 32 -106 60l2 12l65 46h6q63 -30 116 -75l119 60l8 -3l16 -45l-102 -52q106 -118 104 -281q0 -139 -61 -225.5t-168 -94.5l-10 1q-60 12 -90 50.5t-30 112.5zM128 155 q0 -50 13.5 -72t44.5 -22q64 0 96.5 64.5t33.5 179.5q0 31 -5 66q-17 26 -53 26q-64 0 -97 -64t-33 -178z" />
<glyph unicode="&#xf1;" horiz-adv-x="477" d="M38 -4l52 361l4 101l94 7l-29 -206h10q84 144 161 207h11q39 -8 64 -31.5t24 -58.5q-7 -52 -22.5 -146.5t-19.5 -119.5l-4 -107l-98 -7l53 330l1 11q0 26 -18 26q-28 0 -76 -66t-107 -190l-4 -104zM123 578v9l64 76l11 3q22 -3 82.5 -19t72.5 -16q5 0 10 2t11.5 7.5 t10 9.5t13.5 14t14 15h9l29 -30v-9l-64 -76l-10 -4q-22 3 -82 20t-73 17q-5 0 -10 -2.5t-11.5 -8t-10.5 -10t-13 -14t-14 -14.5h-9z" />
<glyph unicode="&#xf2;" horiz-adv-x="420" d="M32 155q0 136 62.5 222t169.5 92h10q116 -22 116 -157q0 -140 -61 -226.5t-168 -94.5l-10 1q-60 12 -89.5 51t-29.5 112zM120 155q0 -48 12.5 -69t42.5 -21q62 0 93 63.5t31 176.5q0 48 -12.5 68t-41.5 20q-125 0 -125 -238zM148 653l36 52l10 1q64 -62 170 -148l-26 -38 l-10 -1q-80 53 -178 124z" />
<glyph unicode="&#xf3;" horiz-adv-x="420" d="M32 155q0 136 62.5 222t169.5 92h10q116 -22 116 -157q0 -140 -61 -226.5t-168 -94.5l-10 1q-60 12 -89.5 51t-29.5 112zM120 155q0 -48 12.5 -69t42.5 -21q62 0 93 63.5t31 176.5q0 48 -12.5 68t-41.5 20q-125 0 -125 -238zM160 558q109 91 170 148l9 -1l37 -52l-3 -10 q-98 -71 -178 -124l-10 1z" />
<glyph unicode="&#xf4;" horiz-adv-x="420" d="M32 155q0 136 62.5 222t169.5 92h10q116 -22 116 -157q0 -140 -61 -226.5t-168 -94.5l-10 1q-60 12 -89.5 51t-29.5 112zM120 155q0 -48 12.5 -69t42.5 -21q62 0 93 63.5t31 176.5q0 48 -12.5 68t-41.5 20q-125 0 -125 -238zM127 562q53 47 143 137h25q54 -74 111 -137 l-30 -38h-10q-58 58 -91 100q-37 -35 -117 -100h-11z" />
<glyph unicode="&#xf5;" horiz-adv-x="420" d="M32 155q0 136 62.5 222t169.5 92h10q116 -22 116 -157q0 -140 -61 -226.5t-168 -94.5l-10 1q-60 12 -89.5 51t-29.5 112zM102 578v9l64 76l11 3q22 -3 82.5 -19t72.5 -16q5 0 10 2t11.5 7.5t10 9.5t13.5 14t14 15h9l29 -30v-9l-64 -76l-10 -4q-22 3 -82 20t-73 17 q-5 0 -10 -2.5t-11.5 -8t-10.5 -10t-13 -14t-14 -14.5h-9zM120 155q0 -48 12.5 -69t42.5 -21q62 0 93 63.5t31 176.5q0 48 -12.5 68t-41.5 20q-125 0 -125 -238z" />
<glyph unicode="&#xf7;" horiz-adv-x="477" d="M31 237l6 60h410l8 -7l-6 -60h-411zM172 91q0 24 13.5 38t37.5 14q22 0 34.5 -13t12.5 -35q0 -24 -13.5 -38.5t-36.5 -14.5q-48 0 -48 49zM213 438q0 23 14 37t38 14q47 0 47 -48q0 -24 -13.5 -38t-36.5 -14q-49 0 -49 49z" />
<glyph unicode="&#xf8;" horiz-adv-x="421" d="M14 -84l58 114q-40 42 -40 125q0 136 62.5 222t168.5 92h10q8 -1 22 -5l48 94l48 -25l5 -10l-46 -91q40 -40 40 -120q0 -140 -61 -226.5t-169 -94.5q-19 2 -32 7l-59 -117l-52 26zM120 155q0 -21 1 -30l137 267q-4 1 -13 1q-63 0 -94 -62.5t-31 -175.5zM163 66 q4 -1 12 -1q62 0 93 63.5t31 176.5q0 18 -1 26z" />
<glyph unicode="&#xf9;" horiz-adv-x="478" d="M47 86q7 53 22.5 147.5t19.5 119.5l6 106l94 8l-50 -322l-2 -21q-1 -24 18 -24q28 0 75 64.5t106 188.5l1 4l4 101l95 7l-51 -354l-3 -108l-96 -7l29 204h-9q-81 -138 -160 -203h-11q-40 8 -64.5 31t-23.5 58zM168 653l36 52l10 1q64 -62 170 -148l-26 -38l-10 -1 q-80 53 -178 124z" />
<glyph unicode="&#xfa;" horiz-adv-x="478" d="M47 86q7 53 22.5 147.5t19.5 119.5l6 106l94 8l-50 -322l-2 -21q-1 -24 18 -24q28 0 75 64.5t106 188.5l1 4l4 101l95 7l-51 -354l-3 -108l-96 -7l29 204h-9q-81 -138 -160 -203h-11q-40 8 -64.5 31t-23.5 58zM180 558q109 91 170 148l9 -1l37 -52l-3 -10 q-98 -71 -178 -124l-10 1z" />
<glyph unicode="&#xfb;" horiz-adv-x="478" d="M47 86q7 53 22.5 147.5t19.5 119.5l6 106l94 8l-50 -322l-2 -21q-1 -24 18 -24q28 0 75 64.5t106 188.5l1 4l4 101l95 7l-51 -354l-3 -108l-96 -7l29 204h-9q-81 -138 -160 -203h-11q-40 8 -64.5 31t-23.5 58zM147 562q53 47 143 137h25q54 -74 111 -137l-30 -38h-10 q-58 58 -91 100q-37 -35 -117 -100h-11z" />
<glyph unicode="&#xfc;" horiz-adv-x="478" d="M47 86q7 53 22.5 147.5t19.5 119.5l6 106l94 8l-50 -322l-2 -21q-1 -24 18 -24q28 0 75 64.5t106 188.5l1 4l4 101l95 7l-51 -354l-3 -108l-96 -7l29 204h-9q-81 -138 -160 -203h-11q-40 8 -64.5 31t-23.5 58zM154 609q0 24 14 38.5t39 14.5q22 0 34.5 -13.5t12.5 -35.5 q0 -25 -14 -39.5t-37 -14.5q-49 0 -49 50zM319 608q0 24 14 38.5t38 14.5q22 0 34.5 -13t12.5 -36q0 -25 -13.5 -39.5t-36.5 -14.5q-49 0 -49 50z" />
<glyph unicode="&#xfe;" horiz-adv-x="454" d="M17 -192l110 787l4 102l93 6l-58 -424h12q70 120 142 189h15q87 -43 87 -161q0 -70 -25 -134.5t-80.5 -115.5t-130.5 -65h-5l-53 12l-11 -78l-4 -111zM139 85l66 -18q60 0 95 60.5t35 151.5q0 89 -27 89q-12 0 -36.5 -27t-60.5 -89t-69 -143z" />
<glyph unicode="&#xff;" horiz-adv-x="421" d="M-94 -99l10 8q42 -14 75 -14q84 0 154 93l-94 470l94 7l10 -82l43 -275h15l76 152q34 70 34 110q0 35 -22 67l4 11l88 19q21 -36 21 -80q0 -65 -50 -154l-108 -195q-71 -127 -131.5 -180t-130.5 -53q-44 0 -83 16zM98 609q0 24 14 38.5t39 14.5q22 0 34.5 -13.5 t12.5 -35.5q0 -25 -14 -39.5t-37 -14.5q-49 0 -49 50zM263 608q0 24 14 38.5t38 14.5q22 0 34.5 -13t12.5 -36q0 -25 -13.5 -39.5t-36.5 -14.5q-49 0 -49 50z" />
<glyph unicode="&#x152;" horiz-adv-x="825" d="M42 261q0 183 94 288t259 105q32 0 85.5 -6t79.5 -6h289l6 -9l-18 -76l-139 4h-124l-24 -193l105 -2l108 3l4 -7l-16 -76l-113 3l-102 -2q-9 -77 -23 -206l113 -2l153 5l5 -8l-16 -76h-288q-29 1 -92 -5.5t-94 -6.5q-121 0 -186.5 72t-65.5 201zM143 266q0 -198 170 -198 q55 0 87 10q24 8 28 37l46 405q3 34 -8 39q-26 14 -90 14q-115 0 -174 -78t-59 -229z" />
<glyph unicode="&#x153;" horiz-adv-x="657" d="M37 156q0 136 63 221.5t171 91.5h10q76 -13 100 -79q61 76 159 80l11 -1q91 -16 91 -97q0 -59 -59.5 -107.5t-187.5 -90.5q3 -103 61 -103q33 0 64.5 24.5t51.5 63.5l14 -1l31 -42q-74 -101 -162 -123h-13q-91 10 -116 82q-59 -77 -158 -84q-131 15 -131 165zM125 156 q0 -50 13 -71.5t44 -21.5q64 0 96 64t32 178q0 48 -13 69t-43 21q-64 0 -96.5 -63t-32.5 -176zM398 241q159 47 159 124q0 38 -43 38q-45 0 -76.5 -44t-39.5 -118z" />
<glyph unicode="&#x178;" horiz-adv-x="518" d="M62 642h102l8 -39l89 -273h8l168 270l21 42h104l-266 -415l-7 -43l-19 -184h-99l30 184l4 44zM197 790q0 24 14 38.5t39 14.5q22 0 34.5 -13.5t12.5 -35.5q0 -25 -14 -39.5t-37 -14.5q-49 0 -49 50zM362 789q0 24 14 38.5t38 14.5q22 0 34.5 -13t12.5 -36 q0 -25 -13.5 -39.5t-36.5 -14.5q-49 0 -49 50z" />
<glyph unicode="&#x2c6;" d="M96 562q53 47 143 137h25q54 -74 111 -137l-30 -38h-10q-58 58 -91 100q-37 -35 -117 -100h-11z" />
<glyph unicode="&#x2dc;" d="M77 578v9l64 76l11 3q22 -3 82.5 -19t72.5 -16q5 0 10 2t11.5 7.5t10 9.5t13.5 14t14 15h9l29 -30v-9l-64 -76l-10 -4q-22 3 -82 20t-73 17q-5 0 -10 -2.5t-11.5 -8t-10.5 -10t-13 -14t-14 -14.5h-9z" />
<glyph unicode="&#x2000;" horiz-adv-x="443" />
<glyph unicode="&#x2001;" horiz-adv-x="887" />
<glyph unicode="&#x2002;" horiz-adv-x="443" />
<glyph unicode="&#x2003;" horiz-adv-x="887" />
<glyph unicode="&#x2004;" horiz-adv-x="295" />
<glyph unicode="&#x2005;" horiz-adv-x="221" />
<glyph unicode="&#x2006;" horiz-adv-x="147" />
<glyph unicode="&#x2007;" horiz-adv-x="147" />
<glyph unicode="&#x2008;" horiz-adv-x="110" />
<glyph unicode="&#x2009;" horiz-adv-x="177" />
<glyph unicode="&#x200a;" horiz-adv-x="49" />
<glyph unicode="&#x2010;" horiz-adv-x="306" d="M26 210l8 62l244 34l8 -8l-8 -61l-244 -35z" />
<glyph unicode="&#x2011;" horiz-adv-x="306" d="M26 210l8 62l244 34l8 -8l-8 -61l-244 -35z" />
<glyph unicode="&#x2012;" horiz-adv-x="306" d="M26 210l8 62l244 34l8 -8l-8 -61l-244 -35z" />
<glyph unicode="&#x2013;" horiz-adv-x="474" d="M-15 230l13 60h492l5 -7l-11 -60h-493z" />
<glyph unicode="&#x2014;" horiz-adv-x="916" d="M-16 230l13 60h936l6 -7l-12 -60h-937z" />
<glyph unicode="&#x2018;" horiz-adv-x="180" d="M63 502q0 65 80 144l35 -25l1 -7q-41 -45 -41 -85q0 -42 39 -60v-9q-23 -20 -59 -40q-55 25 -55 82z" />
<glyph unicode="&#x2019;" horiz-adv-x="180" d="M63 451q42 45 42 85q0 42 -39 60v9q20 19 59 40q55 -25 55 -82q0 -65 -80 -144l-35 25z" />
<glyph unicode="&#x201a;" horiz-adv-x="229" d="M9 -81q55 44 55 91q0 29 -31 52v9q34 21 69 31q43 -29 43 -73q0 -72 -103 -147l-33 29v8z" />
<glyph unicode="&#x201c;" horiz-adv-x="315" d="M58 502q0 65 80 144l35 -25l2 -7q-42 -45 -42 -85q0 -42 39 -60v-9q-20 -19 -59 -40q-55 25 -55 82zM200 502q0 65 80 144l35 -25l2 -7q-42 -45 -42 -85q0 -42 39 -60v-9q-20 -19 -59 -40q-55 25 -55 82z" />
<glyph unicode="&#x201d;" horiz-adv-x="318" d="M61 451q41 45 41 85q0 43 -39 60v9q23 20 59 40q55 -25 55 -82q0 -66 -79 -144l-36 25zM200 451q41 45 41 85q0 43 -39 60v9q23 20 59 40q55 -25 55 -82q0 -66 -79 -144l-36 25z" />
<glyph unicode="&#x201e;" horiz-adv-x="372" d="M9 -81q55 44 55 91q0 29 -31 52v9q34 21 69 31q43 -29 43 -73q0 -72 -103 -147l-33 29v8zM151 -81q55 44 55 91q0 29 -31 52v9q34 21 69 31q43 -29 43 -73q0 -73 -104 -147l-32 29v8z" />
<glyph unicode="&#x2022;" horiz-adv-x="265" d="M71 237q0 30 17.5 48t47.5 18q28 0 43.5 -16t15.5 -45q0 -31 -17 -48.5t-46 -17.5t-45 16t-16 45z" />
<glyph unicode="&#x2026;" horiz-adv-x="600" d="M13 48q0 26 15.5 41t40.5 15q51 0 51 -53q0 -26 -14.5 -41t-39.5 -15q-53 0 -53 53zM198 48q0 26 15 41t41 15q24 0 37.5 -14t13.5 -39q0 -26 -15 -41t-40 -15q-52 0 -52 53zM382 48q0 26 15 41t41 15q24 0 37.5 -14t13.5 -39q0 -26 -15 -41t-40 -15q-52 0 -52 53z" />
<glyph unicode="&#x202f;" horiz-adv-x="177" />
<glyph unicode="&#x2039;" horiz-adv-x="235" d="M29 220l2 18l163 171l43 -26l1 -10l-136 -147l100 -146l-3 -10l-49 -26z" />
<glyph unicode="&#x203a;" horiz-adv-x="239" d="M9 71v11l135 146l-100 146l4 11l49 25l120 -176l-2 -18l-163 -171z" />
<glyph unicode="&#x205f;" horiz-adv-x="221" />
<glyph unicode="&#x20ac;" horiz-adv-x="487" d="M10 166l9 48h68q4 37 7 59h-68l-3 6l9 48h75q29 86 91.5 131.5t154.5 45.5q75 0 132 -33l-23 -66l-7 -2q-46 34 -111 34q-112 0 -153 -110h174l5 -6l-10 -48h-184q-4 -20 -6 -59h182l3 -6l-9 -48h-172q17 -99 121 -99q69 0 129 37l8 -6l-15 -63q-63 -35 -133 -35 q-181 0 -198 166h-73z" />
<glyph unicode="&#x2122;" horiz-adv-x="585" d="M73 603l7 38h182l2 -5l-8 -37l-47 2h-17l-17 -122l-7 -74h-51l11 70l14 126h-18l-49 -2zM274 405l55 236h61q0 -1 34 -144h3l58 108l16 36h59l-7 -236h-45l4 71l1 87h-4l-74 -134h-41l-37 134h-3l-20 -81l-15 -77h-45z" />
<glyph unicode="&#x25fc;" horiz-adv-x="470" d="M0 0v470h470v-470h-470z" />
</font>
</defs>
</svg>
