<?xml version="1.0" standalone="no"?>
<!DOCTYPE svg PUBLIC "-//W3C//DTD SVG 1.1//EN" "http://www.w3.org/Graphics/SVG/1.1/DTD/svg11.dtd" >
<svg xmlns="http://www.w3.org/2000/svg">
<metadata></metadata>
<defs>
<font id="alegreya_sansmedium" horiz-adv-x="480" >
<font-face units-per-em="1000" ascent="800" descent="-200" />
<missing-glyph horiz-adv-x="160" />
<glyph unicode="&#xa8;I" horiz-adv-x="279" d="M18 792q0 25 14.5 39.5t39.5 14.5q50 0 50 -51q0 -26 -14 -40.5t-39 -14.5q-51 0 -51 52zM86 0l7 193l-7 449h106l-6 -440l4 -202h-104zM156 792q0 25 14.5 39.5t39.5 14.5q50 0 50 -51q0 -26 -14 -40.5t-39 -14.5q-51 0 -51 52z" />
<glyph unicode="&#xa8;O" horiz-adv-x="639" d="M34 315q0 161 76.5 248t218.5 87q133 0 204.5 -82t71.5 -234q0 -164 -76.5 -253.5t-218.5 -89.5q-132 0 -204 84.5t-72 239.5zM140 328q0 -131 43.5 -192.5t134.5 -61.5t135.5 58.5t44.5 182.5q0 130 -43.5 190t-135.5 60t-135.5 -57.5t-43.5 -179.5zM186 792 q0 25 14.5 39.5t39.5 14.5q50 0 50 -51q0 -26 -14 -40.5t-39 -14.5q-51 0 -51 52zM350 792q0 25 14.5 39.5t39.5 14.5q50 0 50 -51q0 -26 -14 -40.5t-39 -14.5q-51 0 -51 52z" />
<glyph unicode="&#xb4;Y" horiz-adv-x="541" d="M11 642h110l13 -40l128 -269h8l140 267l16 42h109l-224 -417l-1 -41l4 -184h-104l7 184l-1 40zM174 767q130 67 198 107l10 -2l27 -61l-4 -10q-66 -29 -203 -82l-11 4z" />
<glyph unicode="&#xa8;i" horiz-adv-x="245" d="M3 611q0 25 14.5 39.5t39.5 14.5q50 0 50 -51q0 -26 -14 -40.5t-39 -14.5q-51 0 -51 52zM71 0l6 193l-5 261l102 9l-8 -261l7 -202h-102zM141 611q0 25 14.5 39.5t39.5 14.5q50 0 50 -51q0 -26 -14 -40.5t-39 -14.5q-51 0 -51 52z" />
<glyph unicode="&#xa8;o" horiz-adv-x="492" d="M37 223q0 119 56 183t159 64q97 0 149.5 -60.5t52.5 -171.5q0 -119 -56 -183t-159 -64q-97 0 -149.5 60.5t-52.5 171.5zM113 611q0 25 14.5 39.5t39.5 14.5q50 0 50 -51q0 -26 -14 -40.5t-39 -14.5q-51 0 -51 52zM132 245q0 -184 113 -184t113 154q0 184 -113 184 t-113 -154zM277 611q0 25 14.5 39.5t39.5 14.5q50 0 50 -51q0 -26 -14 -40.5t-39 -14.5q-51 0 -51 52z" />
<glyph unicode="&#xb4;y" horiz-adv-x="435" d="M-22 -128l4 11q70 14 115 41t78 76l-170 459l99 5l15 -65l98 -291h7l98 281l16 72h91l-158 -437q-32 -91 -87 -140t-150 -75h-9q-28 27 -47 63zM138 560q105 85 171 148l10 -1l38 -54l-2 -10q-79 -58 -181 -124l-10 1z" />
<glyph unicode="&#xfb01;" horiz-adv-x="571" d="M32 400l5 59h68l-1 51q0 100 49 147t153 47q61 0 131 -19l-12 -82l-11 -4q-70 32 -119 32q-48 0 -71 -24.5t-23 -76.5l-1 -71h242l57 8l8 -4l-7 -261l6 -202h-102l7 193l-4 201h-208l-3 -191l7 -203h-102l6 194l-2 200h-69z" />
<glyph unicode="&#xfb02;" horiz-adv-x="588" d="M32 400l5 59h67l-1 63q-1 92 51.5 140.5t150.5 48.5q59 0 127 -15l81 6l-8 -499l7 -203h-102l7 194l-5 420q-63 24 -113 24q-97 0 -98 -101l-1 -78h117l4 -7l-6 -58h-116l-3 -193l7 -201h-102l6 193l-2 201h-69z" />
<glyph horiz-adv-x="1000" />
<glyph horiz-adv-x="1000" />
<glyph unicode="&#xd;" horiz-adv-x="1000" />
<glyph unicode=" "  horiz-adv-x="160" />
<glyph unicode="&#x09;" horiz-adv-x="160" />
<glyph unicode="&#xa0;" horiz-adv-x="160" />
<glyph unicode="!" horiz-adv-x="260" d="M63 50q0 26 16 42t42 16q25 0 39 -14.5t14 -40.5q0 -27 -15 -43t-41 -16t-40.5 15t-14.5 41zM89 646l9 12l80 5l12 -13l-28 -424l-59 -8l-11 12z" />
<glyph unicode="&#x22;" horiz-adv-x="310" d="M55 434l1 200l78 6l7 -8l-28 -198l-50 -7zM182 434l2 200l78 6l7 -8l-29 -198l-50 -7z" />
<glyph unicode="#" horiz-adv-x="529" d="M20 196l5 54h105l24 111h-93l-7 7l5 54h108l32 152h58l7 -9l-30 -143h105l32 152h58l7 -9l-30 -143h97l6 -7l-5 -54h-111l-24 -111h99l7 -7l-5 -54h-114l-33 -157h-59l-6 8l32 149h-106l-33 -157h-60l-5 8l32 149h-91zM197 250h105l24 111h-105z" />
<glyph unicode="$" horiz-adv-x="441" d="M43 26l11 86l11 5q47 -45 114 -56l12 158q-30 13 -49 23t-41 26.5t-33 39t-11 51.5q0 57 42 97t114 47l10 140h50l10 -9l-10 -130q51 -5 100 -24l-14 -80l-14 -3q-37 28 -77 38l-12 -152q29 -12 48.5 -22.5t40.5 -27t31.5 -39t10.5 -50.5q0 -55 -40.5 -97t-113.5 -51 l-10 -128h-50l-8 9l9 118q-70 5 -131 31zM141 371q0 -35 57 -63l10 129q-31 -6 -49 -25t-18 -41zM238 61q30 7 47.5 26t17.5 42q0 37 -55 64z" />
<glyph unicode="%" horiz-adv-x="836" d="M36 463q0 90 40.5 137.5t116.5 47.5q70 0 107 -45t37 -128q0 -91 -39.5 -138t-115.5 -47q-70 0 -108 45t-38 128zM104 470q0 -114 83 -114t83 109q0 112 -84 112q-82 0 -82 -107zM141 -52l469 733l43 -26l7 -15l-469 -731l-45 26zM498 169q0 89 40.5 136.5t116.5 47.5 q70 0 107 -45t37 -128q0 -90 -39.5 -137.5t-115.5 -47.5q-70 0 -108 45t-38 129zM567 175q0 -114 82 -114q83 0 83 109q0 112 -84 112q-81 0 -81 -107z" />
<glyph unicode="&#x26;" horiz-adv-x="701" d="M52 170q0 110 115 168v5q-68 68 -68 146q0 74 51.5 116.5t146.5 42.5q88 0 160 -33l-23 -75h-14q-61 36 -125 36q-53 0 -80.5 -24t-27.5 -69q0 -54 61 -106l226 -201q12 33 12 75q0 54 -23 102h-67l-5 7l8 65h287l6 -7l-7 -65h-146l-3 -8q18 -54 18 -106q0 -63 -24 -114 l132 -117v-7q-29 -31 -57 -46l-7 1l-115 104q-74 -68 -198 -68q-105 0 -169 48t-64 130zM140 186q0 -58 42 -90t113 -32q83 0 133 44l-216 195q-72 -43 -72 -117z" />
<glyph unicode="'" horiz-adv-x="182" d="M55 434l1 200l78 6l7 -8l-28 -198l-50 -7z" />
<glyph unicode="(" horiz-adv-x="291" d="M77 255q1 153 39 248t124 159h10l36 -33v-9q-67 -56 -96.5 -141t-30.5 -223q1 -134 30.5 -216.5t96.5 -138.5v-9l-36 -32h-10q-86 63 -124 155t-39 240z" />
<glyph unicode=")" horiz-adv-x="291" d="M5 -99q67 56 96.5 141t30.5 223q-1 134 -30.5 216.5t-96.5 138.5v9l36 33h10q86 -64 124 -156t39 -240q-1 -153 -39 -248t-124 -158h-10l-36 32v9z" />
<glyph unicode="*" horiz-adv-x="378" d="M32 589q0 41 10 69l7 2l100 -63l-5 -37l-9 -4zM54 446v8l87 82l33 -17l1 -10l-58 -94q-21 6 -63 31zM160 726q29 11 68 11l5 -7l-26 -121l-38 -4l-6 7zM193 513l27 24l10 -1l64 -91q-13 -22 -47 -50l-9 2zM218 590l4 9l101 38q21 -31 32 -62l-5 -6l-115 -13z" />
<glyph unicode="+" d="M28 235l5 63h172v172l63 6l7 -8v-170h170l7 -7l-5 -63h-172v-172l-62 -5l-8 7v170h-170z" />
<glyph unicode="," horiz-adv-x="229" d="M37 -81q55 45 55 92q0 31 -31 53v9q37 24 73 33q43 -31 43 -75q0 -74 -106 -150l-33 30z" />
<glyph unicode="-" horiz-adv-x="306" d="M28 209v64l240 35l9 -8v-64l-240 -36z" />
<glyph unicode="." horiz-adv-x="229" d="M58 50q0 26 15.5 42t42.5 16q25 0 39 -14.5t14 -40.5q0 -27 -15 -43t-41 -16t-40.5 15t-14.5 41z" />
<glyph unicode="/" horiz-adv-x="286" d="M13 -105l205 784h69l8 -10l-205 -783h-71z" />
<glyph unicode="0" horiz-adv-x="525" d="M43 242q0 127 59.5 196.5t167.5 69.5q101 0 156.5 -65.5t55.5 -186.5q0 -126 -58.5 -195t-166.5 -69q-102 0 -158 65.5t-56 184.5zM123 249q0 -167 140 -167t140 162q0 170 -141 170q-139 0 -139 -165z" />
<glyph unicode="1" horiz-adv-x="351" d="M10 362v81l215 63l15 -11l-6 -288l5 -207h-103l6 196l-1 194l-122 -34z" />
<glyph unicode="2" horiz-adv-x="462" d="M44 2v63l137 144q52 56 76 92t24 64q0 24 -18 39t-50 15q-71 0 -135 -64h-11l-17 79q92 72 185 72q64 0 105 -31.5t41 -84.5q0 -76 -116 -206l-89 -101l2 -5h163l87 8l7 -7l-13 -84l-110 5h-226l-37 -2z" />
<glyph unicode="3" horiz-adv-x="420" d="M28 446q79 61 168 61q73 0 117.5 -36t44.5 -95q0 -42 -24 -81.5t-74 -65.5v-4q116 -31 116 -132q0 -85 -65.5 -137t-171.5 -52q-47 0 -103 9l-5 84l7 7q51 -22 106 -22q62 0 98.5 27.5t36.5 75.5q0 85 -113 90h-63l-6 7l3 70l44 1q41 0 76 29t35 72q0 33 -21.5 51.5 t-57.5 18.5q-54 0 -122 -55h-11z" />
<glyph unicode="4" horiz-adv-x="490" d="M24 75v66l249 360h94l-3 -354h90l6 -9l-5 -72l-90 2l4 -151l-6 -8l-78 -6l-6 7l3 158h-176l-75 -2zM113 147h170v235h-8z" />
<glyph unicode="5" horiz-adv-x="423" d="M26 -1l8 8q57 -25 114 -25q62 0 98.5 31t36.5 82q0 40 -27.5 64t-89.5 35l-89 17l-8 9l5 270l14 14l55 -3h139l98 5l6 -7l-11 -80l-7 -7l-82 7h-134l-3 -137l62 -13q91 -19 129.5 -57.5t38.5 -100.5q0 -93 -68.5 -151t-176.5 -58q-42 0 -101 11z" />
<glyph unicode="6" horiz-adv-x="475" d="M41 212q0 126 76.5 225.5t216.5 157.5h6l76 -46v-10q-115 -41 -179 -92t-88 -122l7 -8q55 37 118 37q76 0 119 -47.5t43 -123.5q0 -83 -54 -137.5t-148 -54.5q-95 0 -144 58t-49 163zM133 214q0 -78 25.5 -116t82.5 -38q49 0 76.5 28t27.5 81q0 54 -26 83t-74 29 q-55 0 -111 -43z" />
<glyph unicode="7" horiz-adv-x="424" d="M19 418l7 87l99 -4h225l45 2l1 -75l-182 -398l-49 -131l-82 22l-6 17l223 479h-192l-83 -9z" />
<glyph unicode="8" horiz-adv-x="482" d="M45 143q0 94 113 149v5q-91 47 -91 138q0 73 50.5 115.5t132.5 42.5q76 0 119.5 -38t43.5 -104q0 -83 -92 -141v-5q51 -25 80.5 -56.5t29.5 -87.5q0 -78 -55.5 -123.5t-147.5 -45.5q-86 0 -134.5 41.5t-48.5 109.5zM131 155q0 -42 28.5 -67t77.5 -25q51 0 80 25.5 t29 65.5q0 22 -8.5 39t-29 30t-34 20t-44.5 19q-47 -17 -73 -41t-26 -66zM151 438q0 -39 25 -61t72 -40q40 19 62.5 42.5t22.5 61.5q0 37 -23.5 58.5t-64.5 21.5q-44 0 -69 -22.5t-25 -60.5z" />
<glyph unicode="9" horiz-adv-x="475" d="M39 319q0 83 54 137.5t148 54.5q95 0 144 -58t49 -163q0 -126 -76.5 -225.5t-216.5 -157.5h-6l-76 46v10q115 41 179 92t88 122l-7 8q-55 -37 -118 -37q-76 0 -119 47.5t-43 123.5zM130 333q0 -54 26 -83t74 -29q55 0 111 43l1 24q0 78 -25.5 116t-82.5 38 q-49 0 -76.5 -28t-27.5 -81z" />
<glyph unicode=":" horiz-adv-x="229" d="M54 50q0 26 15.5 42t42.5 16q25 0 39 -14.5t14 -40.5q0 -27 -15.5 -43t-41.5 -16q-25 0 -39.5 15t-14.5 41zM54 316q0 27 15.5 43t42.5 16q25 0 39 -14.5t14 -40.5q0 -27 -15.5 -43t-41.5 -16q-25 0 -39.5 14.5t-14.5 40.5z" />
<glyph unicode=";" horiz-adv-x="229" d="M33 -81q55 46 55 92q0 30 -31 53v9q37 24 73 33q43 -31 43 -75q0 -74 -106 -150l-34 30v8zM54 316q0 27 15.5 43t42.5 16q25 0 39 -14.5t14 -40.5q0 -27 -15.5 -43t-41.5 -16q-25 0 -39.5 14.5t-14.5 40.5z" />
<glyph unicode="&#x3c;" d="M35 221v83l8 10l378 152l22 -58l-5 -9l-327 -131v-6l329 -124l-15 -58l-10 -7z" />
<glyph unicode="=" d="M28 147l5 63h412l7 -7l-5 -63h-412zM28 323l5 62h412l7 -7l-5 -62h-412z" />
<glyph unicode="&#x3e;" d="M37 408l22 58l378 -152l8 -10v-83l-380 -148l-10 7l-15 58l329 124v6l-327 131z" />
<glyph unicode="?" horiz-adv-x="335" d="M55 602l19 57l11 5q125 -7 192.5 -48t67.5 -111q0 -82 -87 -135l-78 -50l-2 -4l6 -92l-72 -9l-8 8l-8 117l5 10l93 52q59 34 59 87q0 92 -191 103zM94 50q0 26 15.5 42t41.5 16q25 0 39.5 -14.5t14.5 -40.5q0 -27 -15.5 -43t-41.5 -16q-54 0 -54 56z" />
<glyph unicode="@" horiz-adv-x="833" d="M33 186q0 192 119 314.5t312 122.5q155 0 248.5 -87t93.5 -232q0 -144 -92 -223t-263 -84l26 185h-11q-70 -118 -143 -190h-16q-87 42 -87 160q0 69 25 133t80.5 114.5t131.5 64.5h5l69 -22l57 23l11 -5l-50 -349l-2 -41q90 12 140.5 73t50.5 158q0 118 -77.5 188.5 t-207.5 67.5q-158 -2 -254.5 -102t-96.5 -256q0 -160 104 -251.5t278 -91.5l4 -10l-30 -49q-194 2 -309.5 105.5t-115.5 283.5zM305 181q0 -90 28 -90q12 0 36.5 26.5t61.5 87.5t70 141l1 8l1 13l-64 24q-62 0 -98 -59.5t-36 -150.5z" />
<glyph unicode="A" horiz-adv-x="587" d="M11 0l229 642h121l207 -642h-106l-15 72l-28 89l-136 3l-123 -3l-30 -84l-16 -77h-103zM189 245l101 -2l103 2l-92 296h-7z" />
<glyph unicode="B" horiz-adv-x="554" d="M86 0l7 193l-7 449l200 1q93 0 144.5 -40.5t51.5 -117.5q0 -110 -96 -151q132 -28 132 -154q0 -184 -275 -184q-95 0 -156 4h-1zM185 202l3 -123q39 -3 72 -3q74 0 114 28t40 82q0 86 -111 101l-117 -1zM187 366l103 -3q86 21 86 110q0 48 -27 69t-91 21h-68z" />
<glyph unicode="C" horiz-adv-x="519" d="M34 315q0 160 76.5 247t216.5 87q98 0 173 -44l-19 -91l-10 -3q-67 52 -148 52q-88 0 -134.5 -59.5t-46.5 -177.5q0 -121 47 -184t134 -63q88 0 160 55l10 -6l-8 -94q-86 -42 -170 -42q-135 0 -208 84t-73 239z" />
<glyph unicode="D" horiz-adv-x="650" d="M86 0l7 193l-7 449h1l243 4q138 0 212 -78t74 -224q0 -169 -81 -259.5t-233 -90.5q-97 0 -215 6h-1zM186 202l3 -119q79 -7 131 -7q189 0 189 245q0 124 -46.5 182.5t-140.5 58.5q-55 0 -131 -4z" />
<glyph unicode="E" horiz-adv-x="493" d="M86 0l7 193l-7 449h381l6 -9l-8 -79l-152 4l-122 -1l-3 -187l116 -2l106 3l7 -8l-8 -79l-113 3l-109 -2l-1 -83l3 -118l122 -1l155 5l6 -9l-7 -79h-379z" />
<glyph unicode="F" horiz-adv-x="443" d="M86 0l7 193l-7 449h359l7 -9l-8 -81l-150 6l-103 -1l-3 -202l101 -2l106 3l7 -9l-8 -78l-114 3l-93 -1l-1 -69l5 -202h-105z" />
<glyph unicode="G" horiz-adv-x="599" d="M34 307q0 166 83.5 254t238.5 88q101 0 188 -43l-21 -96l-11 -1q-92 54 -173 54q-100 0 -149 -60.5t-49 -190.5q0 -124 46 -179.5t146 -55.5q44 0 111 20l3 65l-3 96l97 7l-2 -87l3 -147q-124 -39 -215 -39q-147 0 -220 81.5t-73 233.5z" />
<glyph unicode="H" horiz-adv-x="688" d="M86 0l7 193l-7 449h106l-4 -275l156 -3l156 3l-4 275h106l-6 -440l4 -202h-104l7 193l-1 87l-166 3l-149 -3l-1 -78l5 -202h-105z" />
<glyph unicode="I" horiz-adv-x="279" d="M86 0l7 193l-7 449h106l-6 -440l5 -202h-105z" />
<glyph unicode="J" horiz-adv-x="321" d="M6 569l6 73h223l-6 -430l2 -93q0 -78 -40.5 -128.5t-140.5 -94.5l-36 57v11q67 35 94.5 68.5t27.5 86.5v83l-4 360l-117 -1z" />
<glyph unicode="K" horiz-adv-x="562" d="M85 0l7 193l-7 449h106l-6 -440l5 -202h-105zM194 335v6l201 243l38 58h114l-246 -302q122 -164 265 -318l-2 -12q-47 -13 -100 -19l-11 6q-155 187 -259 338z" />
<glyph unicode="L" horiz-adv-x="423" d="M83 0l7 193l-7 449h106l-6 -440l2 -116h229l7 -9l-8 -77h-330z" />
<glyph unicode="M" horiz-adv-x="792" d="M53 0l67 642h118q20 -67 46 -140t58 -160t49 -137h8l130 344l30 93h117l61 -642h-92l-13 195l-30 290h-7l-165 -414h-82l-153 414h-9l-30 -281l-16 -204h-87z" />
<glyph unicode="N" horiz-adv-x="688" d="M86 0l7 190l-5 452h110l302 -481h8l-3 476l97 7l-7 -452l4 -192h-111l-301 481h-8l-1 -266l5 -215h-97z" />
<glyph unicode="O" horiz-adv-x="639" d="M34 315q0 161 76.5 248t218.5 87q133 0 204.5 -82t71.5 -234q0 -164 -77 -253.5t-218 -89.5q-132 0 -204 84.5t-72 239.5zM140 328q0 -131 43.5 -192.5t134.5 -61.5t135.5 58.5t44.5 182.5q0 130 -43.5 190t-134.5 60q-92 0 -136 -57.5t-44 -179.5z" />
<glyph unicode="P" horiz-adv-x="534" d="M86 0l7 193l-7 449l218 1q97 0 149.5 -49.5t52.5 -142.5q0 -108 -66.5 -171t-182.5 -63h-71v-15l5 -202h-105zM187 299l100 -2q112 21 112 145q0 60 -30.5 89t-92.5 31l-85 -3z" />
<glyph unicode="Q" horiz-adv-x="643" d="M34 315q0 161 76.5 248t218.5 87q133 0 204.5 -82t71.5 -236q0 -124 -45.5 -206.5t-131.5 -114.5q141 -93 302 -125l4 -12q-20 -41 -47 -66l-9 -4q-192 59 -344 188l-22 -1q-134 0 -206 84.5t-72 239.5zM140 325q0 -129 44 -190t136 -61q178 0 178 244q0 127 -44 187 t-135 60q-92 0 -135.5 -58t-43.5 -182z" />
<glyph unicode="R" horiz-adv-x="570" d="M86 0l7 193l-7 449l218 1q97 0 150 -48.5t53 -138.5q0 -64 -33.5 -115.5t-93.5 -83.5q68 -109 161 -233l-1 -12q-48 -16 -99 -21l-12 8q-83 136 -134 230h-109v-27l5 -202h-105zM188 313l110 -3q101 31 101 138q0 109 -123 114l-85 -3z" />
<glyph unicode="S" horiz-adv-x="483" d="M38 35l13 102l13 6q37 -35 81.5 -52.5t82.5 -17.5q52 0 83 27.5t31 65.5q0 34 -29.5 60t-72 45t-85 41t-72 60t-29.5 90q0 80 61.5 133.5t158.5 53.5q76 0 152 -32l-17 -94l-16 -6q-66 49 -131 49q-49 0 -78 -27t-29 -63q0 -32 30 -57t72.5 -44.5t84.5 -41.5t72 -60.5 t30 -90.5q0 -80 -63 -135t-163 -55q-92 0 -180 43z" />
<glyph unicode="T" horiz-adv-x="495" d="M19 564l8 78h444l6 -9l-6 -78l-116 6h-54l-5 -359l5 -202h-104l6 193l-5 368h-54l-118 -6z" />
<glyph unicode="U" horiz-adv-x="631" d="M69 232l2 89l-2 321h102l-4 -396q-1 -166 148 -166q150 0 149 156l-5 406h104l-3 -326l-1 -76q2 -118 -64 -183t-187 -65q-117 0 -179 62.5t-60 177.5z" />
<glyph unicode="V" horiz-adv-x="573" d="M12 642h106l15 -73l147 -469h7l163 464l16 78h103l-227 -642h-122z" />
<glyph unicode="W" horiz-adv-x="897" d="M20 642h102l11 -69l138 -463h8l126 372l-51 160h105l16 -79l140 -453h8l155 457l16 75h96l-222 -642h-108l-113 345h-7l-117 -345h-109z" />
<glyph unicode="X" horiz-adv-x="598" d="M19 0l212 321l-207 321h125l28 -56l122 -186l125 188l26 54h111l-200 -307l215 -335h-125l-29 57l-131 197l-137 -203l-27 -51h-108z" />
<glyph unicode="Y" horiz-adv-x="541" d="M11 642h110l13 -40l127 -269h9l140 267l16 42h108l-224 -418l-1 -40l5 -184h-104l6 184l-1 41z" />
<glyph unicode="Z" horiz-adv-x="536" d="M31 -3v75l344 488h-227l-103 -8l-6 6l8 85l395 -1l54 1v-76l-342 -486h244l101 8l5 -6l-9 -85l-129 2h-270z" />
<glyph unicode="[" horiz-adv-x="291" d="M90 -118l5 378l-5 377l192 10l5 -6v-47l-113 -13v-644l113 -12v-47l-5 -6z" />
<glyph unicode="\" horiz-adv-x="286" d="M-1 669l8 10h69l206 -784l-7 -9h-70z" />
<glyph unicode="]" horiz-adv-x="291" d="M4 -75l113 13v644l-113 12v48l5 5l192 -10l-5 -377l5 -378l-192 -10l-5 6v47z" />
<glyph unicode="^" horiz-adv-x="431" d="M19 134l152 354l10 6h83l149 -355l-8 -9l-57 -14l-125 304h-6l-131 -303l-9 -5z" />
<glyph unicode="_" horiz-adv-x="447" d="M-15 -146l6 58h464l7 -8l-5 -58h-465z" />
<glyph unicode="`" horiz-adv-x="389" d="M85 653l38 54l10 1q66 -63 171 -148l-26 -40l-10 -1q-102 66 -181 124z" />
<glyph unicode="a" horiz-adv-x="470" d="M37 123q0 89 97 111l158 35l1 54q0 75 -72 75q-64 0 -143 -64l-8 5l-13 71q88 60 180 60q69 0 109 -33t40 -92q0 -18 -6 -119t-6 -118q0 -19 6.5 -26.5t22.5 -7.5q10 0 30 4l9 -7l-10 -56q-29 -18 -63 -22q-31 3 -50 22.5t-23 51.5h-7q-51 -54 -104 -75q-69 1 -108.5 36 t-39.5 95zM128 136q0 -30 16.5 -47t44.5 -17q47 0 100 61l3 77l-130 -31q-34 -7 -34 -43z" />
<glyph unicode="b" horiz-adv-x="516" d="M75 -2l7 194l-6 502l102 8l-4 -305h6q58 49 120 69q87 0 133 -58t46 -163q0 -122 -59 -188t-164 -66q-51 0 -102 23l-63 -26zM171 204l3 -116q45 -27 86 -27q58 0 91.5 42.5t32.5 127.5q-2 74 -27.5 113.5t-73.5 39.5q-53 0 -110 -60z" />
<glyph unicode="c" horiz-adv-x="385" d="M37 226q0 114 56 179t155 65q69 0 123 -26l-17 -85l-10 -4q-53 31 -98 31q-53 0 -83 -40t-30 -112q0 -77 31 -119.5t88 -42.5q50 0 107 30l9 -6l-10 -82q-61 -23 -122 -23q-94 0 -146.5 62.5t-52.5 172.5z" />
<glyph unicode="d" horiz-adv-x="520" d="M35 229q0 115 60 177.5t167 62.5q36 0 78 -8l-2 233l102 8l-8 -499l3 -96q1 -19 6.5 -26t19.5 -7q12 0 31 4l9 -7l-9 -56q-29 -18 -64 -22q-63 6 -74 70h-8q-57 -48 -104 -69q-100 0 -153.5 61.5t-53.5 173.5zM131 241q1 -80 30.5 -122t82.5 -42q51 0 98 52l2 65l-3 182 q-49 23 -89 23q-58 0 -90 -40t-31 -118z" />
<glyph unicode="e" horiz-adv-x="460" d="M37 228q0 112 60 176.5t161 64.5q80 0 124 -47t44 -130q0 -26 -4 -50l-17 -16h-274q3 -156 132 -156q65 0 135 42l9 -6l-12 -81q-70 -34 -140 -34q-103 0 -160.5 63.5t-57.5 173.5zM136 288l197 5l2 12q0 94 -83 94q-46 0 -76 -29t-40 -82z" />
<glyph unicode="f" horiz-adv-x="314" d="M32 400l5 59h68l-1 69q-1 85 46.5 130.5t134.5 45.5q39 0 81 -9l-6 -77l-7 -6q-43 19 -77 19q-74 0 -75 -86l-1 -86h118l3 -7l-6 -58h-116l-3 -191l7 -203h-102l6 194l-2 200h-69z" />
<glyph unicode="g" horiz-adv-x="492" d="M51 -60q25 41 86 81v5q-73 24 -73 84q26 37 64 61v5q-69 38 -69 128q0 76 50.5 119.5t136.5 43.5q52 0 92 -17q74 12 148 35l9 -6v-67q-28 -9 -86 -19l-2 -4q19 -32 19 -77q0 -74 -51 -117.5t-138 -43.5q-32 0 -61 6q-21 -17 -21 -33q0 -19 30.5 -28.5t73.5 -15t86 -14.5 t73.5 -35t30.5 -68q0 -67 -63.5 -112t-157.5 -45q-84 0 -130.5 37t-46.5 97zM138 -66q0 -27 26.5 -44.5t75.5 -17.5q53 0 87 20t34 52q0 11 -4 19.5t-14.5 15t-19 10.5t-26.5 8t-29 5.5t-33.5 4.5t-32.5 5q-64 -41 -64 -78zM149 309q0 -45 23.5 -69t68.5 -24q46 0 70.5 25 t24.5 71q0 89 -91 89q-96 0 -96 -92z" />
<glyph unicode="h" horiz-adv-x="524" d="M76 0l6 194l-5 500l102 8l-5 -306h6q59 52 123 71q77 0 116.5 -35t38.5 -100l-3 -130l5 -202h-103l7 303q1 38 -17.5 59.5t-53.5 21.5q-58 0 -120 -60l-2 -121l7 -203h-102z" />
<glyph unicode="i" horiz-adv-x="245" d="M68 618q0 26 15.5 42t42.5 16q25 0 39 -14.5t14 -40.5q0 -27 -15 -43t-41 -16t-40.5 15t-14.5 41zM71 0l6 193l-5 261l102 9l-8 -261l7 -202h-102z" />
<glyph unicode="j" horiz-adv-x="275" d="M3 401l5 58h92l95 4l3 -2l-7 -259l5 -180q0 -78 -34.5 -127.5t-115.5 -88.5l-37 45v11q51 28 71.5 63t20.5 93l1 175l-4 201h-88zM76 618q0 26 15.5 42t42.5 16q25 0 39 -14.5t14 -40.5q0 -27 -15 -43t-41 -16t-40.5 15t-14.5 41z" />
<glyph unicode="k" horiz-adv-x="472" d="M76 0l6 194l-5 500l102 8l-8 -499l7 -203h-102zM186 242v7l132 168l25 44h111l-169 -210q65 -91 180 -233v-12q-23 -6 -93 -15l-12 4q-102 132 -174 247z" />
<glyph unicode="l" horiz-adv-x="254" d="M76 0l7 194l-6 500l102 8l-8 -499l7 -203h-102z" />
<glyph unicode="m" horiz-adv-x="799" d="M71 0l6 193l-5 261l97 9l-1 -67h7q60 53 123 71q113 0 144 -75h6q61 53 132 75q77 0 116.5 -35t38.5 -100l-3 -130l5 -202h-103l7 303q1 38 -17.5 59.5t-53.5 21.5q-57 0 -118 -58l-2 -124l4 -202h-102l7 303q1 38 -17.5 59.5t-53.5 21.5q-58 0 -120 -60l-1 -122l5 -202 h-101z" />
<glyph unicode="n" horiz-adv-x="520" d="M71 0l6 193l-5 261l97 9l-1 -67h7q59 52 123 71q77 0 116.5 -35t38.5 -100l-3 -130l5 -202h-103l7 303q1 38 -17.5 59.5t-53.5 21.5q-58 0 -120 -60l-1 -122l6 -202h-102z" />
<glyph unicode="o" horiz-adv-x="492" d="M37 223q0 119 56 183t159 64q97 0 149.5 -60.5t52.5 -171.5q0 -119 -56 -183t-159 -64q-97 0 -149.5 60.5t-52.5 171.5zM132 245q0 -184 114 -184q113 0 113 154q0 184 -113 184q-114 0 -114 -154z" />
<glyph unicode="p" horiz-adv-x="510" d="M71 -185l6 378l-6 261l98 9l-1 -66h7q58 50 120 69q87 0 133 -58t46 -164q0 -122 -59.5 -187.5t-167.5 -65.5q-35 0 -78 8l3 -184h-101zM166 202l2 -119q44 -22 87 -22q58 0 91 42.5t32 127.5q-1 73 -26.5 113t-73.5 40q-52 0 -111 -60z" />
<glyph unicode="q" horiz-adv-x="510" d="M35 226q0 117 59.5 180t164.5 63q53 0 120 -19l52 18l9 -6l-8 -260l7 -387h-101l5 216v21h-9q-43 -35 -96 -58q-98 0 -150.5 61.5t-52.5 170.5zM131 237q1 -76 29.5 -118t79.5 -42t103 53l1 62l-3 181q-49 25 -90 25q-58 0 -89.5 -40t-30.5 -121z" />
<glyph unicode="r" horiz-adv-x="332" d="M71 0l7 193l-6 261l97 9l-1 -92h7q50 91 126 91q11 0 25 -2v-97l-11 -3q-17 5 -37 5q-62 0 -111 -97l-1 -66l7 -202h-102z" />
<glyph unicode="s" horiz-adv-x="376" d="M27 22l12 85l11 7q62 -54 128 -54q32 0 51.5 17.5t19.5 41.5q0 23 -21.5 40t-51.5 30t-60.5 28t-52 44t-21.5 69q0 61 45 100t123 39q60 0 117 -23l-14 -80l-13 -3q-52 35 -102 35q-30 0 -47.5 -16t-17.5 -39t21.5 -40t51.5 -29.5t60.5 -27.5t52 -43t21.5 -67 q0 -60 -45.5 -102.5t-127.5 -42.5q-69 0 -140 31z" />
<glyph unicode="t" horiz-adv-x="327" d="M20 400l5 59h61v73l90 34l9 -8l-2 -99h128l4 -7l-5 -58h-129l-5 -251q-1 -37 12.5 -51.5t45.5 -14.5q33 0 70 18l10 -7l-10 -64q-55 -26 -102 -30q-62 10 -90 41.5t-28 91.5l4 72l-1 195h-63z" />
<glyph unicode="u" horiz-adv-x="515" d="M66 454l101 9l-5 -306q-1 -37 16.5 -58t52.5 -21q55 0 109 51v325l97 9l-7 -356q0 -19 6 -26t21 -7q12 0 31 4l9 -7l-10 -56q-29 -18 -63 -22q-61 6 -74 71h-8q-59 -53 -120 -70q-75 0 -115 35t-39 100l2 125z" />
<glyph unicode="v" horiz-adv-x="433" d="M18 459l94 5l13 -68l87 -298h7l102 293l17 70h90l-163 -461h-110z" />
<glyph unicode="w" horiz-adv-x="685" d="M18 459l93 5l10 -65l73 -293h7l85 288l17 67h98l11 -62l74 -293h6l85 288l16 67h87l-148 -461h-97l-85 332h-8l-99 -332h-100z" />
<glyph unicode="x" horiz-adv-x="446" d="M20 0l141 233l-141 225l108 6l20 -49l82 -124l77 126l24 44h91l-138 -226l147 -231l-107 -9l-22 52l-85 129l-85 -134l-21 -42h-91z" />
<glyph unicode="y" horiz-adv-x="435" d="M-22 -128l3 11q71 14 116 41t77 76l-169 459l99 5l15 -65l97 -291h8l98 281l15 72h91l-157 -437q-32 -91 -87 -140t-150 -75h-9q-28 27 -47 63z" />
<glyph unicode="z" horiz-adv-x="417" d="M30 58l245 335h-156l-77 -8l-6 8l7 70l91 -2h202l44 1l2 -61l-244 -333h164l80 8l6 -8l-8 -70l-103 2h-192l-54 -2z" />
<glyph unicode="{" horiz-adv-x="291" d="M41 239v50q76 16 76 83q0 20 -10 79t-10 90q0 115 124 115q19 0 57 -8l4 -8l-9 -54q-23 5 -36 5q-59 0 -59 -68q0 -23 11 -77.5t11 -75.5q0 -74 -68 -103v-5q68 -29 68 -102q0 -22 -11 -76t-11 -78q0 -70 59 -70q13 0 36 5l9 -52l-4 -8q-25 -8 -57 -8q-124 0 -124 115 q0 31 10 89.5t10 78.5q0 67 -76 83z" />
<glyph unicode="|" horiz-adv-x="311" d="M116 -251v533l1 512l71 6l7 -7l-1 -504v-545l-70 -5z" />
<glyph unicode="}" horiz-adv-x="291" d="M9 -111l9 53q22 -5 36 -5q59 0 59 69q0 23 -11 77.5t-11 75.5q0 74 68 103v5q-68 29 -68 101q0 23 11 77t11 78q0 69 -59 69q-14 0 -36 -5l-9 53l4 8q30 8 57 8q124 0 124 -115q0 -31 -10.5 -89.5t-10.5 -78.5q0 -68 77 -83v-50q-77 -18 -77 -84q0 -20 10.5 -78.5 t10.5 -89.5q0 -115 -124 -115q-27 0 -57 8z" />
<glyph unicode="~" d="M42 229v10l76 81l11 6q22 -4 104 -27.5t100 -23.5q16 0 61 45l8 8h10l27 -34v-10l-76 -82l-11 -4q-25 3 -105.5 26.5t-97.5 23.5q-4 0 -8 -1t-9 -4.5t-8.5 -6t-10 -8.5t-10 -9.5l-12 -12l-11.5 -11.5h-11z" />
<glyph unicode="&#xa1;" horiz-adv-x="260" d="M73 -184l28 424l59 8l11 -12l3 -416l-9 -12l-80 -5zM89 413q0 27 15 43t41 16t40.5 -15t14.5 -41t-16 -42t-42 -16q-25 0 -39 14.5t-14 40.5z" />
<glyph unicode="&#xa2;" horiz-adv-x="383" d="M34 266q0 105 47 168.5t131 72.5l10 146h50l9 -9l-10 -137q53 -6 94 -31l-15 -65l-10 -2q-35 22 -73 29l-26 -335h3q57 0 113 32l9 -5l-8 -61q-55 -31 -122 -34l-12 -156h-50l-8 9l11 153q-68 16 -105.5 75t-37.5 150zM114 274q0 -116 68 -156l24 318q-44 -12 -68 -54.5 t-24 -107.5z" />
<glyph unicode="&#xa3;" horiz-adv-x="428" d="M21 6l6 54q72 16 72 104v119h-73l-4 6l5 50h71v84q-1 82 46 126.5t133 44.5q48 0 111 -17l-6 -75l-6 -6q-57 33 -106 33q-86 0 -86 -92v-98h127l4 -6l-5 -50h-127v-111q0 -65 -40 -98v-3h156l96 7l4 -7l-7 -73l-110 2h-256z" />
<glyph unicode="&#xa4;" horiz-adv-x="435" d="M23 492v10l43 46l10 -1l63 -68q34 25 78 25q41 0 75 -23l62 68l10 1l46 -44v-10l-68 -63q25 -36 25 -79q0 -40 -24 -75l69 -61l1 -10l-44 -47l-10 1l-62 68q-36 -26 -80 -26q-41 0 -75 24l-61 -68h-10l-47 44l1 10l68 61q-26 36 -26 79q0 42 24 77zM125 354 q0 -40 26.5 -66t65.5 -26q40 0 66.5 26t26.5 66t-26.5 66.5t-66.5 26.5q-39 0 -65.5 -26.5t-26.5 -66.5z" />
<glyph unicode="&#xa5;" horiz-adv-x="500" d="M24 122l3 43h183v3l-45 83h-137l-4 6l3 43h112l-106 200h91l11 -31l113 -206h7l122 203l15 34h89l-116 -200h112l5 -5l-4 -44h-142l-47 -81v-5h188l4 -5l-3 -43h-189l2 -117h-85l3 117h-181z" />
<glyph unicode="&#xa6;" horiz-adv-x="311" d="M116 152l69 8l9 -10v-406l-70 -5l-8 10v403zM116 373v421l72 6l7 -7l-1 -419l-70 -8z" />
<glyph unicode="&#xa7;" horiz-adv-x="425" d="M31 -69l13 84l10 7q62 -56 128 -56q36 0 57 18.5t21 42.5q0 22 -23 42.5t-55.5 39.5t-65 40t-55.5 53t-23 71q0 42 25.5 78.5t68.5 59.5q-49 42 -49 95q0 59 49.5 101t123.5 42q59 0 116 -23l-13 -82l-13 -3q-58 40 -105 40q-31 0 -51.5 -18.5t-20.5 -41.5 q0 -22 23 -42.5t55.5 -38.5t65 -39.5t55.5 -53t23 -70.5q0 -42 -25 -78.5t-69 -58.5q50 -43 50 -97q0 -59 -50 -101t-126 -42q-73 0 -140 31zM124 294q0 -10 3 -19t11 -18.5t14 -16t20 -16t20.5 -14t25 -15.5t24.5 -15q63 28 63 74q0 10 -3 19.5t-11 19.5t-13.5 16t-19.5 16 t-20.5 14.5t-25 16t-23.5 14.5q-65 -31 -65 -76z" />
<glyph unicode="&#xa8;" horiz-adv-x="389" d="M61 611q0 25 14.5 39.5t39.5 14.5q50 0 50 -51q0 -26 -14 -40.5t-39 -14.5q-51 0 -51 52zM225 611q0 25 14.5 39.5t39.5 14.5q50 0 50 -51q0 -26 -14 -40.5t-39 -14.5q-51 0 -51 52z" />
<glyph unicode="&#xa9;" horiz-adv-x="686" d="M45 293q0 137 81.5 221t215.5 84t216 -84t82 -221t-82 -221t-216 -84t-215.5 84t-81.5 221zM84 293q0 -120 71 -193t187 -73t187.5 73t71.5 193t-71.5 193t-187.5 73t-187 -73t-71 -193zM194 294q0 82 43 126.5t123 44.5q45 0 92 -20l-13 -56l-6 -3q-34 21 -75 21 q-92 0 -92 -107q0 -116 93 -116q42 0 80 20l7 -3l-6 -56q-43 -19 -86 -19q-79 0 -119.5 43t-40.5 125z" />
<glyph unicode="&#xaa;" horiz-adv-x="328" d="M30 421q0 65 68 77l100 18l1 30q0 44 -44 44q-36 0 -93 -36l-6 3l-10 56q60 37 124 37q52 0 80 -23t28 -65q0 -10 -3 -74t-3 -72q0 -24 15 -24q9 0 17 5l6 -5l-8 -47q-21 -15 -46 -15q-23 0 -35 11t-18 37h-3q-34 -40 -73 -49q-45 1 -71 25t-26 67zM108 429q0 -40 37 -40 q27 0 52 30l1 57l-63 -14q-27 -5 -27 -33z" />
<glyph unicode="&#xab;" horiz-adv-x="411" d="M20 216v19l141 175l48 -27l2 -11l-116 -145l116 -145l-2 -11l-48 -27zM194 216v19l141 175l48 -27l2 -11l-116 -145l116 -145l-2 -11l-48 -27z" />
<glyph unicode="&#xac;" d="M26 235l6 63h389l6 -7v-235l-62 -5l-8 7v170h-324z" />
<glyph unicode="&#xad;" horiz-adv-x="306" d="M28 209v64l240 35l9 -8v-64l-240 -36z" />
<glyph unicode="&#xae;" horiz-adv-x="442" d="M38 519q0 83 50 133t133 50t133.5 -50t50.5 -133t-50.5 -133.5t-133.5 -50.5q-82 0 -132.5 50.5t-50.5 133.5zM68 519q0 -70 42 -112.5t112 -42.5q69 0 111.5 42.5t42.5 112.5t-42.5 112t-111.5 42q-70 0 -112 -42t-42 -112zM153 428l1 58l-1 137h78q66 0 66 -59 q0 -38 -38 -59q24 -37 51 -68l-1 -4q-13 -6 -40 -8l-5 3q-21 32 -40 67h-32v-4l2 -63h-41zM193 528l34 -2q28 11 28 35q0 29 -38 31l-23 -1z" />
<glyph unicode="&#xaf;" horiz-adv-x="389" d="M48 587l5 58h282l7 -7l-5 -59h-282z" />
<glyph unicode="&#xb0;" horiz-adv-x="293" d="M19 523q0 53 37 90t91 37q53 0 90 -37t37 -90t-37 -89.5t-90 -36.5q-54 0 -91 36.5t-37 89.5zM65 523q0 -33 24 -56.5t57 -23.5q34 0 57.5 23.5t23.5 56.5t-23.5 56.5t-57.5 23.5q-33 0 -57 -23.5t-24 -56.5z" />
<glyph unicode="&#xb1;" d="M28 -95l5 63h412l7 -7l-5 -63h-412zM28 235l6 63h171v172l63 6l8 -8v-170h169l8 -7l-6 -63h-171v-172l-63 -5l-8 7v170h-170z" />
<glyph unicode="&#xb2;" horiz-adv-x="354" d="M37 322v51l96 109q39 46 55.5 70.5t16.5 44.5q0 17 -12 28t-34 11q-52 0 -96 -49h-10l-14 65q72 54 141 54q49 0 80.5 -24t31.5 -66q0 -29 -19 -63t-64 -89l-59 -75l2 -2h108l66 3l3 -6l-9 -67l-86 3h-166l-27 -1z" />
<glyph unicode="&#xb3;" horiz-adv-x="313" d="M26 668q56 39 120 39q52 0 83.5 -24.5t31.5 -65.5q0 -61 -61 -91v-4q74 -20 74 -90q0 -52 -46 -84.5t-120 -32.5q-37 0 -72 8l-5 60l6 6q37 -10 72 -10q38 0 59.5 14.5t21.5 40.5q0 47 -61 49h-47l-4 5l1 57h30q25 1 45 17t20 39q0 39 -47 39q-34 0 -78 -29h-9z" />
<glyph unicode="&#xb4;" horiz-adv-x="389" d="M86 560q105 85 171 148l10 -1l38 -54l-2 -10q-79 -58 -181 -124l-10 1z" />
<glyph unicode="&#xb5;" horiz-adv-x="515" d="M66 -185l4 378l-4 261l96 9v-311q1 -35 19.5 -54.5t51.5 -19.5q51 0 107 51v325l97 9l-7 -351q-1 -44 26 -44q16 0 30 10l9 -7l-11 -56q-31 -21 -64 -21q-58 0 -75 66h-8q-56 -52 -120 -66q-31 0 -55 9v-188h-96z" />
<glyph unicode="&#xb6;" horiz-adv-x="500" d="M33 438q0 98 59.5 151t169.5 53h208l8 -9l-8 -70h-71l-3 -375l1 -56q0 -71 -40 -121t-134 -92l-28 47v11q56 32 81 67.5t25 82.5v47l-3 390h-53q-50 -6 -77.5 -39.5t-27.5 -89.5t30.5 -96.5t87.5 -60.5l-35 -56q-92 20 -141 75t-49 141z" />
<glyph unicode="&#xb7;" horiz-adv-x="229" d="M58 247q0 26 15.5 42t42.5 16q25 0 39 -14.5t14 -39.5q0 -27 -15 -43t-41 -16q-55 0 -55 55z" />
<glyph unicode="&#xb8;" horiz-adv-x="389" d="M114 -167l9 47l5 2q29 -31 57 -31q29 0 29 25q0 13 -19 22l-49 29l24 95h54l-20 -72l34 -20q40 -21 40 -57q0 -31 -24 -50.5t-63 -19.5q-43 0 -77 30z" />
<glyph unicode="&#xb9;" horiz-adv-x="265" d="M12 596v68l158 43l12 -10l-3 -241l3 -136h-87l2 126v166l-78 -20z" />
<glyph unicode="&#xba;" horiz-adv-x="342" d="M28 484q0 81 38 123.5t110 42.5q68 0 103.5 -40t35.5 -116q0 -80 -38 -123t-110 -43q-67 0 -103 40t-36 116zM109 493q0 -56 15 -81.5t48 -25.5t48.5 23t15.5 75q0 56 -15.5 81t-48.5 25t-48 -22.5t-15 -74.5z" />
<glyph unicode="&#xbb;" horiz-adv-x="406" d="M21 83l116 145l-116 145l2 11l48 27l141 -172v-19l-141 -175l-48 27zM195 83l116 145l-116 145l1 11l49 27l141 -172v-19l-141 -175l-49 27z" />
<glyph unicode="&#xbc;" horiz-adv-x="721" d="M12 538v68l158 43l12 -10l-3 -241l3 -136h-87l2 126v166l-78 -20zM56 -52l469 733l43 -26l6 -15l-468 -731l-45 26zM387 100v53l163 229h80l-2 -224h56l5 -7l-4 -59l-55 2l4 -88l-5 -6l-68 -3l-5 4l2 94h-108l-57 -3zM462 158h97v130h-6z" />
<glyph unicode="&#xbd;" horiz-adv-x="740" d="M12 538v68l158 43l12 -10l-3 -241l3 -136h-87l2 126v166l-78 -20zM56 -52l469 733l43 -26l6 -15l-468 -731l-45 26zM423 2v51l96 109q39 46 55.5 70.5t16.5 44.5q0 17 -12 28t-34 11q-52 0 -96 -49h-10l-14 65q72 54 141 54q49 0 80.5 -24t31.5 -66q0 -29 -19 -63 t-64 -89l-59 -75l2 -2h108l66 3l3 -6l-9 -67l-86 3h-166l-27 -1z" />
<glyph unicode="&#xbe;" horiz-adv-x="759" d="M26 610q56 39 120 39q52 0 83.5 -24.5t31.5 -65.5q0 -61 -61 -91v-4q74 -20 74 -90q0 -52 -46 -84.5t-120 -32.5q-37 0 -72 8l-5 60l6 6q37 -10 72 -10q38 0 59.5 14.5t21.5 40.5q0 47 -61 49h-47l-4 5l1 57h30q25 1 45 17t20 39q0 39 -47 39q-34 0 -78 -29h-9zM94 -52 l469 733l43 -26l6 -15l-468 -731l-45 26zM425 100v53l163 229h80l-2 -224h56l5 -7l-4 -59l-55 2l4 -88l-5 -6l-68 -3l-5 4l2 94h-108l-57 -3zM500 158h97v130h-6z" />
<glyph unicode="&#xbf;" horiz-adv-x="335" d="M-6 -39q0 82 87 135l78 50l2 4l-6 92l72 9l8 -8l8 -117l-5 -10l-93 -52q-59 -34 -59 -87q0 -92 191 -103l7 -10l-19 -57l-11 -5q-125 7 -192.5 48t-67.5 111zM134 413q0 27 15.5 43t41.5 16q54 0 54 -56q0 -26 -15.5 -42t-41.5 -16q-25 0 -39.5 14.5t-14.5 40.5z" />
<glyph unicode="&#xc0;" horiz-adv-x="587" d="M11 0l228 642h122l206 -642h-105l-15 72l-28 89l-136 3l-124 -3l-29 -84l-16 -77h-103zM178 812l27 61l10 2q68 -40 198 -107l-17 -44l-11 -4q-137 53 -203 82zM189 245l102 -2l102 2l-92 296h-8z" />
<glyph unicode="&#xc1;" horiz-adv-x="587" d="M11 0l228 642h122l206 -642h-105l-15 72l-28 89l-136 3l-124 -3l-29 -84l-16 -77h-103zM189 245l102 -2l102 2l-92 296h-8zM203 767q130 67 198 107l10 -2l27 -61l-4 -10q-66 -29 -203 -82l-11 4z" />
<glyph unicode="&#xc2;" horiz-adv-x="587" d="M11 0l228 642h122l206 -642h-105l-15 72l-28 89l-136 3l-124 -3l-29 -84l-16 -77h-103zM159 774q66 44 124 96h24q54 -48 124 -96l-19 -43h-11q-79 49 -106 66q-28 -19 -105 -66h-11zM189 245l102 -2l102 2l-92 296h-8z" />
<glyph unicode="&#xc3;" horiz-adv-x="587" d="M11 0l228 642h122l206 -642h-105l-15 72l-28 89l-136 3l-124 -3l-29 -84l-16 -77h-103zM129 760v9l65 77l11 4q21 -3 81.5 -19.5t73.5 -16.5q4 0 7.5 1t7.5 4t7.5 5.5t8.5 8t8 9t9.5 10.5t10.5 11h10l30 -32v-9l-65 -77l-10 -5q-21 3 -81.5 20t-73.5 17q-5 0 -10.5 -2.5 t-11.5 -7.5t-10.5 -10t-13 -14t-13.5 -15h-10zM189 245l102 -2l102 2l-92 296h-8z" />
<glyph unicode="&#xc4;" horiz-adv-x="587" d="M11 0l228 642h122l206 -642h-105l-15 72l-28 89l-136 3l-124 -3l-29 -84l-16 -77h-103zM161 792q0 25 14.5 39.5t39.5 14.5q50 0 50 -51q0 -26 -14 -40.5t-39 -14.5q-51 0 -51 52zM189 245l102 -2l102 2l-92 296h-8zM325 792q0 25 14.5 39.5t39.5 14.5q50 0 50 -51 q0 -26 -14 -40.5t-39 -14.5q-51 0 -51 52z" />
<glyph unicode="&#xc5;" horiz-adv-x="587" d="M11 0l228 642h122l206 -642h-105l-15 72l-28 89l-136 3l-124 -3l-29 -84l-16 -77h-103zM189 245l102 -2l102 2l-92 296h-8zM205 801q0 41 23.5 64.5t66.5 23.5q42 0 65 -23t23 -62q0 -43 -25 -66.5t-66 -23.5q-40 0 -63.5 23t-23.5 64zM251 803q0 -44 43 -44t43 42 t-44 42q-42 0 -42 -40z" />
<glyph unicode="&#xc6;" horiz-adv-x="814" d="M-17 0l326 642h402l6 -9l-8 -79l-160 5h-92l29 -213l206 47l8 -7l7 -73l-211 -46l25 -185h109l164 6l7 -9l-8 -79h-365l-5 72l-24 172l-227 -56l-57 -111l-27 -77h-105zM220 283l168 40l-30 218h-7z" />
<glyph unicode="&#xc7;" horiz-adv-x="519" d="M34 315q0 160 76.5 247t216.5 87q98 0 173 -44l-19 -91l-10 -3q-67 52 -148 52q-88 0 -134.5 -59.5t-46.5 -177.5q0 -121 47 -184t134 -63q88 0 160 55l10 -6l-8 -94q-75 -37 -149 -41l-12 -43l34 -20q40 -21 40 -57q0 -31 -24 -50.5t-63 -19.5q-43 0 -77 30l9 47l5 2 q29 -31 57 -31q29 0 29 25q0 13 -19 22l-49 29l17 66q-120 11 -184.5 94t-64.5 228z" />
<glyph unicode="&#xc8;" horiz-adv-x="493" d="M86 0l7 193l-7 449h381l6 -9l-8 -79l-152 4l-122 -1l-3 -187l116 -2l106 3l7 -8l-8 -79l-113 3l-109 -2l-1 -83l2 -118l123 -1l155 5l6 -9l-7 -79h-379zM161 812l27 61l10 2q68 -40 198 -107l-17 -44l-11 -4q-137 53 -203 82z" />
<glyph unicode="&#xc9;" horiz-adv-x="493" d="M86 0l7 193l-7 449h381l6 -9l-8 -79l-152 4l-122 -1l-3 -187l116 -2l106 3l7 -8l-8 -79l-113 3l-109 -2l-1 -83l2 -118l123 -1l155 5l6 -9l-7 -79h-379zM186 767q130 67 198 107l10 -2l27 -61l-4 -10q-66 -29 -203 -82l-11 4z" />
<glyph unicode="&#xca;" horiz-adv-x="493" d="M86 0l7 193l-7 449h381l6 -9l-8 -79l-152 4l-122 -1l-3 -187l116 -2l106 3l7 -8l-8 -79l-113 3l-109 -2l-1 -83l2 -118l123 -1l155 5l6 -9l-7 -79h-379zM142 774q66 44 124 96h24q54 -48 124 -96l-19 -43h-11q-79 49 -106 66q-28 -19 -105 -66h-11z" />
<glyph unicode="&#xcb;" horiz-adv-x="493" d="M86 0l7 193l-7 449h381l6 -9l-8 -79l-152 4l-122 -1l-3 -187l116 -2l106 3l7 -8l-8 -79l-113 3l-109 -2l-1 -83l2 -118l123 -1l155 5l6 -9l-7 -79h-379zM144 792q0 25 14.5 39.5t39.5 14.5q50 0 50 -51q0 -26 -14 -40.5t-39 -14.5q-51 0 -51 52zM308 792q0 25 14.5 39.5 t39.5 14.5q50 0 50 -51q0 -26 -14 -40.5t-39 -14.5q-51 0 -51 52z" />
<glyph unicode="&#xcc;" horiz-adv-x="279" d="M22 812l27 61l10 2q68 -40 198 -107l-17 -44l-11 -4q-137 53 -203 82zM86 0l7 193l-7 449h106l-6 -440l4 -202h-104z" />
<glyph unicode="&#xcd;" horiz-adv-x="279" d="M47 767q130 67 198 107l10 -2l27 -61l-4 -10q-66 -29 -203 -82l-11 4zM86 0l7 193l-7 449h106l-6 -440l4 -202h-104z" />
<glyph unicode="&#xce;" horiz-adv-x="279" d="M3 774q66 44 124 96h24q54 -48 124 -96l-19 -43h-11q-79 49 -106 66q-28 -19 -105 -66h-11zM86 0l7 193l-7 449h106l-6 -440l4 -202h-104z" />
<glyph unicode="&#xd0;" horiz-adv-x="673" d="M13 295l4 63h97l-4 284l243 4q138 0 212 -78t74 -224q0 -169 -81 -259.5t-232 -90.5q-96 0 -216 6l6 193l-1 94h-97zM209 202l3 -119q79 -7 131 -7q189 0 189 245q0 124 -46.5 182.5t-140.5 58.5q-55 0 -131 -4l-3 -200h134l5 -8l-4 -63h-136z" />
<glyph unicode="&#xd1;" horiz-adv-x="688" d="M86 0l7 190l-5 452h110l302 -481h7l-2 476l97 7l-7 -452l3 -192h-110l-302 481h-7l-1 -266l4 -215h-96zM176 760v9l65 77l11 4q21 -3 81.5 -19.5t73.5 -16.5q4 0 7.5 1t7.5 4t7.5 5.5t8.5 8t8 9t9.5 10.5t10.5 11h10l30 -32v-9l-65 -77l-10 -5q-21 3 -81.5 20t-73.5 17 q-5 0 -10.5 -2.5t-11.5 -7.5t-10.5 -10t-13 -14t-13.5 -15h-10z" />
<glyph unicode="&#xd2;" horiz-adv-x="639" d="M34 315q0 161 76.5 248t218.5 87q133 0 204.5 -82t71.5 -234q0 -164 -76.5 -253.5t-218.5 -89.5q-132 0 -204 84.5t-72 239.5zM140 328q0 -131 43.5 -192.5t134.5 -61.5t135.5 58.5t44.5 182.5q0 130 -43.5 190t-135.5 60t-135.5 -57.5t-43.5 -179.5zM203 812l27 61l10 2 q68 -40 198 -107l-17 -44l-11 -4q-137 53 -203 82z" />
<glyph unicode="&#xd3;" horiz-adv-x="639" d="M34 315q0 161 76.5 248t218.5 87q133 0 204.5 -82t71.5 -234q0 -164 -76.5 -253.5t-218.5 -89.5q-132 0 -204 84.5t-72 239.5zM140 328q0 -131 43.5 -192.5t134.5 -61.5t135.5 58.5t44.5 182.5q0 130 -43.5 190t-135.5 60t-135.5 -57.5t-43.5 -179.5zM228 767 q130 67 198 107l10 -2l27 -61l-4 -10q-66 -29 -203 -82l-11 4z" />
<glyph unicode="&#xd4;" horiz-adv-x="639" d="M34 315q0 161 76.5 248t218.5 87q133 0 204.5 -82t71.5 -234q0 -164 -76.5 -253.5t-218.5 -89.5q-132 0 -204 84.5t-72 239.5zM140 328q0 -131 43.5 -192.5t134.5 -61.5t135.5 58.5t44.5 182.5q0 130 -43.5 190t-135.5 60t-135.5 -57.5t-43.5 -179.5zM184 774 q66 44 124 96h24q54 -48 124 -96l-19 -43h-11q-79 49 -106 66q-28 -19 -105 -66h-11z" />
<glyph unicode="&#xd5;" horiz-adv-x="639" d="M34 315q0 161 76.5 248t218.5 87q133 0 204.5 -82t71.5 -234q0 -164 -76.5 -253.5t-218.5 -89.5q-132 0 -204 84.5t-72 239.5zM140 328q0 -131 43.5 -192.5t134.5 -61.5t135.5 58.5t44.5 182.5q0 130 -43.5 190t-135.5 60t-135.5 -57.5t-43.5 -179.5zM154 760v9l65 77 l11 4q21 -3 81.5 -19.5t73.5 -16.5q4 0 7.5 1t7.5 4t7.5 5.5t8.5 8t8 9t9.5 10.5t10.5 11h10l30 -32v-9l-65 -77l-10 -5q-21 3 -81.5 20t-73.5 17q-5 0 -10.5 -2.5t-11.5 -7.5t-10.5 -10t-13 -14t-13.5 -15h-10z" />
<glyph unicode="&#xd7;" d="M70 133v9l121 121l-121 120v11l48 40l122 -121l122 121l48 -40v-11l-120 -120l120 -120v-10l-48 -41l-122 121l-122 -122z" />
<glyph unicode="&#xd8;" horiz-adv-x="639" d="M34 315q0 161 76.5 248t218.5 87q50 0 97 -13l43 92l58 -23l7 -11l-42 -90q113 -79 113 -271q0 -164 -76.5 -253.5t-218.5 -89.5q-56 0 -101 15l-54 -115l-59 24l-5 9l54 115q-111 82 -111 276zM140 328q0 -136 48 -198l199 425q-29 10 -68 10q-92 0 -135.5 -57.5 t-43.5 -179.5zM247 86q30 -12 71 -12q91 0 135.5 58.5t44.5 182.5q0 139 -50 198z" />
<glyph unicode="&#xd9;" horiz-adv-x="631" d="M69 232l1 89l-1 321h102l-4 -396q-1 -166 147 -166q151 0 150 156l-5 406h104l-3 -326l-1 -76q2 -118 -64 -183t-188 -65q-116 0 -178 62.5t-60 177.5zM201 812l27 61l10 2q68 -40 198 -107l-17 -44l-11 -4q-137 53 -203 82z" />
<glyph unicode="&#xda;" horiz-adv-x="631" d="M69 232l1 89l-1 321h102l-4 -396q-1 -166 147 -166q151 0 150 156l-5 406h104l-3 -326l-1 -76q2 -118 -64 -183t-188 -65q-116 0 -178 62.5t-60 177.5zM226 767q130 67 198 107l10 -2l27 -61l-4 -10q-66 -29 -203 -82l-11 4z" />
<glyph unicode="&#xdb;" horiz-adv-x="631" d="M69 232l1 89l-1 321h102l-4 -396q-1 -166 147 -166q151 0 150 156l-5 406h104l-3 -326l-1 -76q2 -118 -64 -183t-188 -65q-116 0 -178 62.5t-60 177.5zM182 774q66 44 124 96h24q54 -48 124 -96l-19 -43h-11q-79 49 -106 66q-28 -19 -105 -66h-11z" />
<glyph unicode="&#xdc;" horiz-adv-x="631" d="M69 232l1 89l-1 321h102l-4 -396q-1 -166 147 -166q151 0 150 156l-5 406h104l-3 -326l-1 -76q2 -118 -64 -183t-188 -65q-116 0 -178 62.5t-60 177.5zM184 792q0 25 14.5 39.5t39.5 14.5q50 0 50 -51q0 -26 -14 -40.5t-39 -14.5q-51 0 -51 52zM348 792q0 25 14.5 39.5 t39.5 14.5q50 0 50 -51q0 -26 -14 -40.5t-39 -14.5q-51 0 -51 52z" />
<glyph unicode="&#xde;" horiz-adv-x="540" d="M87 0l5 193l-4 342l-1 107h105l-1 -107l116 1q98 0 150.5 -49t52.5 -144q0 -110 -65 -170t-185 -60l-71 -2l2 -111h-104zM187 195l101 -3q114 23 114 144q0 114 -124 120l-88 -3l-3 -251v-7z" />
<glyph unicode="&#xdf;" horiz-adv-x="582" d="M31 400l6 59h66v39q0 98 57.5 152t155.5 54q82 0 126 -36.5t44 -97.5q0 -29 -11 -53.5t-27 -41.5t-31.5 -32t-26.5 -33.5t-11 -38.5q0 -27 20.5 -49t49.5 -38t57.5 -34t49 -47t20.5 -67q0 -60 -46 -102.5t-127 -42.5q-68 0 -136 31l12 85l10 7q60 -54 123 -54 q34 0 53.5 16.5t19.5 42.5q0 20 -14.5 37t-36.5 29.5t-47 29t-47 33.5t-36.5 44.5t-14.5 61.5q0 36 17.5 64t38.5 43.5t38.5 40t17.5 54.5q0 36 -24 55.5t-66 19.5q-52 0 -81.5 -30.5t-30.5 -90.5l-4 -309l6 -201h-101l6 190l-2 204h-69z" />
<glyph unicode="&#xe0;" horiz-adv-x="470" d="M37 123q0 89 97 111l158 35l1 54q0 75 -72 75q-64 0 -143 -64l-8 5l-13 71q88 60 180 60q69 0 109 -33t40 -92q0 -18 -6 -119t-6 -118q0 -19 6 -26.5t22 -7.5q11 0 31 4l9 -7l-10 -56q-29 -18 -63 -22q-31 3 -50 22.5t-23 51.5h-7q-53 -55 -104 -75q-69 1 -108.5 36 t-39.5 95zM117 653l38 54l10 1q66 -63 171 -148l-26 -40l-10 -1q-102 66 -181 124zM128 136q0 -30 16.5 -47t44.5 -17q47 0 100 61l3 77l-130 -31q-34 -7 -34 -43z" />
<glyph unicode="&#xe1;" horiz-adv-x="470" d="M37 123q0 89 97 111l158 35l1 54q0 75 -72 75q-64 0 -143 -64l-8 5l-13 71q88 60 180 60q69 0 109 -33t40 -92q0 -18 -6 -119t-6 -118q0 -19 6 -26.5t22 -7.5q11 0 31 4l9 -7l-10 -56q-29 -18 -63 -22q-31 3 -50 22.5t-23 51.5h-7q-53 -55 -104 -75q-69 1 -108.5 36 t-39.5 95zM128 136q0 -30 16.5 -47t44.5 -17q47 0 100 61l3 77l-130 -31q-34 -7 -34 -43zM144 560q105 85 171 148l10 -1l38 -54l-2 -10q-79 -58 -181 -124l-10 1z" />
<glyph unicode="&#xe2;" horiz-adv-x="470" d="M37 123q0 89 97 111l158 35l1 54q0 75 -72 75q-64 0 -143 -64l-8 5l-13 71q88 60 180 60q69 0 109 -33t40 -92q0 -18 -6 -119t-6 -118q0 -19 6 -26.5t22 -7.5q11 0 31 4l9 -7l-10 -56q-29 -18 -63 -22q-31 3 -50 22.5t-23 51.5h-7q-53 -55 -104 -75q-69 1 -108.5 36 t-39.5 95zM85 564q57 54 130 137h26q72 -83 129 -137l-27 -40h-10q-69 60 -105 100q-35 -37 -105 -100h-11zM128 136q0 -30 16.5 -47t44.5 -17q47 0 100 61l3 77l-130 -31q-34 -7 -34 -43z" />
<glyph unicode="&#xe3;" horiz-adv-x="470" d="M37 123q0 89 97 111l158 35l1 54q0 75 -72 75q-64 0 -143 -64l-8 5l-13 71q88 60 180 60q69 0 109 -33t40 -92q0 -18 -6 -119t-6 -118q0 -19 6 -26.5t22 -7.5q11 0 31 4l9 -7l-10 -56q-29 -18 -63 -22q-31 3 -50 22.5t-23 51.5h-7q-53 -55 -104 -75q-69 1 -108.5 36 t-39.5 95zM61 579v9l65 77l11 4q21 -3 81.5 -19.5t73.5 -16.5q4 0 7.5 1t7.5 4t7.5 5.5t8.5 8t8 9t9.5 10.5t10.5 11h10l30 -32v-9l-65 -77l-10 -5q-21 3 -81.5 20t-73.5 17q-5 0 -10.5 -2.5t-11.5 -7.5t-10.5 -10t-13 -14t-13.5 -15h-10zM128 136q0 -30 16.5 -47t44.5 -17 q47 0 100 61l3 77l-130 -31q-34 -7 -34 -43z" />
<glyph unicode="&#xe4;" horiz-adv-x="470" d="M37 123q0 89 97 111l158 35l1 54q0 75 -72 75q-64 0 -143 -64l-8 5l-13 71q88 60 180 60q69 0 109 -33t40 -92q0 -18 -6 -119t-6 -118q0 -19 6 -26.5t22 -7.5q11 0 31 4l9 -7l-10 -56q-29 -18 -63 -22q-31 3 -50 22.5t-23 51.5h-7q-53 -55 -104 -75q-69 1 -108.5 36 t-39.5 95zM93 611q0 25 14.5 39.5t39.5 14.5q50 0 50 -51q0 -26 -14 -40.5t-39 -14.5q-51 0 -51 52zM128 136q0 -30 16.5 -47t44.5 -17q47 0 100 61l3 77l-130 -31q-34 -7 -34 -43zM257 611q0 25 14.5 39.5t39.5 14.5q50 0 50 -51q0 -26 -14 -40.5t-39 -14.5q-51 0 -51 52z " />
<glyph unicode="&#xe5;" horiz-adv-x="470" d="M37 123q0 89 97 111l158 35l1 54q0 75 -72 75q-64 0 -143 -64l-8 5l-13 71q88 60 180 60q69 0 109 -33t40 -92q0 -18 -6 -119t-6 -118q0 -19 6 -26.5t22 -7.5q11 0 31 4l9 -7l-10 -56q-29 -18 -63 -22q-31 3 -50 22.5t-23 51.5h-7q-53 -55 -104 -75q-69 1 -108.5 36 t-39.5 95zM128 136q0 -30 16.5 -47t44.5 -17q47 0 100 61l3 77l-130 -31q-34 -7 -34 -43zM137 620q0 41 23.5 64.5t66.5 23.5q42 0 65 -23t23 -62q0 -43 -25 -66.5t-66 -23.5q-40 0 -63.5 23t-23.5 64zM183 622q0 -44 43 -44t43 42t-44 42q-42 0 -42 -40z" />
<glyph unicode="&#xe6;" horiz-adv-x="685" d="M35 123q0 47 24.5 77t72.5 37l155 22v64q0 75 -71 75q-59 0 -140 -64l-8 5l-14 71q86 60 174 60q89 0 122 -63q54 62 142 62q78 0 123 -51.5t41 -147.5l-10 -14l-276 -40q8 -149 127 -149q65 0 129 43l10 -6l-14 -79q-63 -34 -133 -34q-116 0 -167 94q-55 -64 -131 -93 q-72 1 -114 35.5t-42 95.5zM126 133q0 -29 17 -44.5t46 -15.5q25 0 48 14t59 50q-7 43 -8 66l-117 -21q-45 -8 -45 -49zM369 272l196 32q-1 46 -24 71t-62 25q-46 0 -78 -36.5t-32 -88.5v-3z" />
<glyph unicode="&#xe7;" horiz-adv-x="385" d="M37 226q0 114 56 179t155 65q69 0 123 -26l-17 -85l-10 -4q-52 31 -98 31q-53 0 -83 -40t-30 -112q0 -77 31 -119.5t88 -42.5q50 0 107 30l10 -6l-11 -82q-54 -20 -106 -23l-12 -41l34 -20q40 -21 40 -57q0 -31 -24 -50.5t-63 -19.5q-43 0 -77 30l9 47l5 2q29 -31 57 -31 q29 0 29 25q0 13 -19 22l-49 29l17 67q-77 12 -119.5 73t-42.5 159z" />
<glyph unicode="&#xe8;" horiz-adv-x="460" d="M37 228q0 112 60 176.5t162 64.5q79 0 123 -47t44 -130q0 -34 -4 -50l-17 -16h-274q3 -156 132 -156q67 0 135 42l10 -6l-13 -81q-70 -34 -140 -34q-103 0 -160.5 63.5t-57.5 173.5zM136 288l197 5l2 12q0 94 -83 94q-46 0 -76 -29t-40 -82zM138 653l38 54l10 1 q66 -63 171 -148l-26 -40l-10 -1q-102 66 -181 124z" />
<glyph unicode="&#xe9;" horiz-adv-x="460" d="M37 228q0 112 60 176.5t162 64.5q79 0 123 -47t44 -130q0 -34 -4 -50l-17 -16h-274q3 -156 132 -156q67 0 135 42l10 -6l-13 -81q-70 -34 -140 -34q-103 0 -160.5 63.5t-57.5 173.5zM136 288l197 5l2 12q0 94 -83 94q-46 0 -76 -29t-40 -82zM165 560q105 85 171 148 l10 -1l38 -54l-2 -10q-79 -58 -181 -124l-10 1z" />
<glyph unicode="&#xea;" horiz-adv-x="460" d="M37 228q0 112 60 176.5t162 64.5q79 0 123 -47t44 -130q0 -34 -4 -50l-17 -16h-274q3 -156 132 -156q67 0 135 42l10 -6l-13 -81q-70 -34 -140 -34q-103 0 -160.5 63.5t-57.5 173.5zM106 564q57 54 130 137h26q72 -83 129 -137l-27 -40h-10q-69 60 -105 100 q-35 -37 -105 -100h-11zM136 288l197 5l2 12q0 94 -83 94q-46 0 -76 -29t-40 -82z" />
<glyph unicode="&#xeb;" horiz-adv-x="460" d="M37 228q0 112 60 176.5t162 64.5q79 0 123 -47t44 -130q0 -34 -4 -50l-17 -16h-274q3 -156 132 -156q67 0 135 42l10 -6l-13 -81q-70 -34 -140 -34q-103 0 -160.5 63.5t-57.5 173.5zM114 611q0 25 14.5 39.5t39.5 14.5q50 0 50 -51q0 -26 -14 -40.5t-39 -14.5 q-51 0 -51 52zM136 288l197 5l2 12q0 94 -83 94q-46 0 -76 -29t-40 -82zM278 611q0 25 14.5 39.5t39.5 14.5q50 0 50 -51q0 -26 -14 -40.5t-39 -14.5q-51 0 -51 52z" />
<glyph unicode="&#xec;" horiz-adv-x="245" d="M14 653l38 54l10 1q66 -63 171 -148l-26 -40l-10 -1q-102 66 -181 124zM71 0l6 193l-5 261l102 9l-8 -261l7 -202h-102z" />
<glyph unicode="&#xed;" horiz-adv-x="245" d="M41 560q105 85 171 148l10 -1l38 -54l-2 -10q-79 -58 -181 -124l-10 1zM71 0l6 193l-5 261l102 9l-8 -261l7 -202h-102z" />
<glyph unicode="&#xee;" horiz-adv-x="245" d="M-18 564q57 54 130 137h26q72 -83 129 -137l-27 -40h-10q-69 60 -105 100q-35 -37 -105 -100h-11zM71 0l6 193l-5 261l102 9l-8 -261l7 -202h-102z" />
<glyph unicode="&#xf0;" horiz-adv-x="492" d="M39 224q0 112 54 173.5t153 61.5q36 0 68 -9q-32 56 -86 102l-119 -64l-10 4l-21 44l99 53q-55 34 -115 59v13l61 46h6q72 -33 127 -76l114 61l9 -3l21 -45l-97 -52q148 -142 148 -345q0 -123 -54.5 -189.5t-155.5 -66.5q-95 0 -148.5 61t-53.5 172zM128 224 q0 -165 120 -165q59 0 86.5 43.5t27.5 136.5q0 59 -11 112q-44 39 -100 39q-123 0 -123 -166z" />
<glyph unicode="&#xf1;" horiz-adv-x="520" d="M71 0l6 193l-5 261l97 9l-1 -67h7q59 52 123 71q77 0 116.5 -35t38.5 -100l-3 -130l5 -202h-103l7 303q1 38 -17.5 59.5t-53.5 21.5q-58 0 -120 -60l-1 -122l6 -202h-102zM110 579v9l65 77l11 4q21 -3 81.5 -19.5t73.5 -16.5q4 0 7.5 1t7.5 4t7.5 5.5t8.5 8t8 9t9.5 10.5 t10.5 11h10l30 -32v-9l-65 -77l-10 -5q-21 3 -81.5 20t-73.5 17q-5 0 -10.5 -2.5t-11.5 -7.5t-10.5 -10t-13 -14t-13.5 -15h-10z" />
<glyph unicode="&#xf2;" horiz-adv-x="492" d="M37 223q0 119 56 183t159 64q97 0 149.5 -60.5t52.5 -171.5q0 -119 -56 -183t-159 -64q-97 0 -149.5 60.5t-52.5 171.5zM132 245q0 -184 113 -184t113 154q0 184 -113 184t-113 -154zM137 653l38 54l10 1q66 -63 171 -148l-26 -40l-10 -1q-102 66 -181 124z" />
<glyph unicode="&#xf3;" horiz-adv-x="492" d="M37 223q0 119 56 183t159 64q97 0 149.5 -60.5t52.5 -171.5q0 -119 -56 -183t-159 -64q-97 0 -149.5 60.5t-52.5 171.5zM132 245q0 -184 113 -184t113 154q0 184 -113 184t-113 -154zM164 560q105 85 171 148l10 -1l38 -54l-2 -10q-79 -58 -181 -124l-10 1z" />
<glyph unicode="&#xf4;" horiz-adv-x="492" d="M37 223q0 119 56 183t159 64q97 0 149.5 -60.5t52.5 -171.5q0 -119 -56 -183t-159 -64q-97 0 -149.5 60.5t-52.5 171.5zM105 564q57 54 130 137h26q72 -83 129 -137l-27 -40h-10q-69 60 -105 100q-35 -37 -105 -100h-11zM132 245q0 -184 113 -184t113 154q0 184 -113 184 t-113 -154z" />
<glyph unicode="&#xf5;" horiz-adv-x="492" d="M37 223q0 119 56 183t159 64q97 0 149.5 -60.5t52.5 -171.5q0 -119 -56 -183t-159 -64q-97 0 -149.5 60.5t-52.5 171.5zM81 579v9l65 77l11 4q21 -3 81.5 -19.5t73.5 -16.5q4 0 7.5 1t7.5 4t7.5 5.5t8.5 8t8 9t9.5 10.5t10.5 11h10l30 -32v-9l-65 -77l-10 -5 q-21 3 -81.5 20t-73.5 17q-5 0 -10.5 -2.5t-11.5 -7.5t-10.5 -10t-13 -14t-13.5 -15h-10zM132 245q0 -184 113 -184t113 154q0 184 -113 184t-113 -154z" />
<glyph unicode="&#xf7;" d="M36 235l6 63h411l8 -7l-6 -63h-412zM206 91q0 24 14.5 39t38.5 15q23 0 36 -13.5t13 -36.5q0 -25 -14 -39.5t-38 -14.5q-50 0 -50 50zM206 437q0 24 14 38.5t39 14.5q23 0 36 -13.5t13 -36.5q0 -25 -14 -39.5t-38 -14.5q-50 0 -50 51z" />
<glyph unicode="&#xf8;" horiz-adv-x="492" d="M37 223q0 119 56 183t159 64q43 0 76 -12l53 101l50 -25l5 -11l-51 -97q69 -60 69 -188q0 -119 -56 -183t-159 -64q-39 0 -74 11l-63 -121l-54 26l-3 10l62 118q-70 59 -70 188zM132 245q0 -78 20 -124l140 268q-20 10 -47 10q-113 0 -113 -154zM200 70q20 -9 45 -9 q113 0 113 154q0 79 -19 121z" />
<glyph unicode="&#xf9;" horiz-adv-x="515" d="M66 454l101 9l-5 -306q-1 -37 16.5 -58t52.5 -21q55 0 109 51v325l97 9l-7 -356q0 -19 6 -26t21 -7q12 0 31 4l9 -7l-10 -56q-29 -18 -63 -22q-61 6 -74 71h-8q-59 -53 -120 -70q-75 0 -115 35t-39 100l2 125zM147 653l38 54l10 1q66 -63 171 -148l-26 -40l-10 -1 q-102 66 -181 124z" />
<glyph unicode="&#xfa;" horiz-adv-x="515" d="M66 454l101 9l-5 -306q-1 -37 16.5 -58t52.5 -21q55 0 109 51v325l97 9l-7 -356q0 -19 6 -26t21 -7q12 0 31 4l9 -7l-10 -56q-29 -18 -63 -22q-61 6 -74 71h-8q-59 -53 -120 -70q-75 0 -115 35t-39 100l2 125zM174 560q105 85 171 148l10 -1l38 -54l-2 -10 q-79 -58 -181 -124l-10 1z" />
<glyph unicode="&#xfb;" horiz-adv-x="515" d="M66 454l101 9l-5 -306q-1 -37 16.5 -58t52.5 -21q55 0 109 51v325l97 9l-7 -356q0 -19 6 -26t21 -7q12 0 31 4l9 -7l-10 -56q-29 -18 -63 -22q-61 6 -74 71h-8q-59 -53 -120 -70q-75 0 -115 35t-39 100l2 125zM115 564q57 54 130 137h26q72 -83 129 -137l-27 -40h-10 q-69 60 -105 100q-35 -37 -105 -100h-11z" />
<glyph unicode="&#xfc;" horiz-adv-x="515" d="M66 454l101 9l-5 -306q-1 -37 16.5 -58t52.5 -21q55 0 109 51v325l97 9l-7 -356q0 -19 6 -26t21 -7q12 0 31 4l9 -7l-10 -56q-29 -18 -63 -22q-61 6 -74 71h-8q-59 -53 -120 -70q-75 0 -115 35t-39 100l2 125zM123 611q0 25 14.5 39.5t39.5 14.5q50 0 50 -51 q0 -26 -14 -40.5t-39 -14.5q-51 0 -51 52zM287 611q0 25 14.5 39.5t39.5 14.5q50 0 50 -51q0 -26 -14 -40.5t-39 -14.5q-51 0 -51 52z" />
<glyph unicode="&#xfe;" horiz-adv-x="516" d="M76 -185l6 378l-6 501l102 8l-4 -305h6q56 48 120 69q87 0 133 -58t46 -163q0 -122 -59 -188t-164 -66q-42 0 -82 15l2 -191h-100zM171 203l1 -114q46 -28 88 -28q58 0 91.5 42.5t32.5 128.5q-2 73 -27.5 112.5t-72.5 39.5q-52 0 -111 -60z" />
<glyph unicode="&#xff;" horiz-adv-x="435" d="M-22 -128l4 11q70 14 115 41t78 76l-170 459l99 5l15 -65l98 -291h7l98 281l16 72h91l-158 -437q-32 -91 -87 -140t-150 -75h-9q-28 27 -47 63zM88 611q0 25 14.5 39.5t39.5 14.5q50 0 50 -51q0 -26 -14 -40.5t-39 -14.5q-51 0 -51 52zM252 611q0 25 14.5 39.5t39.5 14.5 q50 0 50 -51q0 -26 -14 -40.5t-39 -14.5q-51 0 -51 52z" />
<glyph unicode="&#x152;" horiz-adv-x="858" d="M34 316q0 161 84 249.5t236 88.5q33 0 90 -6t85 -6h302l7 -9l-8 -79l-146 4h-129l-2 -188l111 -2l112 3l6 -8l-8 -79l-117 3l-106 -2v-87l1 -114l120 -1l158 5l7 -9l-8 -79h-300q-30 1 -95.5 -5.5t-97.5 -6.5q-144 0 -223 86t-79 242zM140 322q0 -127 50.5 -189 t155.5 -62q59 0 89 10q23 10 23 39l-4 396q-1 33 -14 40q-24 13 -95 13q-205 0 -205 -247z" />
<glyph unicode="&#x153;" horiz-adv-x="772" d="M33 225q0 117 55.5 180.5t154.5 63.5q111 0 160 -85q56 85 168 85q79 0 123 -47t44 -130q0 -32 -3 -50l-18 -16h-278q3 -156 136 -156q67 0 135 42l10 -6l-12 -81q-70 -34 -140 -34q-116 0 -169 87q-52 -87 -167 -87q-95 0 -147 61t-52 173zM132 245q0 -184 114 -184 q113 0 113 154q0 184 -113 184q-114 0 -114 -154zM444 287l202 6l2 12q0 47 -22.5 70.5t-60.5 23.5q-48 0 -79 -29t-42 -83z" />
<glyph unicode="&#x178;" horiz-adv-x="541" d="M11 642h110l13 -40l128 -269h8l140 267l16 42h109l-224 -417l-1 -41l4 -184h-104l7 184l-1 40zM132 792q0 25 14.5 39.5t39.5 14.5q50 0 50 -51q0 -26 -14 -40.5t-39 -14.5q-51 0 -51 52zM296 792q0 25 14.5 39.5t39.5 14.5q50 0 50 -51q0 -26 -14 -40.5t-39 -14.5 q-51 0 -51 52z" />
<glyph unicode="&#x2c6;" horiz-adv-x="389" d="M52 564q56 53 130 137h25q75 -85 130 -137l-27 -40h-10q-68 59 -105 99q-35 -37 -105 -99h-11z" />
<glyph unicode="&#x2dc;" horiz-adv-x="389" d="M29 579v9l65 77l11 4q21 -3 81.5 -19.5t73.5 -16.5q4 0 7.5 1t7.5 4t7.5 5.5t8.5 8t8 9t9.5 10.5t10.5 11h10l30 -32v-9l-65 -77l-10 -5q-21 3 -81.5 20t-73.5 17q-5 0 -10.5 -2.5t-11.5 -7.5t-10.5 -10t-13 -14t-13.5 -15h-10z" />
<glyph unicode="&#x2000;" horiz-adv-x="444" />
<glyph unicode="&#x2001;" horiz-adv-x="889" />
<glyph unicode="&#x2002;" horiz-adv-x="444" />
<glyph unicode="&#x2003;" horiz-adv-x="889" />
<glyph unicode="&#x2004;" horiz-adv-x="296" />
<glyph unicode="&#x2005;" horiz-adv-x="222" />
<glyph unicode="&#x2006;" horiz-adv-x="148" />
<glyph unicode="&#x2007;" horiz-adv-x="148" />
<glyph unicode="&#x2008;" horiz-adv-x="111" />
<glyph unicode="&#x2009;" horiz-adv-x="177" />
<glyph unicode="&#x200a;" horiz-adv-x="49" />
<glyph unicode="&#x2010;" horiz-adv-x="306" d="M28 209v64l240 35l9 -8v-64l-240 -36z" />
<glyph unicode="&#x2011;" horiz-adv-x="306" d="M28 209v64l240 35l9 -8v-64l-240 -36z" />
<glyph unicode="&#x2012;" horiz-adv-x="306" d="M28 209v64l240 35l9 -8v-64l-240 -36z" />
<glyph unicode="&#x2013;" horiz-adv-x="473" d="M-15 229l6 63h490l7 -8l-5 -63h-491z" />
<glyph unicode="&#x2014;" horiz-adv-x="912" d="M-16 229l5 63h933l8 -8l-6 -63h-934z" />
<glyph unicode="&#x2018;" horiz-adv-x="183" d="M33 500q0 68 81 146l37 -25l2 -8q-42 -43 -42 -84q0 -43 39 -62v-9q-24 -21 -62 -41q-55 25 -55 83z" />
<glyph unicode="&#x2019;" horiz-adv-x="183" d="M34 449q41 44 41 84q0 43 -39 62v9q28 25 62 41q55 -25 55 -82q0 -69 -81 -147l-37 25z" />
<glyph unicode="&#x201a;" horiz-adv-x="229" d="M33 -81q55 46 55 92q0 30 -31 53v9q37 24 73 33q43 -31 43 -75q0 -74 -106 -150l-34 30v8z" />
<glyph unicode="&#x201c;" horiz-adv-x="321" d="M28 499q0 69 81 147l37 -25l1 -8q-41 -44 -41 -84q0 -43 39 -62v-9q-28 -25 -62 -41q-55 25 -55 82zM174 499q0 69 81 147l37 -25l1 -8q-41 -44 -41 -84q0 -43 39 -62v-9q-28 -25 -62 -41q-55 25 -55 82z" />
<glyph unicode="&#x201d;" horiz-adv-x="324" d="M31 449q42 43 42 84q0 43 -40 62v9q32 27 62 41q55 -25 55 -82q0 -69 -81 -147l-37 25zM173 449q41 44 41 84q0 43 -39 62v9q28 25 62 41q55 -25 55 -82q0 -69 -81 -147l-37 25z" />
<glyph unicode="&#x201e;" horiz-adv-x="374" d="M33 -81q55 46 55 92q0 30 -31 53v9q37 24 73 33q43 -31 43 -75q0 -74 -106 -150l-34 30v8zM178 -81q55 46 55 92q0 30 -31 53v9q37 24 72 33q43 -31 43 -75q0 -75 -105 -150l-34 30v8z" />
<glyph unicode="&#x2022;" horiz-adv-x="264" d="M66 239q0 31 18.5 49.5t49.5 18.5q29 0 45.5 -17t16.5 -46q0 -32 -18 -51t-49 -19q-30 0 -46.5 17t-16.5 48z" />
<glyph unicode="&#x2026;" horiz-adv-x="602" d="M54 50q0 26 15.5 42t42.5 16q25 0 39 -14.5t14 -40.5q0 -27 -15.5 -43t-41.5 -16q-25 0 -39.5 15t-14.5 41zM241 50q0 26 15.5 42t42.5 16q25 0 39 -14.5t14 -40.5q0 -27 -15.5 -43t-41.5 -16q-54 0 -54 56zM427 50q0 26 15.5 42t42.5 16q25 0 39 -14.5t14 -40.5 q0 -27 -15.5 -43t-41.5 -16q-54 0 -54 56z" />
<glyph unicode="&#x202f;" horiz-adv-x="177" />
<glyph unicode="&#x2039;" horiz-adv-x="235" d="M22 216v18l141 176l49 -27l1 -11l-115 -145l115 -146l-1 -11l-49 -26z" />
<glyph unicode="&#x203a;" horiz-adv-x="240" d="M26 83l116 145l-116 145l2 11l48 27l141 -172v-19l-141 -175l-48 27z" />
<glyph unicode="&#x205f;" horiz-adv-x="222" />
<glyph unicode="&#x20ac;" horiz-adv-x="478" d="M13 166l4 49h66q-1 9 -1 27q0 21 1 31h-66l-4 6l4 49h73q20 86 78 131.5t151 45.5q69 0 132 -33l-16 -69l-7 -2q-52 34 -114 34q-109 0 -135 -107h170l6 -5l-5 -50h-179v-23q0 -24 1 -35h177l6 -6l-5 -49h-168q30 -96 130 -96q68 0 123 36l9 -6l-7 -66q-61 -34 -129 -34 q-183 0 -218 166h-73z" />
<glyph unicode="&#x2122;" horiz-adv-x="585" d="M26 602l3 39h182l4 -5l-4 -39l-47 2h-17l-2 -119l2 -75h-53l3 70l-2 124h-17l-49 -2zM252 405l26 236h63q1 -2 50 -142h3l43 106l12 36h61l23 -236h-48l-4 71l-9 85h-4l-57 -132h-42l-52 132h-3l-10 -79l-6 -77h-46z" />
<glyph unicode="&#x25fc;" horiz-adv-x="465" d="M0 0v465h465v-465h-465z" />
</font>
</defs>
</svg>
