<?xml version="1.0" standalone="no"?>
<!DOCTYPE svg PUBLIC "-//W3C//DTD SVG 1.1//EN" "http://www.w3.org/Graphics/SVG/1.1/DTD/svg11.dtd" >
<svg xmlns="http://www.w3.org/2000/svg">
<metadata></metadata>
<defs>
<font id="alegreya_sanslight_italic" horiz-adv-x="536" >
<font-face units-per-em="1000" ascent="800" descent="-200" />
<missing-glyph horiz-adv-x="148" />
<glyph unicode="&#xa8;I" horiz-adv-x="247" d="M71 0q12 82 80 639h48l-57 -442l-23 -197h-48zM105 784q0 15 8.5 23.5t23.5 8.5q14 0 22 -8t8 -22q0 -15 -9 -24t-23 -9t-22 8.5t-8 22.5zM218 784q0 15 9 23.5t23 8.5t22 -8t8 -22q0 -10 -4 -17.5t-11 -11.5t-16 -4q-14 0 -22.5 8.5t-8.5 22.5z" />
<glyph unicode="&#xa8;O" horiz-adv-x="605" d="M51 254q0 184 80 287.5t226 103.5q107 0 164.5 -66.5t57.5 -187.5q0 -185 -81 -291t-227 -106q-105 0 -162.5 68t-57.5 192zM101 258q0 -108 44.5 -165t129.5 -57q123 0 188.5 91.5t65.5 256.5q0 108 -44.5 163.5t-131.5 55.5q-123 0 -187.5 -90.5t-64.5 -254.5zM263 785 q0 14 8.5 23t23.5 9q14 0 22 -8.5t8 -22.5q0 -32 -31 -32t-31 31zM418 784q0 32 32 32q14 0 22 -8t8 -22q0 -15 -8.5 -24t-22.5 -9q-31 0 -31 31z" />
<glyph unicode="&#xb4;Y" horiz-adv-x="486" d="M71 639h52l7 -31l109 -312h7l199 311l17 32h54l-257 -398q-5 -35 -10 -75.5t-11 -89.5t-9 -76h-48l27 191l5 44zM220 751q85 40 184 98l7 -2l13 -28l-2 -7q-80 -41 -184 -89l-7 3z" />
<glyph unicode="&#xa8;i" horiz-adv-x="211" d="M52 -4l50 364l5 94l50 5l-47 -351l-6 -107zM63 600q0 32 32 32q13 0 21.5 -8t8.5 -22q0 -15 -9 -24t-23 -9q-30 0 -30 31zM176 600q0 15 9 23.5t23 8.5q30 0 30 -30q0 -15 -8.5 -24t-22.5 -9q-31 0 -31 31z" />
<glyph unicode="&#xa8;o" horiz-adv-x="404" d="M42 142q0 138 57 227t154 93h7q102 -13 102 -145q0 -139 -56 -228t-153 -96h-7q-53 7 -78.5 42.5t-25.5 106.5zM87 143q0 -57 17 -83.5t54 -26.5q72 0 115 78t43 202q0 56 -16.5 82t-53.5 26q-73 0 -116 -77t-43 -201zM147 601q0 14 8.5 23t23.5 9q14 0 22 -8.5t8 -22.5 q0 -32 -31 -32t-31 31zM302 600q0 32 32 32q14 0 22 -8t8 -22q0 -15 -8.5 -24t-22.5 -9q-31 0 -31 31z" />
<glyph unicode="&#xb4;y" horiz-adv-x="393" d="M-113 -137l7 4q39 -15 69 -15q93 0 187 150l-85 451l49 6q11 -79 36 -227.5t28 -165.5h10l111 198q36 64 36 108q0 32 -26 69l2 7l44 11q26 -38 26 -81q0 -56 -44 -132l-129 -222q-68 -117 -126 -167.5t-119 -50.5q-37 0 -74 15zM141 541q79 66 155 141l6 -1l20 -25 l-2 -6q-58 -52 -156 -132l-7 1z" />
<glyph unicode="&#xfb01;" horiz-adv-x="479" d="M63 419l6 30h73l11 85q13 83 57 127t118 44l92 -22l2 -4l-12 -41h-9q-46 29 -86 29q-47 0 -78 -32t-40 -91l-13 -95h195l41 10l4 -4l-47 -347l-5 -107l-52 -5l50 364l3 54h-193q-29 -222 -58 -433l-6 -106l-52 -6q51 372 73 545h-69z" />
<glyph unicode="&#xfb02;" horiz-adv-x="483" d="M63 419l5 30h74l12 89q23 170 177 170l88 -9l42 4l-81 -595l-7 -107l-51 -5l83 608l3 53q-47 13 -88 13q-33 0 -58.5 -14t-42 -41.5t-22.5 -67.5l-13 -98h112l5 -5l-6 -30h-115l-57 -433l-7 -106l-51 -6q49 363 73 545h-71z" />
<glyph horiz-adv-x="1000" />
<glyph horiz-adv-x="1000" />
<glyph unicode="&#xd;" horiz-adv-x="1000" />
<glyph unicode=" "  horiz-adv-x="148" />
<glyph unicode="&#x09;" horiz-adv-x="148" />
<glyph unicode="&#xa0;" horiz-adv-x="148" />
<glyph unicode="!" horiz-adv-x="255" d="M76 29q0 15 9 24t24 9q14 0 22.5 -9t8.5 -23q0 -15 -9 -24t-24 -9q-31 0 -31 32zM108 212l58 437l6 6l37 2l5 -6l-69 -444l-31 -2z" />
<glyph unicode="&#x22;" horiz-adv-x="251" d="M80 471l28 162l38 4l4 -6l-38 -162l-29 -4zM186 471l29 162l38 4l3 -6l-37 -162l-29 -4z" />
<glyph unicode="#" horiz-adv-x="497" d="M20 217l3 30h114l29 123h-105l-4 4l3 29h114l41 172h31l3 -7l-39 -165h114l41 172h30l4 -7l-39 -165h112l5 -4l-4 -29h-121l-30 -123h114l4 -5l-3 -29h-123l-43 -181h-31l-4 5l42 176h-114l-43 -181h-31l-3 5l42 176h-105zM172 247h114l30 123h-114z" />
<glyph unicode="$" horiz-adv-x="417" d="M34 31l8 43l7 2q48 -43 118 -45l27 203q-35 17 -55 29.5t-38 38t-18 57.5q0 52 40.5 91.5t105.5 45.5l18 139h27l7 -7l-18 -131q54 -4 98 -23l-12 -40l-9 -2q-39 27 -82 30l-27 -198q25 -12 40.5 -21.5t33 -24.5t26 -34.5t8.5 -43.5q0 -52 -39.5 -92.5t-104.5 -49.5 l-17 -125h-26l-6 6l16 117q-76 2 -128 35zM124 364q0 -29 19.5 -47.5t56.5 -37.5l24 181q-45 -6 -72.5 -34t-27.5 -62zM200 34q43 9 70.5 38t27.5 63q0 28 -18.5 46.5t-54.5 37.5z" />
<glyph unicode="%" horiz-adv-x="814" d="M73 431q0 98 44.5 154t125.5 56q58 0 88.5 -35.5t30.5 -100.5q0 -99 -44 -155t-125 -56q-58 0 -89 35.5t-31 101.5zM98 -68l570 741l20 -12l3 -11l-570 -740l-19 11zM109 439q0 -110 91 -110q61 0 94 44t33 123q0 109 -92 109q-60 0 -93 -43.5t-33 -122.5zM474 133 q0 98 44.5 154t124.5 56q58 0 89 -35t31 -101q0 -99 -44 -155t-125 -56q-58 0 -89 35.5t-31 101.5zM510 141q0 -110 90 -110q61 0 94 44t33 123q0 110 -92 110q-60 0 -92.5 -44t-32.5 -123z" />
<glyph unicode="&#x26;" horiz-adv-x="618" d="M60 145q0 120 150 186v4q-85 39 -85 142q0 78 53 123.5t147 45.5q78 0 154 -40l-14 -41l-10 -2q-67 43 -138 43q-69 0 -108 -34t-39 -96q0 -54 29.5 -87t80.5 -37l288 15l82 10l5 -7l-12 -38l-181 -9l-1 -4q34 -50 34 -119q0 -92 -62.5 -149.5t-172.5 -57.5 q-93 0 -146.5 41t-53.5 111zM108 153q0 -56 42 -89t116 -33q87 0 136.5 46.5t49.5 123.5q0 78 -47 119l-158 -7q-139 -58 -139 -160z" />
<glyph unicode="'" horiz-adv-x="144" d="M80 471l28 162l38 4l4 -6l-38 -162l-29 -4z" />
<glyph unicode="(" horiz-adv-x="284" d="M74 147q0 368 223 516h5l17 -19l-1 -5q-203 -139 -203 -491q0 -93 25.5 -155.5t84.5 -110.5l-1 -6l-21 -18h-5q-67 54 -95.5 120.5t-28.5 168.5z" />
<glyph unicode=")" horiz-adv-x="284" d="M-27 -124l1 6q203 139 203 490q0 93 -25.5 155.5t-84.5 111.5l1 5l21 19h5q67 -54 95.5 -121t28.5 -169q0 -368 -223 -515h-5z" />
<glyph unicode="*" horiz-adv-x="370" d="M84 600q0 22 6 39l5 2l101 -52l-4 -23l-7 -3zM116 456l80 84l20 -10l-1 -8l-63 -89q-11 4 -35 19zM213 606l2 112q20 6 39 6l3 -5l-16 -116l-23 -2zM240 526l17 15l6 -1l61 -91q-9 -15 -27 -28l-5 1zM258 586l4 6l102 32q14 -21 17 -36l-2 -3l-111 -21z" />
<glyph unicode="+" horiz-adv-x="478" d="M37 254l8 32h182l23 183l33 4l4 -5l-22 -182h181l4 -4l-7 -33h-183l-22 -183l-33 -3l-4 4l22 182h-182z" />
<glyph unicode="," horiz-adv-x="230" d="M33 -89l1 5q54 42 54 82q0 24 -30 41v6q17 13 33 18q39 -22 39 -57q0 -54 -79 -112z" />
<glyph unicode="-" horiz-adv-x="310" d="M30 224l4 33l247 33l5 -5l-4 -33l-247 -33z" />
<glyph unicode="." horiz-adv-x="230" d="M58 29q0 14 9 23.5t24 9.5q14 0 22.5 -9t8.5 -23q0 -33 -32 -33t-32 32z" />
<glyph unicode="/" horiz-adv-x="289" d="M8 -106l259 782h34l5 -6l-259 -781h-35z" />
<glyph unicode="0" d="M52 204q0 136 65.5 215.5t183.5 79.5q91 0 139.5 -53.5t48.5 -158.5q0 -136 -64.5 -214t-183.5 -78q-91 0 -140 53t-49 156zM92 211q0 -173 154 -173q96 0 149 63.5t53 176.5q0 176 -154 176q-96 0 -149 -65t-53 -178z" />
<glyph unicode="1" horiz-adv-x="336" d="M35 403l4 38l191 56l6 -6l-37 -285l-23 -206h-48q24 180 55 440l-142 -41z" />
<glyph unicode="2" horiz-adv-x="447" d="M23 1l4 32l159 165q73 76 103 116.5t30 74.5q0 28 -20.5 46.5t-57.5 18.5q-78 0 -148 -73h-7l-3 38q81 78 168 78q52 0 84 -27t32 -70q0 -42 -33.5 -90.5t-115.5 -134.5l-124 -132l2 -3h210l81 3l3 -5l-12 -40l-91 2h-223l-38 -1z" />
<glyph unicode="3" horiz-adv-x="402" d="M3 -89l1 42l5 5q46 -16 92 -16q82 0 133.5 41t51.5 108q0 48 -35 75.5t-101 30.5h-53l-4 5l6 34l44 1q50 0 100 41.5t50 98.5q0 36 -24 57.5t-65 21.5q-61 0 -135 -62h-6l-2 40q77 64 150 64q60 0 96 -31t36 -81q0 -47 -33 -90.5t-90 -69.5v-4q113 -27 113 -128 q0 -83 -67.5 -137.5t-169.5 -54.5q-44 0 -93 9z" />
<glyph unicode="4" horiz-adv-x="468" d="M13 93l4 34l299 367h46l-45 -366h100l5 -5l-9 -36l-81 2h-19l-21 -178l-3 -5l-37 -4l-4 5l24 182h-202l-53 -2zM64 128h213l37 300h-5z" />
<glyph unicode="5" horiz-adv-x="410" d="M9 -48l6 5q44 -15 88 -15q87 0 141 45t54 115q0 85 -131 115l-83 18l-4 6l30 245l12 10l52 -2h135l78 3l2 -4l-9 -39l-5 -4l-56 3h-173l-24 -182l63 -15q159 -34 159 -149q0 -88 -71.5 -147t-179.5 -59q-40 0 -84 9v42z" />
<glyph unicode="6" horiz-adv-x="462" d="M48 175q0 42 10 85.5t35 92t63.5 91t100 82.5t139.5 67h5l32 -23v-6q-258 -85 -321 -269l4 -5q70 51 143 51q68 0 109 -40t41 -107q0 -31 -9 -63t-29.5 -64.5t-61.5 -53t-96 -20.5q-80 0 -122.5 48t-42.5 134zM93 179q0 -148 123 -148q42 0 72.5 15t46 39.5t22.5 50.5 t7 53q0 55 -29.5 84.5t-83.5 29.5q-80 0 -153 -64q-5 -25 -5 -60z" />
<glyph unicode="7" horiz-adv-x="409" d="M48 -83l310 536h-234l-67 -4l-4 6l10 41l75 -2h234l40 2l-4 -37l-266 -461l-52 -102l-41 13z" />
<glyph unicode="8" horiz-adv-x="465" d="M44 134q0 109 147 167l1 4q-45 22 -68 50.5t-23 77.5q0 70 48 113.5t123 43.5q64 0 102 -33t38 -93q0 -103 -127 -156l-1 -4q57 -26 86.5 -55.5t29.5 -85.5q0 -74 -53 -121t-139 -47q-76 0 -120 37.5t-44 101.5zM86 139q0 -50 33 -79t90 -29q66 0 107.5 36.5t41.5 91.5 q0 26 -8.5 45.5t-30 34.5t-37.5 23.5t-50 22.5q-32 -12 -51.5 -21.5t-44.5 -26.5t-37.5 -41.5t-12.5 -56.5zM142 437q0 -44 25 -68t75 -46q129 45 129 138q0 44 -26 68t-74 24q-57 0 -93 -32t-36 -84z" />
<glyph unicode="9" horiz-adv-x="462" d="M34 -69q258 85 321 269l-4 5q-70 -51 -143 -51q-68 0 -109 40t-41 107q0 31 9 63t29.5 64.5t61.5 53t96 20.5q80 0 122.5 -48t42.5 -134q0 -42 -10 -85.5t-35 -92t-63.5 -91t-100 -82.5t-139.5 -67h-5l-32 23v6zM103 306q0 -55 29.5 -84.5t83.5 -29.5q80 0 153 64 q5 25 5 60q0 148 -123 148q-42 0 -72.5 -15t-46 -39.5t-22.5 -50.5t-7 -53z" />
<glyph unicode=":" horiz-adv-x="229" d="M58 29q0 14 9 23.5t24 9.5q14 0 22.5 -9t8.5 -23q0 -15 -9 -24t-24 -9q-31 0 -31 32zM91 302q0 15 9 24t24 9q31 0 31 -31q0 -34 -32 -34q-15 0 -23.5 9t-8.5 23z" />
<glyph unicode=";" horiz-adv-x="230" d="M32 -84q55 41 55 82q0 24 -31 41v6q20 14 33 18q40 -22 40 -57q0 -53 -79 -112l-18 17v5zM90 302q0 15 9 24t24 9q31 0 31 -31q0 -34 -32 -34q-15 0 -23.5 9t-8.5 23z" />
<glyph unicode="&#x3c;" horiz-adv-x="499" d="M35 246l5 42l5 6l406 165l8 -29l-4 -6l-374 -153l-1 -5l341 -143l-13 -30l-6 -4z" />
<glyph unicode="=" horiz-adv-x="479" d="M34 176l3 32h402l5 -4l-4 -32h-402zM53 331l4 32h401l5 -4l-3 -33h-402z" />
<glyph unicode="&#x3e;" horiz-adv-x="502" d="M54 123l376 143v5l-337 153l-2 6l16 29l365 -165l3 -6l-5 -42l-405 -157l-6 4z" />
<glyph unicode="?" horiz-adv-x="327" d="M88 29q0 15 9 24t24 9q14 0 22.5 -9t8.5 -23q0 -15 -9 -24t-24 -9q-31 0 -31 32zM110 207l7 113l6 9l106 64q79 47 79 112q0 103 -192 115l-3 6l13 28l9 3q104 -7 161.5 -44t57.5 -98q0 -84 -98 -144l-97 -60l-2 -4l-7 -102l-36 -4z" />
<glyph unicode="@" horiz-adv-x="814" d="M40 189q0 184 112.5 298.5t296.5 114.5q149 0 239 -85.5t90 -225.5q0 -136 -82.5 -211.5t-236.5 -83.5l33 243h-7q-87 -156 -183 -245h-13q-63 42 -63 149q0 123 61.5 214.5t170.5 103.5h4l64 -14l30 15l7 -4l-48 -350l-5 -74q111 12 171 78t60 178q0 126 -80 202 t-216 75q-165 -1 -266.5 -104t-101.5 -267q0 -165 104.5 -259.5t280.5 -94.5l1 -6l-18 -27q-183 3 -294 105.5t-111 274.5zM268 155q0 -38 6.5 -64t14 -34.5t15.5 -8.5q10 0 39.5 32t76 104t87.5 159l2 17l4 48l-61 14q-84 -1 -134 -79t-50 -188z" />
<glyph unicode="A" d="M-11 0l311 639h55l130 -639h-50l-6 53l-29 142l-142 1l-129 -1l-68 -140l-22 -55h-50zM150 238l118 -2l123 2l-70 344h-4z" />
<glyph unicode="B" horiz-adv-x="492" d="M71 0l28 194l53 445l141 1q72 0 111 -33.5t39 -96.5q0 -130 -112 -176q116 -26 116 -135q0 -97 -65.5 -149.5t-189.5 -52.5q-69 0 -120 3h-1zM125 41q37 -3 74 -3q95 0 147 41.5t52 116.5q0 101 -117 112h-123l-15 -111zM163 351l113 -2q57 12 87.5 51.5t30.5 101.5 q0 46 -27.5 71t-80.5 25h-90z" />
<glyph unicode="C" horiz-adv-x="499" d="M51 253q0 183 80.5 287t223.5 104q95 0 162 -54l-17 -44l-8 -1q-58 56 -143 56q-118 0 -183 -90t-65 -251q0 -108 44 -165.5t127 -57.5q91 0 174 64l8 -3l-10 -46q-90 -58 -178 -58q-104 0 -159.5 67.5t-55.5 191.5z" />
<glyph unicode="D" horiz-adv-x="615" d="M71 0l28 194l53 445l202 4q113 0 174 -65t61 -184q0 -185 -85.5 -292t-240.5 -107q-74 0 -191 5h-1zM125 42q90 -6 147 -6q126 0 196.5 92t70.5 257q0 106 -48.5 161t-141.5 55q-80 0 -154 -4l-52 -400z" />
<glyph unicode="E" horiz-adv-x="447" d="M71 0l28 194l53 445h316l3 -6l-10 -38l-140 2l-127 -1l-31 -246l118 -1l101 2l4 -6l-10 -37l-105 1l-114 -1q-12 -89 -32 -266l123 -1l147 3l3 -6l-10 -38h-317z" />
<glyph unicode="F" horiz-adv-x="405" d="M71 0l28 194l53 445h302l4 -6l-11 -39l-135 3l-118 -1l-33 -257l111 -1l98 1l3 -5l-10 -38l-102 2l-105 -1q-8 -56 -36 -297h-49z" />
<glyph unicode="G" horiz-adv-x="575" d="M50 249q0 188 86.5 291.5t243.5 103.5q90 0 171 -51l-17 -45h-7q-78 53 -155 53q-131 0 -202 -90.5t-71 -257.5q0 -216 181 -216q64 0 153 27l14 95l9 84l46 4q-7 -60 -26 -217q-112 -35 -198 -35q-111 0 -169.5 66t-58.5 188z" />
<glyph unicode="H" horiz-adv-x="647" d="M71 0q12 82 80 639h49l-38 -293l175 -2l179 2l35 293h49l-57 -442l-23 -197h-48l26 194l13 108l-185 2l-169 -2q-9 -63 -37 -302h-49z" />
<glyph unicode="I" horiz-adv-x="247" d="M71 0q12 82 80 639h49l-57 -442l-23 -197h-49z" />
<glyph unicode="J" horiz-adv-x="279" d="M-29 -65q71 39 104.5 81t40.5 101q12 95 33 276.5t24 204.5l-121 -1l-6 6l8 36h173l-56 -427l-11 -96q-9 -73 -48 -121.5t-124 -94.5l-17 27v8z" />
<glyph unicode="K" horiz-adv-x="502" d="M71 0q12 82 81 639h48q-71 -557 -81 -639h-48zM180 338l1 4l249 246l46 51h59l-300 -300q105 -167 236 -328l-1 -7q-16 -6 -44 -12l-6 3q-136 175 -240 343z" />
<glyph unicode="L" horiz-adv-x="387" d="M70 0q12 82 80 639h48l-57 -442l-18 -155h235l3 -5l-9 -37h-282z" />
<glyph unicode="M" horiz-adv-x="748" d="M39 0l145 639h55q22 -100 68.5 -288.5t51.5 -208.5h5q13 25 109 211t144 286h55l-20 -639h-44l8 195l8 359h-5l-245 -476h-44l-119 476h-6q-97 -434 -123 -554h-43z" />
<glyph unicode="N" horiz-adv-x="647" d="M71 0q14 94 27 195.5t30.5 245t24.5 198.5h49l277 -557h5l70 554l46 4l-60 -458l-22 -182h-49l-277 557h-6l-45 -352l-24 -205h-46z" />
<glyph unicode="O" horiz-adv-x="605" d="M51 254q0 183 80.5 287t226.5 104q106 0 163.5 -66.5t57.5 -187.5q0 -185 -81 -291t-227 -106q-105 0 -162.5 68t-57.5 192zM101 258q0 -108 44.5 -165t129.5 -57q123 0 188.5 91.5t65.5 256.5q0 108 -44.5 163.5t-131.5 55.5q-123 0 -187.5 -90.5t-64.5 -254.5z" />
<glyph unicode="P" horiz-adv-x="481" d="M71 0l28 194l53 445l155 1q77 0 119.5 -40.5t42.5 -116.5q0 -112 -64.5 -178.5t-178.5 -66.5h-78q-6 -47 -16.5 -136t-11.5 -102h-49zM154 280l110 -1q72 8 114 61.5t42 134.5q0 118 -119 124l-106 -2z" />
<glyph unicode="Q" horiz-adv-x="600" d="M51 254q0 183 80.5 287t226.5 104q71 0 120.5 -30t75 -87t25.5 -137q0 -161 -61.5 -263t-175.5 -127q139 -119 326 -148v-8q-1 -1 -2 -4q-15 -24 -25 -28q-204 36 -349 182l-21 -1q-105 0 -162.5 68t-57.5 192zM101 258q0 -108 44.5 -165t129.5 -57q123 0 188.5 91.5 t65.5 256.5q0 108 -44.5 163.5t-131.5 55.5q-123 0 -187.5 -90.5t-64.5 -254.5z" />
<glyph unicode="R" horiz-adv-x="512" d="M71 0q12 82 81 639l156 1q78 0 120 -39.5t42 -112.5q0 -80 -42 -139t-117 -87q61 -133 133 -251l-2 -6q-15 -8 -42 -13l-7 4q-75 135 -125 255h-118q-5 -37 -10 -79t-11 -93t-9 -79h-49zM155 294l124 -2q68 20 104.5 68t36.5 121q0 112 -119 118l-106 -2z" />
<glyph unicode="S" horiz-adv-x="437" d="M23 40l11 49l9 3q55 -56 138 -56q67 0 111 38.5t44 90.5q0 39 -25 69t-61 51.5t-72.5 44.5t-61.5 59t-25 83q0 72 57.5 121.5t142.5 49.5q68 0 128 -30l-14 -45l-10 -3q-49 37 -111 37q-64 0 -105 -38t-41 -87q0 -36 25.5 -65.5t62 -50.5t72.5 -44.5t61.5 -60t25.5 -83.5 q0 -75 -60 -126.5t-149 -51.5q-88 0 -153 45z" />
<glyph unicode="T" horiz-adv-x="459" d="M71 601l11 38h400l4 -6l-10 -37l-100 2h-75l-53 -401l-22 -197h-48q14 101 74 598h-73l-104 -2z" />
<glyph unicode="U" horiz-adv-x="590" d="M75 178q0 29 4 54q9 59 17.5 127t18.5 151.5t16 128.5h47l-53 -403q-3 -24 -3 -47q0 -74 38 -112.5t111 -38.5q84 0 134.5 49.5t62.5 144.5l48 407h48l-42 -326l-9 -78q-12 -115 -75 -177.5t-169 -62.5q-92 0 -143 47.5t-51 135.5z" />
<glyph unicode="V" horiz-adv-x="521" d="M68 639h50l7 -54l108 -529h4l257 528l21 55h49l-309 -639h-55z" />
<glyph unicode="W" horiz-adv-x="842" d="M73 639h49l5 -52l103 -528h6l196 416l-34 164h50l7 -55l103 -525h6l251 526l20 54h48l-306 -639h-50l-81 407h-5l-193 -407h-51z" />
<glyph unicode="X" horiz-adv-x="549" d="M1 0l252 330l-158 309h57l17 -43l120 -232l176 230l29 45h55l-234 -310l167 -329h-56l-18 44l-131 250l-194 -253l-28 -41h-54z" />
<glyph unicode="Y" horiz-adv-x="486" d="M71 639h53l7 -31l109 -312h6l200 311l16 32h54l-258 -400l-7 -48l-22 -191h-48l26 191l6 47z" />
<glyph unicode="Z" horiz-adv-x="493" d="M4 -2l5 37l430 562h-268l-73 -4l-4 6l11 41l82 -1h275l41 1l-4 -38l-431 -561h282l77 4l4 -5l-10 -41l-89 1h-284z" />
<glyph unicode="[" horiz-adv-x="285" d="M59 -121q51 382 94 757l162 10l4 -4l-3 -26l-126 -10l-85 -697l123 -10l-3 -26l-6 -4z" />
<glyph unicode="\" horiz-adv-x="325" d="M57 670l4 6h34l205 -782l-5 -5h-34z" />
<glyph unicode="]" horiz-adv-x="285" d="M-26 -126l3 25l126 11l85 696l-123 10l3 26l5 4l160 -10q-49 -382 -93 -757l-163 -10z" />
<glyph unicode="^" horiz-adv-x="415" d="M10 125l209 360l7 4h42l112 -362l-4 -6l-31 -8l-102 335h-5l-194 -332l-7 -3z" />
<glyph unicode="_" horiz-adv-x="453" d="M-57 -118l7 31h475l3 -4l-7 -31h-474z" />
<glyph unicode="`" horiz-adv-x="390" d="M150 656l19 25l7 1q73 -73 154 -141l-16 -22l-7 -1q-98 80 -156 132z" />
<glyph unicode="a" horiz-adv-x="431" d="M40 143q0 123 61 214.5t169 103.5h4l63 -15l31 16l7 -4l-47 -350l-7 -107l-51 -5l33 239h-8q-81 -149 -179 -241h-12q-64 42 -64 149zM84 155q0 -37 6.5 -62.5t13.5 -34t14 -8.5q10 0 39 31.5t75 103t86 158.5l2 17l3 45l-60 15q-81 -1 -130 -78t-49 -187z" />
<glyph unicode="b" horiz-adv-x="432" d="M57 16l80 588l5 94l51 5l-66 -484h7q83 150 180 241h13q64 -44 64 -148q0 -79 -25.5 -147t-79.5 -115.5t-128 -55.5h-4l-71 18zM107 50l58 -15q82 0 132 77.5t50 187.5q0 37 -6.5 62t-13.5 33.5t-15 8.5q-9 0 -38 -31.5t-75 -101.5t-86 -156z" />
<glyph unicode="c" horiz-adv-x="329" d="M41 150q0 138 56 224t168 86l60 -20l5 -9l-13 -36l-11 -3q-35 29 -65 29q-72 -1 -113.5 -72t-41.5 -193q0 -64 16 -91.5t50 -27.5q63 0 113 96h9l16 -24q-31 -54 -64 -80t-77 -35h-10q-50 8 -74 40.5t-24 115.5z" />
<glyph unicode="d" horiz-adv-x="432" d="M39 142q0 79 25.5 147t79.5 115.5t128 55.5h5l57 -13l21 157l5 94l51 5l-81 -595l-7 -107l-51 -5l33 239h-8q-82 -149 -182 -241h-13q-63 40 -63 148zM83 154q0 -37 6.5 -62t13.5 -33.5t14 -8.5q10 0 39.5 31.5t76 102.5t86.5 158l9 63l-62 14q-83 0 -133 -77.5 t-50 -187.5z" />
<glyph unicode="e" horiz-adv-x="364" d="M41 149q0 133 58.5 221t150.5 92l7 -1q80 -9 80 -79q0 -118 -250 -206v-14q0 -65 17.5 -95t53.5 -30q71 0 125 97h9l18 -24q-66 -101 -151 -116h-11q-107 11 -107 155zM90 215q98 34 150 76t52 87q0 46 -51 46q-58 0 -99.5 -58t-51.5 -151z" />
<glyph unicode="f" horiz-adv-x="269" d="M63 419l6 30h73l11 85q23 171 167 171l83 -14l2 -4l-14 -38l-8 -1q-40 19 -75 19q-46 0 -75 -31.5t-36 -91.5l-13 -95h112l5 -5l-6 -30h-115q-29 -222 -58 -433l-6 -106l-51 -6q50 372 72 545h-69z" />
<glyph unicode="g" horiz-adv-x="428" d="M-57 -75l3 8l145 104v8q-38 36 -38 117q0 117 58 201.5t160 96.5h4l59 -14l31 16l8 -4l-45 -335l-10 -86q-15 -113 -76 -173.5t-149 -60.5q-60 0 -98.5 32t-51.5 90zM-4 -82q2 -26 30 -51.5t75 -25.5q68 0 113.5 47.5t57.5 136.5l30 222h-7q-96 -157 -169 -219l-122 -97 q-8 -7 -8 -13zM97 177q0 -35 6 -59.5t13 -33t13 -8.5q8 0 34.5 30t68.5 95t83 144l3 19l3 43l-57 13q-77 0 -122 -71t-45 -172z" />
<glyph unicode="h" horiz-adv-x="458" d="M53 -4l84 608l4 94l52 5l-67 -492h7q56 98 101.5 158.5t91.5 93.5h11q19 -5 34 -16.5t23 -29.5t7 -40q-7 -54 -23 -150.5t-20 -122.5l-9 -103l-51 -5l57 353l1 14q0 20 -8 33t-20 13q-28 0 -86.5 -79.5t-129.5 -220.5v-1l-7 -107z" />
<glyph unicode="i" horiz-adv-x="211" d="M52 -4l50 364l5 94l50 5l-47 -351l-6 -107zM119 613q0 15 9 24t24 9q31 0 31 -32q0 -33 -32 -33t-32 32z" />
<glyph unicode="j" horiz-adv-x="222" d="M-41 -170l1 7q52 35 75 72.5t31 101.5l49 351l3 52h-79l-4 5l5 30h79l47 7l3 -2l-47 -353l-10 -83q-10 -79 -39.5 -124.5t-95.5 -86.5zM120 613q0 15 9 24t24 9q31 0 31 -32q0 -33 -32 -33t-32 32z" />
<glyph unicode="k" horiz-adv-x="444" d="M54 -4l83 608l5 94l51 5l-66 -486h7q62 103 106 160.5t90 82.5l16 1q70 -14 70 -87q0 -102 -157 -191q69 -106 126 -180l-2 -4l-39 -10l-6 2q-45 62 -125 188l2 11q154 90 154 173q0 23 -10 34.5t-23 11.5q-33 0 -91 -76.5t-133 -225.5l-7 -106z" />
<glyph unicode="l" horiz-adv-x="215" d="M54 -4l83 608l5 94l51 5l-81 -595l-7 -107z" />
<glyph unicode="m" horiz-adv-x="705" d="M52 -4l51 364l5 94l50 5l-34 -248h7q58 100 102.5 159.5t90.5 92.5h11q30 -7 48 -30t17 -56q-4 -33 -14 -92t-12 -74h7q56 98 101.5 158.5t91.5 93.5h11q29 -7 47 -30t17 -56q-7 -54 -23 -150.5t-20 -122.5l-9 -103l-52 -5l57 353l1 14q1 19 -7 32.5t-20 13.5 q-28 0 -87.5 -81t-132.5 -225l-9 -102l-51 -5l57 353l1 14q0 20 -8 33t-20 13q-27 0 -85 -79t-131 -221v-1l-6 -107z" />
<glyph unicode="n" horiz-adv-x="456" d="M52 -4l51 364l5 94l50 5l-34 -248h7q58 100 103 159.5t91 92.5h11q29 -7 47 -30t17 -56q-7 -54 -23 -150.5t-20 -122.5l-9 -103l-52 -5l57 353l1 14q1 19 -7 32.5t-20 13.5q-27 0 -86 -79.5t-131 -220.5v-1l-6 -107z" />
<glyph unicode="o" horiz-adv-x="404" d="M42 142q0 138 57 227t154 93h7q102 -13 102 -145q0 -139 -56 -228t-153 -96h-7q-53 7 -78.5 42.5t-25.5 106.5zM87 143q0 -57 16.5 -83.5t53.5 -26.5q73 0 116 78t43 202q0 56 -16.5 82t-53.5 26q-73 0 -116 -77t-43 -201z" />
<glyph unicode="p" horiz-adv-x="430" d="M29 -190l75 550l5 94l50 5l-32 -240h7q83 151 181 241h13q64 -45 64 -148q0 -122 -62 -214t-172 -104h-4l-56 14l-11 -85l-7 -108zM104 51l62 -16q82 0 131.5 77.5t49.5 187.5q0 37 -6.5 62t-13.5 33.5t-14 8.5q-10 0 -39.5 -31.5t-75.5 -102.5t-86 -158z" />
<glyph unicode="q" horiz-adv-x="430" d="M39 142q0 122 61.5 214t170.5 104h4l61 -14l31 16l7 -4l-71 -537l-7 -106l-51 -5l57 425h-7q-83 -150 -180 -241h-13q-63 40 -63 148zM83 154q0 -37 6.5 -62t13.5 -33.5t14 -8.5q10 0 38.5 31.5t74.5 102t86 156.5l3 20l3 46l-58 13q-82 0 -131.5 -77.5t-49.5 -187.5z " />
<glyph unicode="r" horiz-adv-x="318" d="M53 -4l50 364l6 94l49 5l-33 -246h7q90 196 186 244l20 -2l-9 -61l-5 -2l-9 1q-90 -14 -205 -297l-6 -95z" />
<glyph unicode="s" horiz-adv-x="312" d="M3 27l11 45l9 5q42 -47 93 -47q42 0 69 26t27 61q0 25 -16 46t-38.5 37.5t-45.5 33.5t-39 41.5t-16 54.5q0 56 45.5 93.5t111.5 36.5q46 -8 78 -23l-14 -44l-9 -2q-38 32 -75 32q-38 0 -65 -26t-27 -58q0 -22 16 -41.5t38.5 -36t45.5 -34t39 -43t16 -56.5 q0 -57 -45 -95.5t-116 -39.5q-50 7 -93 34z" />
<glyph unicode="t" horiz-adv-x="320" d="M61 419l4 30h73l15 120l47 21l6 -4l-23 -137h134l4 -5l-4 -30h-139l-52 -311l-2 -19q0 -41 34 -41q41 0 96 90l10 -1l16 -22q-63 -91 -124 -117h-11q-66 14 -65 79l1 19l46 270l7 53h-68z" />
<glyph unicode="u" horiz-adv-x="463" d="M61 78q7 54 23 150.5t20 122.5l10 103l50 6l-56 -350l-1 -18q-1 -20 7 -32.5t20 -12.5q27 0 85 78.5t130 219.5l2 15l6 94l50 5l-48 -351l-6 -107l-51 -5l33 247h-6q-111 -192 -193 -251h-11q-29 8 -47 31t-17 55z" />
<glyph unicode="v" horiz-adv-x="395" d="M81 453l49 6l5 -77l30 -326h5l131 216q35 60 35 100q0 32 -26 69l2 7l44 11q26 -40 26 -81q0 -51 -43 -122l-157 -256h-52z" />
<glyph unicode="w" horiz-adv-x="670" d="M81 453l48 6l3 -53l38 -348h6l160 345l22 52h52q7 -79 23 -223t19 -174h5l120 214q35 63 35 100q0 32 -26 69l2 7l44 11q26 -40 26 -81q0 -48 -42 -122l-147 -256h-50l-43 387h-6l-181 -387h-54z" />
<glyph unicode="x" horiz-adv-x="427" d="M5 0l181 235l-108 216l50 9l14 -37l79 -155l120 150l24 37h54l-174 -225l119 -226l-51 -9l-18 45l-83 160l-128 -162l-23 -38h-56z" />
<glyph unicode="y" horiz-adv-x="393" d="M-114 -137l7 4q39 -15 69 -15q93 0 188 151l-85 450l49 6q11 -79 36 -227.5t28 -165.5h9l111 198q36 64 36 108q0 34 -26 69l2 7l44 11q26 -38 26 -81q0 -56 -44 -132l-129 -222q-68 -117 -126 -167.5t-119 -50.5q-36 0 -74 15z" />
<glyph unicode="z" horiz-adv-x="400" d="M-9 9l303 405l-168 -1l-56 -4l-4 5l9 42l5 4l55 -4l198 -1l20 14l18 -16l-298 -395l28 6q19 0 60.5 -14.5t59.5 -14.5q48 0 71.5 34t28.5 109l10 3l24 -15q-9 -176 -136 -176q-25 0 -74 16.5t-71 16.5q-34 0 -62 -28h-5z" />
<glyph unicode="{" horiz-adv-x="285" d="M46 242l3 29q53 8 77 37t24 90q0 13 -1 49t-1 51q0 156 121 156q16 0 42 -6l3 -5l-9 -29q-25 5 -38 5q-41 0 -60 -28.5t-19 -93.5q0 -16 1.5 -53t1.5 -50q0 -104 -81 -136v-3q55 -23 55 -87q0 -27 -22.5 -103t-22.5 -107q0 -64 59 -64q13 0 38 5l3 -29q-13 -10 -50 -10 q-91 0 -91 90q0 35 22 112.5t22 101.5q0 66 -77 78z" />
<glyph unicode="|" horiz-adv-x="317" d="M79 -258q69 559 129 1049l37 3l3 -4q-60 -491 -130 -1052l-35 -2z" />
<glyph unicode="}" horiz-adv-x="285" d="M-22 -130l9 30q25 -5 38 -5q41 0 60 28.5t19 93.5q0 15 -1.5 52.5t-1.5 50.5q0 104 81 135l1 3q-55 24 -55 88q0 27 22 103t22 107q0 63 -58 63q-12 0 -39 -5l-2 29l4 5q21 6 45 6q91 0 91 -91q0 -35 -22 -112.5t-22 -101.5q0 -66 78 -78l-4 -28q-53 -8 -77 -37t-24 -90 q0 -13 1 -49.5t1 -51.5q0 -155 -120 -155q-24 0 -43 6z" />
<glyph unicode="~" horiz-adv-x="480" d="M62 238v6l72 63l8 4q21 -3 98.5 -25t94.5 -22q3 0 6.5 1t8 3.5t8 5t9.5 7.5t10 8.5t12.5 10.5t13.5 12h8l12 -18l-1 -6l-72 -64l-9 -2q-22 2 -99 24.5t-93 22.5q-4 0 -9 -2t-12 -7.5t-12 -9.5t-16.5 -14t-18.5 -16h-7z" />
<glyph unicode="&#xa1;" horiz-adv-x="255" d="M41 -191l69 444l31 2l6 -7l-58 -437l-6 -6l-37 -2zM115 430q0 15 9 24t24 9q31 0 31 -32q0 -15 -9 -24t-24 -9q-14 0 -22.5 9t-8.5 23z" />
<glyph unicode="&#xa2;" horiz-adv-x="384" d="M49 197q0 119 45 200t134 101l26 153h27l6 -6l-24 -142l21 1l64 -20l6 -8l-12 -32l-9 -3q-39 28 -71 28h-5l-67 -390q57 16 100 94l8 -1l14 -19q-53 -89 -128 -109l-27 -161h-27l-4 6l25 150q-52 8 -77 41t-25 117zM88 202q0 -122 69 -127l65 389q-64 -17 -99 -86 t-35 -176z" />
<glyph unicode="&#xa3;" horiz-adv-x="401" d="M3 5l7 27q72 11 84 109l19 159h-68l-3 5l6 26h69l13 108q9 74 50 113.5t111 39.5q47 0 101 -18l-8 -39l-4 -3q-42 25 -93 25q-100 0 -114 -113l-14 -113h126l3 -4l-7 -27h-126l-20 -155q-9 -72 -53 -105v-2h178l79 3l3 -6l-9 -36l-84 1h-243z" />
<glyph unicode="&#xa4;" horiz-adv-x="436" d="M42 211l2 6l73 64q-20 28 -20 69q0 52 40 94l-59 64l2 7l23 22h7l57 -67q39 29 84 29q44 0 77 -28l72 66h7l19 -22l-1 -6l-73 -64q20 -32 20 -69q0 -52 -40 -94l59 -64l-1 -7l-25 -22l-6 1l-56 66q-38 -30 -85 -30q-46 0 -78 29l-72 -67l-7 1zM130 352q0 -39 26 -66 t66 -27q47 0 82.5 33.5t35.5 80.5q0 39 -26.5 66.5t-66.5 27.5q-46 0 -81.5 -34t-35.5 -81z" />
<glyph unicode="&#xa5;" horiz-adv-x="488" d="M21 130l5 25h182l3 28l-30 74h-141l-3 4l5 25h127l-85 208h47l6 -24l98 -238h5l169 237l15 25h46l-145 -208h135l3 -3l-6 -26h-153l-54 -78l-3 -24h196l4 -4l-6 -25h-197l-16 -126h-41l17 126h-180z" />
<glyph unicode="&#xa6;" horiz-adv-x="317" d="M79 -258l51 413l35 5l5 -7l-52 -415l-35 -2zM156 370l52 421l37 3l3 -4l-52 -420l-35 -4z" />
<glyph unicode="&#xa7;" horiz-adv-x="413" d="M11 -70l11 41l7 5q49 -44 109 -44q51 0 84 28.5t33 64.5q0 26 -20 51.5t-48.5 47.5t-57.5 45.5t-49 54t-20 63.5q0 42 30 79t79 60q-36 41 -36 83q0 55 47 94.5t115 39.5q49 0 97 -21l-12 -42l-8 -1q-45 28 -88 28q-47 0 -77.5 -28t-30.5 -62q0 -25 20 -49.5t48 -46.5 t56.5 -45.5t48.5 -54.5t20 -65q0 -88 -108 -137q37 -42 37 -85q0 -56 -49 -96.5t-119 -40.5q-69 0 -119 33zM104 297q0 -21 14 -43t29.5 -36t46 -38t43.5 -36q89 40 89 101q0 22 -14 44.5t-29.5 37t-45.5 38.5t-43 36q-90 -43 -90 -104z" />
<glyph unicode="&#xa8;" horiz-adv-x="390" d="M132 601q0 14 8.5 23t23.5 9q14 0 22 -8.5t8 -22.5q0 -32 -31 -32t-31 31zM287 600q0 32 32 32q13 0 21.5 -8t8.5 -22q0 -15 -8.5 -24t-22.5 -9q-31 0 -31 31z" />
<glyph unicode="&#xa9;" horiz-adv-x="689" d="M59 293q0 137 80.5 221t212.5 84t213 -84t81 -221t-81 -221t-213 -84t-212.5 84t-80.5 221zM85 293q0 -125 73 -202t194 -77q120 0 193.5 77t73.5 202t-73.5 202t-193.5 77q-121 0 -194 -77t-73 -202zM208 295q0 82 40 126t116 44q50 0 96 -26l-8 -31l-5 -1 q-34 25 -84 25q-117 0 -117 -135q0 -68 29.5 -103.5t84.5 -35.5q49 0 93 28l5 -1l-4 -32q-48 -28 -96 -28q-73 0 -111.5 44t-38.5 126z" />
<glyph unicode="&#xaa;" horiz-adv-x="305" d="M67 437q0 80 40 138.5t112 68.5h3l47 -6l26 9l6 -4l-31 -229l-5 -70l-42 -4l20 155l-1 -3h-5q-52 -97 -112 -152h-9q-27 13 -38 35t-11 62zM105 451q0 -24 4 -41.5t9 -23.5t10 -6q6 0 23.5 19.5t45.5 62.5t54 95l5 50l-41 6q-50 -1 -80 -48t-30 -114z" />
<glyph unicode="&#xab;" horiz-adv-x="380" d="M42 220l2 14l171 167l23 -15l-1 -8l-154 -154l117 -153l-2 -8l-26 -15zM197 220l2 14l171 167l23 -15l-1 -8l-154 -154l117 -153l-2 -8l-26 -15z" />
<glyph unicode="&#xac;" horiz-adv-x="480" d="M36 254l7 32h378l5 -6l-26 -214l-32 -3l-5 4l22 182h-346z" />
<glyph unicode="&#xad;" horiz-adv-x="310" d="M30 224l4 33l247 33l5 -5l-4 -33l-247 -33z" />
<glyph unicode="&#xae;" horiz-adv-x="435" d="M39 524q0 80 49 129t130 49t130 -49t49 -129q0 -81 -49 -130.5t-130 -49.5t-130 49.5t-49 130.5zM62 524q0 -71 43 -114t114 -43q70 0 113 43t43 114q0 70 -43 113t-113 43q-71 0 -114 -43t-43 -113zM157 434v193h65q62 0 62 -56q0 -42 -40 -60q24 -35 53 -71l-1 -4 q-5 -2 -27 -5l-3 2q-19 24 -47 72h-35v-10l1 -61h-28zM185 529l37 -1q34 11 34 40q0 35 -42 37l-28 -1z" />
<glyph unicode="&#xaf;" horiz-adv-x="390" d="M95 589l3 31h285l4 -4l-3 -32h-285z" />
<glyph unicode="&#xb0;" horiz-adv-x="294" d="M58 510q0 55 42 95t99 40q47 0 78 -31.5t31 -78.5q0 -55 -42 -94.5t-97 -39.5q-48 0 -79.5 31t-31.5 78zM88 514q0 -35 24 -59.5t60 -24.5q41 0 73.5 30.5t32.5 70.5q0 35 -24 60t-59 25q-42 0 -74.5 -31t-32.5 -71z" />
<glyph unicode="&#xb1;" horiz-adv-x="478" d="M-1 -73l4 32h401l5 -4l-3 -32h-402zM37 254l7 32h183l23 183l32 4l5 -5l-23 -182h181l5 -4l-8 -33h-183l-22 -183l-33 -3l-4 4l22 182h-181z" />
<glyph unicode="&#xb2;" horiz-adv-x="342" d="M43 328l4 27l118 123q54 57 76.5 87t22.5 55q0 20 -15 33.5t-42 13.5q-57 0 -109 -54h-6l-3 33q62 57 127 57q40 0 66 -20.5t26 -53.5q0 -31 -24 -65t-85 -99l-95 -101l2 -2h153l63 2l1 -5l-9 -34l-72 2h-168l-28 -1z" />
<glyph unicode="&#xb3;" horiz-adv-x="301" d="M54 331l1 31l3 2q44 -6 64 -6q53 0 85.5 23.5t32.5 61.5q0 61 -86 64h-37l-3 3l5 29h30q32 1 63 25.5t31 56.5q0 22 -16 35t-42 13q-40 0 -88 -36h-5l-3 31q55 40 103 40q41 0 68 -21t27 -54q0 -29 -21.5 -56.5t-58.5 -42.5v-2q74 -18 74 -82q0 -53 -46.5 -87.5 t-117.5 -34.5q-35 0 -63 7z" />
<glyph unicode="&#xb4;" horiz-adv-x="390" d="M150 541q79 66 155 141l6 -1l20 -25l-2 -6q-58 -52 -156 -132l-7 1z" />
<glyph unicode="&#xb5;" horiz-adv-x="469" d="M30 -194l75 554l5 94l48 5l-49 -365q-3 -23 6 -36t22 -13q28 0 88.5 82t133.5 227l1 6l5 94l49 5l-48 -351l-7 -107l-49 -5l34 250h-7q-60 -101 -105 -161t-92 -93h-11q-18 5 -31 16l-12 -89l-7 -108z" />
<glyph unicode="&#xb6;" horiz-adv-x="466" d="M72 422q0 101 62.5 159t171.5 58h174l5 -6l-9 -34h-78q-4 -36 -26 -208.5t-33 -265.5q-8 -61 -47 -108.5t-118 -88.5l-13 23l1 7q41 25 68.5 50t43 53t19.5 60q11 93 32 265t26 213h-65q-78 -5 -121 -50.5t-43 -121.5q0 -124 136 -155l-18 -32q-81 15 -124.5 61.5 t-43.5 120.5z" />
<glyph unicode="&#xb7;" horiz-adv-x="230" d="M84 241q0 15 9 24t24 9q31 0 31 -32q0 -33 -32 -33t-32 32z" />
<glyph unicode="&#xb8;" horiz-adv-x="390" d="M81 -153l7 28l5 1q24 -31 52 -31q36 0 36 30q0 15 -22 29l-46 29l24 82h33l-21 -68l32 -20q36 -22 36 -53q0 -26 -20 -42.5t-50 -16.5q-40 0 -66 32z" />
<glyph unicode="&#xb9;" horiz-adv-x="249" d="M65 635l4 32l137 38l5 -5l-31 -241l-15 -132h-42q12 91 41 329l-95 -24z" />
<glyph unicode="&#xba;" horiz-adv-x="289" d="M66 439q0 90 38.5 147t105.5 60h5q71 -9 71 -97q0 -92 -38.5 -149t-104.5 -61h-5q-72 6 -72 100zM105 440q0 -70 44 -70q45 0 71 48t26 127q0 69 -42 69q-46 0 -72.5 -48.5t-26.5 -125.5z" />
<glyph unicode="&#xbb;" horiz-adv-x="373" d="M-10 63l1 8l154 154l-117 153l2 8l26 15l130 -172l-2 -14l-171 -167zM146 63v8l154 154l-117 153l2 8l26 15l130 -172l-2 -14l-171 -167z" />
<glyph unicode="&#xbc;" horiz-adv-x="678" d="M2 -68l570 741l20 -12l3 -11l-571 -740l-19 11zM58 574l4 32l137 38l5 -5l-31 -241l-15 -132h-42q12 91 41 329l-95 -24zM349 114l3 28l200 231h39l-29 -229h64l4 -4l-7 -31l-58 2h-7l-11 -108l-3 -3l-34 -2l-2 2l14 111h-130l-40 -2zM393 144h133l23 177h-4z" />
<glyph unicode="&#xbd;" horiz-adv-x="684" d="M2 -68l570 741l20 -12l3 -11l-571 -740l-19 11zM58 574l4 32l137 38l5 -5l-31 -241l-15 -132h-42q12 91 41 329l-95 -24zM355 1l4 27l118 123q54 57 76.5 87t22.5 55q0 21 -15 34t-42 13q-57 0 -109 -54h-6l-3 33q62 57 127 57q40 0 66 -20.5t26 -53.5q0 -31 -24 -65 t-85 -99l-95 -101l2 -2h153l63 2l1 -5l-9 -34l-72 2h-168l-28 -1z" />
<glyph unicode="&#xbe;" horiz-adv-x="713" d="M37 -68l570 741l20 -12l3 -11l-571 -740l-19 11zM43 270l1 31l3 2q44 -6 64 -6q53 0 85.5 23.5t32.5 61.5q0 61 -86 64h-37l-3 3l5 29h30q32 1 63 25.5t31 56.5q0 22 -16 35t-42 13q-40 0 -88 -36h-5l-3 31q55 40 103 40q41 0 68 -21t27 -54q0 -29 -21.5 -56.5 t-58.5 -42.5v-2q74 -19 74 -82q0 -53 -46.5 -87.5t-117.5 -34.5q-35 0 -63 7zM385 114l3 28l200 231h39l-29 -229h64l4 -4l-7 -31l-58 2h-7l-11 -108l-3 -3l-34 -2l-2 2l14 111h-130l-40 -2zM429 144h133l23 177h-4z" />
<glyph unicode="&#xbf;" horiz-adv-x="327" d="M-23 -55q0 84 98 144l97 60l2 4l7 102l36 4l4 -6l-7 -113l-6 -9l-106 -64q-79 -47 -79 -112q0 -103 192 -115l3 -6l-13 -28l-9 -3q-104 7 -161.5 44t-57.5 98zM179 430q0 15 9 24t24 9q31 0 31 -32q0 -15 -9 -24t-24 -9q-14 0 -22.5 9t-8.5 23z" />
<glyph unicode="&#xc0;" d="M-11 0l311 639h55l130 -639h-50l-6 53l-29 142l-142 1l-129 -1l-68 -140l-22 -55h-50zM150 238l118 -2l123 2l-70 344h-4zM240 820l14 28l6 2q73 -43 184 -98l-10 -25l-7 -3q-132 62 -184 89z" />
<glyph unicode="&#xc1;" d="M-11 0l311 639h55l130 -639h-50l-6 53l-29 142l-142 1l-129 -1l-68 -140l-22 -55h-50zM150 238l118 -2l123 2l-70 344h-4zM250 751q85 40 184 98l7 -2l13 -28l-2 -7q-80 -41 -184 -89l-7 3z" />
<glyph unicode="&#xc2;" d="M-11 0l311 639h55l130 -639h-50l-6 53l-29 142l-142 1l-129 -1l-68 -140l-22 -55h-50zM150 238l118 -2l123 2l-70 344h-4zM225 758q56 35 116 83h19q43 -40 99 -83l-14 -23h-7q-46 32 -90 68q-48 -33 -107 -68h-7z" />
<glyph unicode="&#xc3;" d="M-11 0l311 639h55l130 -639h-50l-6 53l-29 142l-142 1l-129 -1l-68 -140l-22 -55h-50zM150 238l118 -2l123 2l-70 344h-4zM194 760v6l57 57l7 3q19 -2 81 -19.5t75 -17.5q4 0 8 2t9 6.5t9.5 8.5t13 12t14.5 14h6l16 -18v-5l-56 -58l-8 -3q-19 2 -80.5 20t-75.5 18 q-4 0 -8 -2t-9 -6.5t-9.5 -9l-12.5 -12.5l-14 -14h-6z" />
<glyph unicode="&#xc4;" d="M-11 0l311 639h55l130 -639h-50l-6 53l-29 142l-142 1l-129 -1l-68 -140l-22 -55h-50zM150 238l118 -2l123 2l-70 344h-4zM234 785q0 14 8.5 23t23.5 9q14 0 22 -8.5t8 -22.5q0 -32 -31 -32t-31 31zM389 784q0 32 32 32q13 0 21.5 -8t8.5 -22q0 -15 -8.5 -24t-22.5 -9 q-31 0 -31 31z" />
<glyph unicode="&#xc5;" d="M-11 0l311 639h55l130 -639h-50l-6 53l-29 142l-142 1l-129 -1l-68 -140l-22 -55h-50zM150 238l118 -2l123 2l-70 344h-4zM266 790q0 33 21 54.5t56 21.5q36 0 56 -21.5t20 -53.5q0 -35 -23 -56t-55 -21q-31 0 -53 20.5t-22 55.5zM294 791q0 -23 13.5 -35.5t34.5 -12.5 t35 12t14 34q0 21 -12.5 34.5t-36.5 13.5q-22 0 -35 -12.5t-13 -33.5z" />
<glyph unicode="&#xc6;" horiz-adv-x="755" d="M-42 0l413 639h319l4 -6l-11 -38l-154 2h-98l6 -272l219 42l3 -5l-3 -36l-218 -40l5 -245h112l155 3l3 -6l-10 -38h-308l2 53l-6 223l-240 -48l-111 -173l-30 -55h-52zM182 275l209 41l-7 265h-5z" />
<glyph unicode="&#xc7;" horiz-adv-x="499" d="M51 253q0 183 80.5 287t223.5 104q95 0 162 -54l-17 -44l-7 -1q-59 56 -143 56q-118 0 -183.5 -90t-65.5 -251q0 -108 44 -165.5t127 -57.5q91 0 174 64l8 -3l-10 -46q-76 -50 -151 -57l-15 -48l32 -20q36 -22 36 -53q0 -26 -20 -42.5t-50 -16.5q-40 0 -66 32l7 28l5 1 q24 -31 52 -31q36 0 36 30q0 15 -22 29l-46 29l18 61q-101 2 -155 69.5t-54 189.5z" />
<glyph unicode="&#xc8;" horiz-adv-x="447" d="M71 0q12 82 80 639h318l2 -6l-9 -38l-141 2l-127 -1l-31 -246l118 -1l101 2l4 -6l-10 -37l-106 1l-113 -1q-11 -89 -33 -266l124 -1l147 3l3 -6l-10 -38h-317zM226 820l14 28l6 2q73 -43 184 -98l-10 -25l-7 -3q-132 62 -184 89z" />
<glyph unicode="&#xc9;" horiz-adv-x="447" d="M71 0q12 82 80 639h318l2 -6l-9 -38l-141 2l-127 -1l-31 -246l118 -1l101 2l4 -6l-10 -37l-106 1l-113 -1q-11 -89 -33 -266l124 -1l147 3l3 -6l-10 -38h-317zM237 751q85 40 184 98l7 -2l13 -28l-2 -7q-80 -41 -184 -89l-7 3z" />
<glyph unicode="&#xca;" horiz-adv-x="447" d="M71 0q12 82 80 639h318l2 -6l-9 -38l-141 2l-127 -1l-31 -246l118 -1l101 2l4 -6l-10 -37l-106 1l-113 -1q-11 -89 -33 -266l124 -1l147 3l3 -6l-10 -38h-317zM212 758q56 35 116 83h19q43 -40 99 -83l-14 -23h-7q-46 32 -90 68q-48 -33 -107 -68h-7z" />
<glyph unicode="&#xcb;" horiz-adv-x="447" d="M71 0q12 82 80 639h318l2 -6l-9 -38l-141 2l-127 -1l-31 -246l118 -1l101 2l4 -6l-10 -37l-106 1l-113 -1q-11 -89 -33 -266l124 -1l147 3l3 -6l-10 -38h-317zM220 785q0 14 8.5 23t23.5 9q9 0 16 -4t10.5 -11t3.5 -16q0 -15 -8.5 -23.5t-22.5 -8.5t-22.5 8t-8.5 23z M375 784q0 15 8.5 23.5t23.5 8.5q14 0 22 -8t8 -22q0 -7 -2.5 -13.5t-6.5 -10.5t-9.5 -6.5t-12.5 -2.5q-15 0 -23 8.5t-8 22.5z" />
<glyph unicode="&#xcc;" horiz-adv-x="247" d="M71 0q12 82 80 639h48l-57 -442l-23 -197h-48zM90 820l14 28l6 2q73 -43 184 -98l-10 -25l-7 -3q-132 62 -184 89z" />
<glyph unicode="&#xcd;" horiz-adv-x="247" d="M71 0q12 82 80 639h48l-57 -442l-23 -197h-48zM100 751q85 40 184 98l7 -2l13 -28l-2 -7q-80 -41 -184 -89l-7 3z" />
<glyph unicode="&#xce;" horiz-adv-x="247" d="M71 0q12 82 80 639h48l-57 -442l-23 -197h-48zM76 758q56 35 116 83h19q43 -40 99 -83l-14 -23h-7q-46 32 -90 68q-48 -33 -107 -68h-7z" />
<glyph unicode="&#xd0;" horiz-adv-x="637" d="M31 313l4 32h103l36 294l202 4q113 0 174 -65t61 -184q0 -185 -85.5 -292t-240.5 -107q-73 0 -191 5h-1l27 194l14 114h-101zM146 42q90 -6 148 -6q126 0 196 92t70 257q0 106 -48 161t-141 55q-77 0 -155 -4l-33 -252h169l2 -4l-4 -33h-171l-15 -111z" />
<glyph unicode="&#xd1;" horiz-adv-x="647" d="M71 0q11 75 81 639h49l277 -557h6l70 554l46 4l-61 -458l-21 -182h-50l-277 557h-5l-45 -352l-24 -205h-46zM244 760v6l57 57l7 3q19 -2 81 -19.5t75 -17.5q4 0 8 2t9 6.5t9.5 8.5t13 12t14.5 14h6l16 -18v-5l-56 -58l-8 -3q-19 2 -80.5 20t-75.5 18q-4 0 -8 -2t-9 -6.5 t-9.5 -9l-12.5 -12.5l-14 -14h-6z" />
<glyph unicode="&#xd2;" horiz-adv-x="605" d="M51 254q0 184 80 287.5t226 103.5q107 0 164.5 -66.5t57.5 -187.5q0 -185 -81 -291t-227 -106q-105 0 -162.5 68t-57.5 192zM101 258q0 -108 44.5 -165t129.5 -57q123 0 188.5 91.5t65.5 256.5q0 108 -44.5 163.5t-131.5 55.5q-123 0 -187.5 -90.5t-64.5 -254.5zM269 820 l14 28l6 2q73 -43 184 -98l-10 -25l-7 -3q-132 62 -184 89z" />
<glyph unicode="&#xd3;" horiz-adv-x="605" d="M51 254q0 184 80 287.5t226 103.5q107 0 164.5 -66.5t57.5 -187.5q0 -185 -81 -291t-227 -106q-105 0 -162.5 68t-57.5 192zM101 258q0 -108 44.5 -165t129.5 -57q123 0 188.5 91.5t65.5 256.5q0 108 -44.5 163.5t-131.5 55.5q-123 0 -187.5 -90.5t-64.5 -254.5zM279 751 q85 40 184 98l7 -2l13 -28l-2 -7q-80 -41 -184 -89l-7 3z" />
<glyph unicode="&#xd4;" horiz-adv-x="605" d="M51 254q0 184 80 287.5t226 103.5q107 0 164.5 -66.5t57.5 -187.5q0 -185 -81 -291t-227 -106q-105 0 -162.5 68t-57.5 192zM101 258q0 -108 44.5 -165t129.5 -57q123 0 188.5 91.5t65.5 256.5q0 108 -44.5 163.5t-131.5 55.5q-123 0 -187.5 -90.5t-64.5 -254.5zM255 758 q56 35 116 83h19q43 -40 99 -83l-14 -23h-7q-46 32 -90 68q-48 -33 -107 -68h-7z" />
<glyph unicode="&#xd5;" horiz-adv-x="605" d="M51 254q0 184 80 287.5t226 103.5q107 0 164.5 -66.5t57.5 -187.5q0 -185 -81 -291t-227 -106q-105 0 -162.5 68t-57.5 192zM101 258q0 -108 44.5 -165t129.5 -57q123 0 188.5 91.5t65.5 256.5q0 108 -44.5 163.5t-131.5 55.5q-123 0 -187.5 -90.5t-64.5 -254.5zM223 760 v6l57 57l7 3q19 -2 81 -19.5t75 -17.5q4 0 8 2t9 6.5t9.5 8.5t13 12t14.5 14h6l16 -18v-5l-56 -58l-8 -3q-19 2 -80.5 20t-75.5 18q-4 0 -8 -2t-9 -6.5t-9.5 -9l-12.5 -12.5l-14 -14h-6z" />
<glyph unicode="&#xd7;" horiz-adv-x="481" d="M74 133v6l146 129l-114 128l1 7l27 21l114 -130l146 130l23 -21l-1 -7l-144 -128l112 -129l-1 -6l-27 -21l-114 129l-146 -129z" />
<glyph unicode="&#xd8;" horiz-adv-x="606" d="M51 254q0 184 80 287.5t226 103.5q65 0 111 -24l54 95l30 -10l2 -7l-56 -98q81 -66 81 -210q0 -185 -81 -291t-227 -106q-57 0 -104 22l-62 -110l-30 10l-2 5l64 114q-86 65 -86 219zM101 258q0 -126 60 -182l285 505q-41 22 -93 22q-123 0 -187.5 -90.5t-64.5 -254.5z M190 55q36 -19 85 -19q123 0 188.5 91.5t65.5 256.5q0 120 -55 174z" />
<glyph unicode="&#xd9;" horiz-adv-x="590" d="M75 178q0 29 4 54q9 59 17.5 127t18.5 151.5t16 128.5h47l-53 -403q-3 -24 -3 -47q0 -74 38 -112.5t111 -38.5q84 0 134.5 49.5t62.5 144.5l48 407h48l-42 -326l-9 -78q-12 -115 -75 -177.5t-169 -62.5q-92 0 -143 47.5t-51 135.5zM262 820l14 28l6 2q73 -43 184 -98 l-10 -25l-7 -3q-132 62 -184 89z" />
<glyph unicode="&#xda;" horiz-adv-x="590" d="M75 178q0 29 4 54q9 59 17.5 127t18.5 151.5t16 128.5h47l-53 -403q-3 -24 -3 -47q0 -74 38 -112.5t111 -38.5q84 0 134.5 49.5t62.5 144.5l48 407h48l-42 -326l-9 -78q-12 -115 -75 -177.5t-169 -62.5q-92 0 -143 47.5t-51 135.5zM272 751q85 40 184 98l7 -2l13 -28 l-2 -7q-80 -41 -184 -89l-7 3z" />
<glyph unicode="&#xdb;" horiz-adv-x="590" d="M75 178q0 29 4 54q9 59 17.5 127t18.5 151.5t16 128.5h47l-53 -403q-3 -24 -3 -47q0 -74 38 -112.5t111 -38.5q84 0 134.5 49.5t62.5 144.5l48 407h48l-42 -326l-9 -78q-12 -115 -75 -177.5t-169 -62.5q-92 0 -143 47.5t-51 135.5zM247 758q56 35 116 83h19 q43 -40 99 -83l-14 -23h-7q-46 32 -90 68q-48 -33 -107 -68h-7z" />
<glyph unicode="&#xdc;" horiz-adv-x="590" d="M75 178q0 29 4 54q9 59 17.5 127t18.5 151.5t16 128.5h47l-53 -403q-3 -24 -3 -47q0 -74 38 -112.5t111 -38.5q84 0 134.5 49.5t62.5 144.5l48 407h48l-42 -326l-9 -78q-12 -115 -75 -177.5t-169 -62.5q-92 0 -143 47.5t-51 135.5zM256 785q0 14 8.5 23t23.5 9 q14 0 22 -8.5t8 -22.5q0 -32 -31 -32t-31 31zM411 784q0 32 32 32q13 0 21.5 -8t8.5 -22q0 -15 -8.5 -24t-22.5 -9q-31 0 -31 31z" />
<glyph unicode="&#xde;" horiz-adv-x="485" d="M72 0q11 81 80 639h48l-15 -117l109 1q77 0 119.5 -40.5t42.5 -117.5q0 -112 -64.5 -178.5t-178.5 -66.5h-79l-14 -120h-48zM139 163l112 -2q72 8 114 62t42 135q0 117 -119 123l-109 -2l-36 -282z" />
<glyph unicode="&#xdf;" horiz-adv-x="533" d="M63 419l6 30h73l12 92q10 78 57 120.5t124 42.5q64 0 101.5 -29t37.5 -85q0 -34 -14 -62.5t-34 -47.5t-40 -37t-34 -40.5t-14 -48.5q0 -21 11 -40.5t27.5 -33.5t35.5 -31.5t35.5 -33.5t27.5 -39.5t11 -50.5q0 -56 -45 -93.5t-114 -38.5q-54 7 -95 34l10 43l8 4 q42 -45 95 -45q41 0 69 26t28 62q0 25 -15 47.5t-37 40t-44 36.5t-37 46t-15 59q0 33 14 60t34 45.5t40 36.5t34 42.5t14 53.5q0 80 -99 80q-56 0 -90.5 -30t-42.5 -84q-56 -422 -75 -569l-7 -106l-51 -6q50 372 72 545h-69z" />
<glyph unicode="&#xe0;" horiz-adv-x="431" d="M40 143q0 123 61 214.5t169 103.5h5l62 -15l31 16l7 -4l-47 -350l-7 -107l-51 -5l33 239h-7q-84 -152 -179 -241h-13q-64 43 -64 149zM84 155q0 -37 6.5 -62.5t14 -34t14.5 -8.5q10 0 38.5 31.5t74 102t85.5 156.5l3 20l3 46l-59 14q-82 -1 -131 -78t-49 -187zM168 656 l19 25l7 1q73 -73 154 -141l-16 -22l-7 -1q-98 80 -156 132z" />
<glyph unicode="&#xe1;" horiz-adv-x="431" d="M40 143q0 123 61 214.5t169 103.5h5l62 -15l31 16l7 -4l-47 -350l-7 -107l-51 -5l33 239h-7q-84 -152 -179 -241h-13q-64 43 -64 149zM84 155q0 -37 6.5 -62.5t14 -34t14.5 -8.5q10 0 38.5 31.5t74 102t85.5 156.5l3 20l3 46l-59 14q-82 -1 -131 -78t-49 -187zM179 541 q79 66 155 141l6 -1l20 -25l-2 -6q-58 -52 -156 -132l-7 1z" />
<glyph unicode="&#xe2;" horiz-adv-x="431" d="M40 143q0 123 61 214.5t169 103.5h5l62 -15l31 16l7 -4l-47 -350l-7 -107l-51 -5l33 239h-7q-84 -152 -179 -241h-13q-64 43 -64 149zM84 155q0 -37 6.5 -62.5t14 -34t14.5 -8.5q10 0 38.5 31.5t74 102t85.5 156.5l3 20l3 46l-59 14q-82 -1 -131 -78t-49 -187zM146 537 q51 48 126 130h20q46 -70 95 -130l-17 -21h-7q-43 50 -85 111q-66 -69 -113 -111h-7z" />
<glyph unicode="&#xe3;" horiz-adv-x="431" d="M40 143q0 123 61 214.5t169 103.5h5l62 -15l31 16l7 -4l-47 -350l-7 -107l-51 -5l33 239h-7q-84 -152 -179 -241h-13q-64 43 -64 149zM84 155q0 -37 6.5 -62.5t14 -34t14.5 -8.5q10 0 38.5 31.5t74 102t85.5 156.5l3 20l3 46l-59 14q-82 -1 -131 -78t-49 -187zM119 576v6 l57 57l7 3q19 -2 81 -19.5t75 -17.5q4 0 8 2t9 6.5t9.5 8.5t13 12t14.5 14h6l16 -18v-5l-56 -58l-8 -3q-19 2 -80.5 20t-75.5 18q-4 0 -8 -2t-9 -6.5t-9.5 -9l-12.5 -12.5l-14 -14h-6z" />
<glyph unicode="&#xe4;" horiz-adv-x="431" d="M40 143q0 123 61 214.5t169 103.5h5l62 -15l31 16l7 -4l-47 -350l-7 -107l-51 -5l33 239h-7q-84 -152 -179 -241h-13q-64 43 -64 149zM84 155q0 -37 6.5 -62.5t14 -34t14.5 -8.5q10 0 38.5 31.5t74 102t85.5 156.5l3 20l3 46l-59 14q-82 -1 -131 -78t-49 -187zM159 601 q0 14 8.5 23t23.5 9q14 0 22 -8.5t8 -22.5q0 -32 -31 -32t-31 31zM314 600q0 32 32 32q14 0 22 -8t8 -22q0 -15 -8.5 -24t-22.5 -9q-31 0 -31 31z" />
<glyph unicode="&#xe5;" horiz-adv-x="431" d="M40 143q0 123 61 214.5t169 103.5h5l62 -15l31 16l7 -4l-47 -350l-7 -107l-51 -5l33 239h-7q-84 -152 -179 -241h-13q-64 43 -64 149zM84 155q0 -37 6.5 -62.5t14 -34t14.5 -8.5q10 0 38.5 31.5t74 102t85.5 156.5l3 20l3 46l-59 14q-82 -1 -131 -78t-49 -187zM191 606 q0 33 21 54.5t56 21.5q36 0 56 -21.5t20 -53.5q0 -35 -23 -56t-55 -21q-31 0 -53 20.5t-22 55.5zM219 607q0 -23 13.5 -35.5t34.5 -12.5t35 12t14 34q0 21 -12.5 34.5t-36.5 13.5q-22 0 -35 -12.5t-13 -33.5z" />
<glyph unicode="&#xe6;" horiz-adv-x="591" d="M46 144q0 122 61.5 213.5t170.5 103.5h4l104 -33q41 31 97 34l7 -1q81 -9 81 -79q0 -117 -252 -207v-21q1 -117 71 -117q36 0 69 26t57 71h10l17 -24q-64 -100 -151 -116h-11q-58 7 -83 45.5t-25 112.5q0 32 4 53q-71 -129 -154 -211h-12q-65 42 -65 150zM91 156 q0 -38 6.5 -63.5t13.5 -34t14 -8.5q10 0 37.5 32t69 100t77.5 149q19 40 42 63l-80 26q-82 -1 -131 -78t-49 -186zM321 214q99 34 152 76.5t53 87.5q0 46 -52 46q-58 0 -100 -58.5t-53 -151.5z" />
<glyph unicode="&#xe7;" horiz-adv-x="329" d="M41 150q0 138 56.5 224t167.5 86l60 -20l6 -9l-14 -36l-10 -3q-35 29 -66 29q-72 -1 -113.5 -72t-41.5 -193q0 -63 16.5 -91t49.5 -28q64 0 113 96h9l17 -24q-50 -87 -121 -110l-16 -52l32 -20q36 -22 36 -53q0 -26 -20 -42.5t-50 -16.5q-40 0 -66 32l7 28l5 1 q24 -31 52 -31q36 0 36 30q0 15 -22 29l-46 29l18 62q-48 8 -71.5 41t-23.5 114z" />
<glyph unicode="&#xe8;" horiz-adv-x="364" d="M41 149q0 133 59 221t150 92l7 -1q80 -9 80 -79q0 -118 -250 -206v-14q0 -65 17.5 -95t53.5 -30q72 0 125 97h10l17 -24q-64 -100 -151 -116h-11q-107 11 -107 155zM90 214q98 34 150.5 76.5t52.5 87.5q0 46 -52 46q-58 0 -99.5 -58t-51.5 -152zM152 656l19 25l7 1 q73 -73 154 -141l-16 -22l-7 -1q-98 80 -156 132z" />
<glyph unicode="&#xe9;" horiz-adv-x="364" d="M41 149q0 133 59 221t150 92l7 -1q80 -9 80 -79q0 -118 -250 -206v-14q0 -65 17.5 -95t53.5 -30q72 0 125 97h10l17 -24q-64 -100 -151 -116h-11q-107 11 -107 155zM90 214q98 34 150.5 76.5t52.5 87.5q0 46 -52 46q-58 0 -99.5 -58t-51.5 -152zM163 541q79 66 155 141 l6 -1l20 -25l-2 -6q-58 -52 -156 -132l-7 1z" />
<glyph unicode="&#xea;" horiz-adv-x="364" d="M41 149q0 133 59 221t150 92l7 -1q80 -9 80 -79q0 -118 -250 -206v-14q0 -65 17.5 -95t53.5 -30q72 0 125 97h10l17 -24q-64 -100 -151 -116h-11q-107 11 -107 155zM90 214q98 34 150.5 76.5t52.5 87.5q0 46 -52 46q-58 0 -99.5 -58t-51.5 -152zM130 537q51 48 126 130 h20q46 -70 95 -130l-17 -21h-7q-43 50 -85 111q-66 -69 -113 -111h-7z" />
<glyph unicode="&#xeb;" horiz-adv-x="364" d="M41 149q0 133 59 221t150 92l7 -1q80 -9 80 -79q0 -118 -250 -206v-14q0 -65 17.5 -95t53.5 -30q72 0 125 97h10l17 -24q-64 -100 -151 -116h-11q-107 11 -107 155zM90 214q98 34 150.5 76.5t52.5 87.5q0 46 -52 46q-58 0 -99.5 -58t-51.5 -152zM143 601q0 14 8.5 23 t23.5 9q14 0 22 -8.5t8 -22.5q0 -32 -31 -32t-31 31zM298 600q0 32 32 32q14 0 22 -8t8 -22q0 -15 -8.5 -24t-22.5 -9q-31 0 -31 31z" />
<glyph unicode="&#xec;" horiz-adv-x="211" d="M50 656l19 25l7 1q73 -73 154 -141l-16 -22l-7 -1q-98 80 -156 132zM52 -4l50 364l5 94l50 5l-47 -351l-6 -107z" />
<glyph unicode="&#xed;" horiz-adv-x="211" d="M52 -4l50 364l5 94l50 5l-47 -351l-6 -107zM62 541q79 66 155 141l6 -1l20 -25l-2 -6q-58 -52 -156 -132l-7 1z" />
<glyph unicode="&#xee;" horiz-adv-x="211" d="M29 537q51 48 126 130h20q45 -70 95 -130l-17 -21h-7q-43 50 -85 111q-66 -69 -113 -111h-7zM52 -4l50 364l5 94l50 5l-47 -351l-6 -107z" />
<glyph unicode="&#xf0;" horiz-adv-x="430" d="M53 142q0 137 57 225t153 91h7q19 -1 38 -10q-22 67 -73 123l-132 -60l-5 3l-7 27l119 55q-50 46 -122 77l1 7l30 24h5q76 -34 131 -88l118 54l5 -3l8 -28l-107 -48q98 -114 96 -274q0 -139 -56.5 -228t-153.5 -96h-7q-54 7 -79.5 42.5t-25.5 106.5zM97 143 q0 -58 17 -84.5t55 -26.5q74 0 117.5 78t43.5 203q0 36 -4 63q-17 46 -68 46q-74 0 -117.5 -77.5t-43.5 -201.5z" />
<glyph unicode="&#xf1;" horiz-adv-x="456" d="M52 -4l50 364l6 94l50 5l-34 -248h7q56 98 101.5 158.5t91.5 93.5h11q29 -7 47.5 -30t17.5 -56q-7 -54 -23 -150.5t-20 -122.5l-9 -103l-52 -5l57 353l1 14q0 19 -8 32.5t-19 13.5q-28 0 -87 -79.5t-130 -220.5v-1l-7 -107zM129 576v6l57 57l7 3q19 -2 81 -19.5t75 -17.5 q4 0 8 2t9 6.5t9.5 8.5t13 12t14.5 14h6l16 -18v-5l-56 -58l-8 -3q-19 2 -80.5 20t-75.5 18q-3 0 -6.5 -1.5t-7 -4t-8 -7l-9 -9l-11 -11l-11.5 -11.5h-6z" />
<glyph unicode="&#xf2;" horiz-adv-x="404" d="M42 142q0 138 57 227t154 93h7q102 -13 102 -145q0 -139 -56 -228t-153 -96h-7q-53 7 -78.5 42.5t-25.5 106.5zM87 143q0 -57 17 -83.5t54 -26.5q72 0 115 78t43 202q0 56 -16.5 82t-53.5 26q-73 0 -116 -77t-43 -201zM155 656l19 25l7 1q73 -73 154 -141l-16 -22l-7 -1 q-98 80 -156 132z" />
<glyph unicode="&#xf3;" horiz-adv-x="404" d="M42 142q0 138 57 227t154 93h7q102 -13 102 -145q0 -139 -56 -228t-153 -96h-7q-53 7 -78.5 42.5t-25.5 106.5zM87 143q0 -57 17 -83.5t54 -26.5q72 0 115 78t43 202q0 56 -16.5 82t-53.5 26q-73 0 -116 -77t-43 -201zM167 541q79 66 155 141l6 -1l20 -25l-2 -6 q-58 -52 -156 -132l-7 1z" />
<glyph unicode="&#xf4;" horiz-adv-x="404" d="M42 142q0 138 57 227t154 93h7q102 -13 102 -145q0 -139 -56 -228t-153 -96h-7q-53 7 -78.5 42.5t-25.5 106.5zM87 143q0 -57 17 -83.5t54 -26.5q72 0 115 78t43 202q0 56 -16.5 82t-53.5 26q-73 0 -116 -77t-43 -201zM134 537q51 48 126 130h20q46 -70 95 -130l-17 -21 h-7q-43 50 -85 111q-66 -69 -113 -111h-7z" />
<glyph unicode="&#xf5;" horiz-adv-x="404" d="M42 142q0 138 57 227t154 93h7q102 -13 102 -145q0 -139 -56 -228t-153 -96h-7q-53 7 -78.5 42.5t-25.5 106.5zM87 143q0 -57 17 -83.5t54 -26.5q72 0 115 78t43 202q0 56 -16.5 82t-53.5 26q-73 0 -116 -77t-43 -201zM107 576v6l57 57l7 3q19 -2 81 -19.5t75 -17.5 q4 0 8 2t9 6.5t9.5 8.5t13 12t14.5 14h6l16 -18v-5l-56 -58l-8 -3q-19 2 -80.5 20t-75.5 18q-4 0 -8 -2t-9 -6.5t-9.5 -9l-12.5 -12.5l-14 -14h-6z" />
<glyph unicode="&#xf7;" horiz-adv-x="478" d="M39 254l3 32h402l4 -4l-3 -33h-402zM191 90q0 14 8.5 23t23.5 9q30 0 30 -31q0 -32 -31 -32t-31 31zM234 447q0 14 9 23t23 9q30 0 30 -31q0 -32 -31 -32t-31 31z" />
<glyph unicode="&#xf8;" horiz-adv-x="404" d="M35 -94l51 110q-44 34 -44 126q0 138 57 227t154 93h7q12 -1 30 -7l39 85l27 -10l3 -7l-39 -84q42 -34 42 -122q0 -139 -56 -228t-153 -96h-7q-16 2 -29 6l-51 -110l-29 11zM87 143q0 -58 18 -85l167 359q-11 4 -26 4q-73 0 -116 -77t-43 -201zM134 36q10 -3 24 -3 q72 0 115 78t43 202q0 56 -16 82z" />
<glyph unicode="&#xf9;" horiz-adv-x="463" d="M61 78q7 54 23 150.5t20 122.5l10 103l49 6l-55 -350l-2 -18q-1 -20 7.5 -32.5t20.5 -12.5q27 0 85.5 79.5t130.5 221.5l2 12l5 94l51 5l-48 -351l-7 -107l-51 -5l34 247h-7q-111 -192 -193 -251h-11q-29 8 -47 31t-17 55zM178 656l19 25l7 1q73 -73 154 -141l-16 -22 l-7 -1q-98 80 -156 132z" />
<glyph unicode="&#xfa;" horiz-adv-x="463" d="M61 78q7 54 23 150.5t20 122.5l10 103l49 6l-55 -350l-2 -18q-1 -20 7.5 -32.5t20.5 -12.5q27 0 85.5 79.5t130.5 221.5l2 12l5 94l51 5l-48 -351l-7 -107l-51 -5l34 247h-7q-111 -192 -193 -251h-11q-29 8 -47 31t-17 55zM189 541q79 66 155 141l6 -1l20 -25l-2 -6 q-58 -52 -156 -132l-7 1z" />
<glyph unicode="&#xfb;" horiz-adv-x="463" d="M61 78q7 54 23 150.5t20 122.5l10 103l49 6l-55 -350l-2 -18q-1 -20 7.5 -32.5t20.5 -12.5q27 0 85.5 79.5t130.5 221.5l2 12l5 94l51 5l-48 -351l-7 -107l-51 -5l34 247h-7q-111 -192 -193 -251h-11q-29 8 -47 31t-17 55zM156 537q51 48 126 130h20q46 -70 95 -130 l-17 -21h-7q-43 50 -85 111q-66 -69 -113 -111h-7z" />
<glyph unicode="&#xfc;" horiz-adv-x="463" d="M61 78q7 54 23 150.5t20 122.5l10 103l49 6l-55 -350l-2 -18q-1 -20 7.5 -32.5t20.5 -12.5q27 0 85.5 79.5t130.5 221.5l2 12l5 94l51 5l-48 -351l-7 -107l-51 -5l34 247h-7q-111 -192 -193 -251h-11q-29 8 -47 31t-17 55zM169 601q0 14 8.5 23t23.5 9q14 0 22 -8.5 t8 -22.5q0 -6 -1.5 -11t-4 -9t-6.5 -6.5t-8.5 -4t-10.5 -1.5q-10 0 -16.5 3.5t-10.5 10.5t-4 17zM324 600q0 15 8.5 23.5t23.5 8.5q14 0 22 -8t8 -22q0 -15 -8.5 -24t-22.5 -9q-15 0 -23 8.5t-8 22.5z" />
<glyph unicode="&#xfe;" horiz-adv-x="438" d="M30 -191l108 794l5 95l50 4l-65 -484h8q82 150 180 242h13q64 -44 64 -148q0 -79 -25.5 -147t-79.5 -115.5t-128 -55.5h-5l-55 14l-12 -86l-7 -108zM105 51l62 -16q82 0 131.5 77.5t49.5 187.5q0 38 -6 62.5t-13 33t-15 8.5q-10 0 -39 -31.5t-75 -102.5t-86 -157z" />
<glyph unicode="&#xff;" horiz-adv-x="393" d="M-113 -137l7 4q39 -15 69 -15q93 0 187 150l-85 451l49 6q11 -79 36 -227.5t28 -165.5h10l111 198q36 64 36 108q0 32 -26 69l2 7l44 11q26 -38 26 -81q0 -56 -44 -132l-129 -222q-68 -117 -126 -167.5t-119 -50.5q-37 0 -74 15zM121 601q0 14 8.5 23t23.5 9 q14 0 22 -8.5t8 -22.5q0 -32 -31 -32t-31 31zM276 600q0 32 32 32q14 0 22 -8t8 -22q0 -15 -8.5 -24t-22.5 -9q-31 0 -31 31z" />
<glyph unicode="&#x152;" horiz-adv-x="801" d="M51 260q0 181 91.5 286t252.5 105q27 0 75.5 -6t74.5 -6h276l4 -6l-10 -38l-132 2h-135l-31 -247l110 -1l109 2l3 -6l-10 -37l-111 1l-108 -1q-12 -103 -32 -266l123 -1l147 3l4 -6l-10 -38h-277q-28 0 -84.5 -6t-82.5 -6q-118 0 -182.5 72t-64.5 200zM100 264 q0 -113 53 -173.5t157 -60.5q54 0 96 10q16 4 22.5 9.5t8.5 19.5l58 493q4 31 -8 35q-45 12 -101 12q-136 0 -211 -91.5t-75 -253.5z" />
<glyph unicode="&#x153;" horiz-adv-x="634" d="M47 142q0 138 57.5 227t155.5 93h7q45 -6 68.5 -31.5t29.5 -75.5q57 102 159 107l7 -1q81 -9 81 -79q0 -118 -252 -206v-13q0 -66 17.5 -96t53.5 -30t69 26t57 71h10l17 -24q-66 -101 -151 -116h-10q-48 5 -72 32t-30 77q-57 -103 -161 -110h-7q-55 7 -80.5 42.5 t-25.5 106.5zM92 144q0 -58 17 -84.5t55 -26.5q73 0 116.5 78t43.5 202q0 57 -17 83t-54 26q-74 0 -117.5 -77.5t-43.5 -200.5zM363 214q99 34 151.5 77t52.5 87q0 46 -52 46q-58 0 -100 -58.5t-52 -151.5z" />
<glyph unicode="&#x178;" horiz-adv-x="486" d="M71 639h52l7 -31l109 -312h7l199 311l17 32h54l-257 -398q-5 -35 -10 -75.5t-11 -89.5t-9 -76h-48l27 191l5 44zM204 785q0 14 8.5 23t23.5 9q14 0 22 -8.5t8 -22.5q0 -32 -31 -32t-31 31zM359 784q0 32 32 32q13 0 21.5 -8t8.5 -22q0 -15 -8.5 -24t-22.5 -9 q-31 0 -31 31z" />
<glyph unicode="&#x2c6;" horiz-adv-x="390" d="M112 537q51 48 126 130h20q46 -70 95 -130l-17 -21h-7q-43 50 -85 111q-66 -69 -113 -111h-7z" />
<glyph unicode="&#x2dc;" horiz-adv-x="390" d="M92 576v6l57 57l7 3q19 -2 81 -19.5t75 -17.5q4 0 8 2t9 6.5t9.5 8.5t13 12t14.5 14h6l16 -18v-5l-56 -58l-8 -3q-19 2 -80.5 20t-75.5 18q-4 0 -8 -2t-9 -6.5t-9.5 -9l-12.5 -12.5l-14 -14h-6z" />
<glyph unicode="&#x2000;" horiz-adv-x="433" />
<glyph unicode="&#x2001;" horiz-adv-x="866" />
<glyph unicode="&#x2002;" horiz-adv-x="433" />
<glyph unicode="&#x2003;" horiz-adv-x="866" />
<glyph unicode="&#x2004;" horiz-adv-x="288" />
<glyph unicode="&#x2005;" horiz-adv-x="216" />
<glyph unicode="&#x2006;" horiz-adv-x="144" />
<glyph unicode="&#x2007;" horiz-adv-x="144" />
<glyph unicode="&#x2008;" horiz-adv-x="108" />
<glyph unicode="&#x2009;" horiz-adv-x="173" />
<glyph unicode="&#x200a;" horiz-adv-x="48" />
<glyph unicode="&#x2010;" horiz-adv-x="310" d="M30 224l4 33l247 33l5 -5l-4 -33l-247 -33z" />
<glyph unicode="&#x2011;" horiz-adv-x="310" d="M30 224l4 33l247 33l5 -5l-4 -33l-247 -33z" />
<glyph unicode="&#x2012;" horiz-adv-x="310" d="M30 224l4 33l247 33l5 -5l-4 -33l-247 -33z" />
<glyph unicode="&#x2013;" horiz-adv-x="485" d="M-13 241l7 32h508l3 -4l-6 -33h-509z" />
<glyph unicode="&#x2014;" horiz-adv-x="952" d="M-13 241l7 32h975l4 -4l-7 -33h-976z" />
<glyph unicode="&#x2018;" horiz-adv-x="144" d="M64 522q0 54 63 117l21 -15v-6q-43 -46 -43 -83q0 -34 38 -47v-5q-6 -8 -27 -25q-52 16 -52 64z" />
<glyph unicode="&#x2019;" horiz-adv-x="144" d="M65 477q43 46 43 84q0 34 -38 47v5q6 7 28 25q51 -16 51 -65q0 -52 -62 -117l-21 16z" />
<glyph unicode="&#x201a;" horiz-adv-x="230" d="M29 -89l1 5q54 42 54 82q0 24 -30 41v6q17 13 33 18q39 -22 39 -57q0 -54 -79 -112z" />
<glyph unicode="&#x201c;" horiz-adv-x="245" d="M57 523q0 52 62 117l21 -16l1 -5q-43 -46 -43 -84q0 -34 38 -47v-5q-6 -7 -28 -25q-51 16 -51 65zM169 523q0 52 62 117l21 -16l1 -5q-43 -46 -43 -84q0 -34 38 -47v-5q-6 -7 -28 -25q-51 16 -51 65z" />
<glyph unicode="&#x201d;" horiz-adv-x="255" d="M62 472v5q43 47 43 84q0 34 -39 47v5q6 7 28 25q52 -16 52 -65q0 -53 -63 -117zM173 472v5q43 47 43 84q0 34 -39 47v5q6 7 28 25q52 -16 52 -65q0 -53 -63 -117z" />
<glyph unicode="&#x201e;" horiz-adv-x="342" d="M29 -89l1 5q54 42 54 82q0 24 -30 41v6q17 13 33 18q39 -22 39 -57q0 -54 -79 -112zM141 -84q55 41 55 82q0 24 -31 41v6q19 13 33 18q40 -22 40 -57q0 -53 -79 -112l-18 17v5z" />
<glyph unicode="&#x2022;" horiz-adv-x="242" d="M90 236q0 16 9.5 25.5t25.5 9.5q15 0 24 -9t9 -25t-9.5 -25.5t-24.5 -9.5q-34 0 -34 34z" />
<glyph unicode="&#x2026;" horiz-adv-x="555" d="M30 29q0 14 9 23.5t24 9.5q14 0 22.5 -9t8.5 -23q0 -15 -9 -24t-23 -9q-32 0 -32 32zM192 29q0 14 9 23.5t24 9.5q31 0 31 -32q0 -33 -32 -33t-32 32zM354 29q0 14 9 23.5t24 9.5q31 0 31 -32q0 -33 -32 -33t-32 32z" />
<glyph unicode="&#x202f;" horiz-adv-x="173" />
<glyph unicode="&#x2039;" horiz-adv-x="221" d="M34 220l2 14l171 167l22 -15v-8l-154 -154l117 -153l-2 -8l-26 -15z" />
<glyph unicode="&#x203a;" horiz-adv-x="221" d="M4 63l1 8l154 154l-117 153l2 8l26 15l130 -172l-2 -14l-171 -167z" />
<glyph unicode="&#x205f;" horiz-adv-x="216" />
<glyph unicode="&#x20ac;" horiz-adv-x="500" d="M14 167l7 28h75q2 44 9 86h-74l-2 4l6 29h78q27 89 87.5 136t150.5 47q78 0 133 -40l-13 -34l-7 -1q-48 39 -118 39q-145 0 -189 -147h202l3 -4l-6 -29h-208q-9 -42 -9 -86h206l2 -4l-6 -28h-200q14 -131 143 -131q76 0 143 45l7 -3l-8 -34q-73 -45 -148 -45 q-84 0 -130.5 43.5t-51.5 124.5h-79z" />
<glyph unicode="&#x2122;" horiz-adv-x="578" d="M77 615l5 23h173l2 -3l-5 -23l-44 2h-27l-18 -136l-7 -73h-31l10 70l17 139h-28l-45 -2zM277 405l55 233h37q6 -25 14 -52.5t18 -60.5t15 -52h2l75 131l16 34h36l-4 -233h-27l1 71l1 113h-3l-90 -157h-26l-48 157h-2l-27 -110l-16 -74h-27z" />
<glyph unicode="&#x25fc;" horiz-adv-x="460" d="M0 0v460h460v-460h-460z" />
</font>
</defs>
</svg>
