<?xml version="1.0" standalone="no"?>
<!DOCTYPE svg PUBLIC "-//W3C//DTD SVG 1.1//EN" "http://www.w3.org/Graphics/SVG/1.1/DTD/svg11.dtd" >
<svg xmlns="http://www.w3.org/2000/svg">
<metadata></metadata>
<defs>
<font id="alegreya_sansextrabold_italic" horiz-adv-x="471" >
<font-face units-per-em="1000" ascent="800" descent="-200" />
<missing-glyph horiz-adv-x="134" />
<glyph unicode="&#xa8;I" horiz-adv-x="304" d="M42 0l32 191l48 454h161l-63 -439l-19 -206h-159zM67 796q0 35 20 55t54 20q32 0 49.5 -18t17.5 -51q0 -35 -19.5 -55t-53.5 -20q-68 0 -68 69zM231 796q0 35 20 55t54 20q32 0 49.5 -18t17.5 -51q0 -35 -19.5 -55t-53.5 -20q-68 0 -68 69z" />
<glyph unicode="&#xa8;O" horiz-adv-x="642" d="M32 268q0 177 89.5 282t251.5 105q124 0 192 -69.5t68 -205.5q0 -177 -90 -284t-252 -107q-123 0 -191 71t-68 208zM197 269q0 -87 24.5 -123.5t85.5 -36.5q78 0 118 59.5t40 200.5q0 86 -24.5 122t-85.5 36q-79 0 -118.5 -58.5t-39.5 -199.5zM229 797q0 35 20 55t54 20 q31 0 49 -18.5t18 -50.5q0 -35 -19.5 -55t-53.5 -20q-68 0 -68 69zM411 797q0 35 19.5 54.5t54.5 19.5q32 0 49.5 -18t17.5 -50q0 -35 -19.5 -55.5t-53.5 -20.5q-68 0 -68 70z" />
<glyph unicode="&#xb4;Y" horiz-adv-x="563" d="M51 645h165l9 -48l65 -227h11l132 222l26 53h164l-278 -432l-6 -37l-14 -176h-159l30 176l3 39zM225 783q124 64 213 117l14 -4l40 -92l-5 -14q-87 -32 -223 -75l-15 4z" />
<glyph unicode="&#xa8;i" horiz-adv-x="245" d="M15 618q0 35 20 55t54 20q32 0 49.5 -18t17.5 -51q0 -35 -19.5 -55t-53.5 -20q-68 0 -68 69zM24 -4l49 358l4 108l143 10l-47 -358l-5 -108zM179 618q0 35 20 55t54 20q32 0 49.5 -18t17.5 -51q0 -35 -19.5 -55t-53.5 -20q-68 0 -68 69z" />
<glyph unicode="&#xa8;o" horiz-adv-x="449" d="M20 172q0 134 69.5 216.5t189.5 89.5l14 -1q136 -29 136 -172q0 -141 -69 -224.5t-189 -91.5l-14 2q-137 30 -137 181zM117 619q0 35 20 55t54 20q31 0 49 -18.5t18 -50.5q0 -35 -19.5 -55t-53.5 -20q-68 0 -68 69zM157 169q0 -39 9 -55t32 -16q51 0 71.5 47.5 t20.5 150.5q0 39 -8.5 54.5t-30.5 15.5q-53 0 -73.5 -47t-20.5 -150zM299 619q0 35 19.5 54.5t54.5 19.5q32 0 49.5 -18t17.5 -50q0 -35 -19.5 -55.5t-53.5 -20.5q-68 0 -68 70z" />
<glyph unicode="&#xb4;y" horiz-adv-x="458" d="M-71 -61l13 13q45 -14 84 -14q65 0 116 42l-103 483l144 9l9 -88l33 -230h16l50 113q29 66 29 110q0 32 -17 63l6 15l133 19q16 -38 16 -79q0 -65 -46 -154l-98 -186q-73 -139 -137.5 -195.5t-144.5 -56.5q-47 0 -96 17zM138 579q109 85 188 156l15 -1l55 -84l-3 -15 q-142 -82 -204 -115l-14 1z" />
<glyph unicode="&#xfb01;" horiz-adv-x="563" d="M35 383l10 75h71l3 25q30 220 240 220l128 -23l5 -9l-36 -104l-19 -6q-64 38 -101 38q-60 0 -73 -82l-8 -59h171l104 16l7 -7l-47 -353l-5 -108l-144 -10l49 358l1 20h-148q-22 -152 -51 -371l-4 -108l-145 -10l42 305l21 184h-64z" />
<glyph unicode="&#xfb02;" horiz-adv-x="566" d="M35 383l10 75h72l4 31q27 220 246 220l100 -12l106 7l-81 -590l-3 -108l-145 -10l81 589q-50 20 -85 20q-62 0 -76 -81l-9 -66h98l10 -12l-11 -72h-109q-22 -152 -51 -371l-4 -108l-144 -10l41 305l22 184h-65z" />
<glyph horiz-adv-x="1000" />
<glyph horiz-adv-x="1000" />
<glyph unicode="&#xd;" horiz-adv-x="1000" />
<glyph unicode=" "  horiz-adv-x="134" />
<glyph unicode="&#x09;" horiz-adv-x="134" />
<glyph unicode="&#xa0;" horiz-adv-x="134" />
<glyph unicode="!" horiz-adv-x="278" d="M44 70q0 39 22.5 62t60.5 23q37 0 56.5 -20.5t19.5 -57.5q0 -39 -22 -62t-60 -23q-37 0 -57 20.5t-20 57.5zM90 248l38 394l15 18l126 8l16 -19l-92 -404l-89 -13z" />
<glyph unicode="&#x22;" horiz-adv-x="383" d="M79 397l24 239l121 7l8 -10l-69 -234l-73 -12zM242 397l24 239l121 7l7 -10l-69 -234l-72 -12z" />
<glyph unicode="#" horiz-adv-x="563" d="M20 175l7 78h97l18 100h-81l-9 9l6 79h100l24 132h86l10 -11l-22 -121h97l24 132h87l10 -11l-22 -121h81l9 -10l-7 -78h-99l-18 -100h83l9 -9l-6 -79h-103l-24 -134h-89l-7 11l22 123h-97l-24 -134h-89l-8 11l22 123h-78zM222 253h97l18 100h-97z" />
<glyph unicode="$" horiz-adv-x="455" d="M9 20l35 133l15 10q32 -30 72.5 -48.5t71.5 -18.5q22 0 36.5 11.5t14.5 28.5t-20.5 30t-49 25t-57.5 27.5t-49.5 45t-20.5 70.5q0 65 44.5 113.5t122.5 63.5l15 133h75l13 -13l-14 -116q62 -5 112 -25l-35 -127l-22 -5q-62 48 -115 48q-22 0 -34.5 -10.5t-12.5 -26.5 q0 -17 20 -30t49 -25t58 -27.5t49 -45t20 -69.5q0 -58 -38 -107t-113 -67l-15 -134h-77l-10 11l13 115q-85 4 -153 30z" />
<glyph unicode="%" horiz-adv-x="874" d="M53 428q0 104 51.5 163.5t144.5 59.5q64 0 98 -37t34 -105q0 -106 -51 -165.5t-144 -59.5q-65 0 -99 37.5t-34 106.5zM116 -38l556 727l57 -38l7 -21l-555 -723l-61 40zM148 444q0 -69 56 -69q45 0 63 28.5t18 82.5q0 67 -58 67q-79 0 -79 -109zM513 137 q0 105 51.5 164.5t144.5 59.5q64 0 98 -37t34 -106q0 -105 -51 -164.5t-144 -59.5q-64 0 -98.5 37t-34.5 106zM609 152q0 -68 55 -68q45 0 63 28.5t18 82.5q0 68 -58 68q-78 0 -78 -111z" />
<glyph unicode="&#x26;" horiz-adv-x="646" d="M41 157q0 106 136 165v4q-74 52 -74 142q0 85 64.5 136.5t176.5 51.5q72 0 162 -30l-36 -114l-18 -5q-79 45 -134 45q-90 0 -90 -83q0 -90 83 -92l224 13l122 16l14 -15l-24 -98l-134 -4l-4 -6q20 -33 20 -84q0 -86 -67.5 -148t-195.5 -62q-105 0 -165 45t-60 123z M179 171q0 -41 27 -63.5t77 -22.5q63 0 96.5 31t33.5 87q0 53 -34 81l-122 -5q-78 -41 -78 -108z" />
<glyph unicode="'" horiz-adv-x="221" d="M79 397l24 239l121 7l8 -10l-69 -234l-73 -12z" />
<glyph unicode="(" horiz-adv-x="300" d="M57 150q0 68 9.5 133.5t32.5 136.5t67.5 134.5t107.5 105.5h14l50 -46l-2 -13q-45 -39 -77.5 -98.5t-48.5 -125.5t-22.5 -122.5t-6.5 -109.5q0 -149 72 -225l-2 -12l-61 -46h-14q-62 50 -90.5 119t-28.5 169z" />
<glyph unicode=")" horiz-adv-x="300" d="M-31 -92l2 12q45 39 77.5 99t48.5 126t22.5 122.5t6.5 109.5q0 148 -72 224l2 13l61 46h14q62 -50 90.5 -119t28.5 -170q0 -67 -9.5 -132.5t-32.5 -136.5t-68 -134.5t-108 -105.5h-13z" />
<glyph unicode="*" horiz-adv-x="387" d="M69 583q-2 41 11 85l11 3l105 -69l-8 -45l-10 -5zM86 443l1 10l97 81l40 -21l2 -10l-62 -98q-34 11 -78 38zM204 731q39 14 84 14l5 -9l-32 -124l-45 -5l-8 7zM244 505l32 30l11 -1l70 -92q-17 -27 -59 -61l-10 3zM271 593l5 10l107 40q24 -33 39 -76l-6 -7l-124 -8z" />
<glyph unicode="+" horiz-adv-x="477" d="M17 217l19 94h160l19 160l95 8l10 -10l-20 -158h157l9 -11l-19 -94h-160l-19 -160l-95 -8l-10 10l20 158h-158z" />
<glyph unicode="," horiz-adv-x="229" d="M-7 -78q56 47 56 102q0 37 -32 66v13q57 32 113 47q46 -39 46 -93q0 -97 -132 -189l-49 43z" />
<glyph unicode="-" horiz-adv-x="302" d="M22 194l11 96l242 36l10 -11l-11 -96l-242 -37z" />
<glyph unicode="." horiz-adv-x="230" d="M15 70q0 39 22.5 62t60.5 23q37 0 56.5 -20.5t19.5 -57.5q0 -39 -22 -62t-60 -23q-37 0 -57 20.5t-20 57.5z" />
<glyph unicode="/" horiz-adv-x="283" d="M-38 -104l262 785h105l11 -13l-262 -784h-107z" />
<glyph unicode="0" horiz-adv-x="522" d="M35 213q0 134 70.5 219t191.5 85q195 0 195 -223q0 -136 -70.5 -220t-191.5 -84q-95 0 -145 56t-50 167zM157 233q0 -56 21 -81.5t71 -25.5q120 0 120 140q0 57 -21.5 82t-71.5 25q-119 0 -119 -140z" />
<glyph unicode="1" horiz-adv-x="367" d="M18 320l15 125l255 70l21 -16l-44 -290l-19 -209h-157l30 193l18 145l-109 -26z" />
<glyph unicode="2" horiz-adv-x="478" d="M8 3l12 95l145 125q56 49 81 77.5t25 50.5q0 33 -45 33q-64 0 -137 -57h-17l-11 121q110 67 207 67q71 0 117 -32.5t46 -90.5q0 -40 -31 -84t-109 -120l-66 -65l3 -5h113l93 9l8 -10l-34 -124l-128 7h-228l-37 -3z" />
<glyph unicode="3" horiz-adv-x="439" d="M-8 -83l6 119l12 10q61 -22 112 -22q55 0 85 20t30 56q0 50 -68 51h-75l-6 10l17 107l55 2q31 1 59.5 24t28.5 54q0 43 -54 43q-48 0 -121 -42h-16l-9 110q95 58 185 58q79 0 128.5 -36t49.5 -93q0 -42 -29.5 -86t-82.5 -70v-5q45 -20 67 -47.5t22 -72.5 q0 -88 -77.5 -144.5t-200.5 -56.5q-66 0 -118 11z" />
<glyph unicode="4" horiz-adv-x="512" d="M-3 57l12 99l284 353h144l-45 -343h77l8 -13l-20 -109l-78 3l-9 -124l-10 -11l-122 -8l-7 10l21 134h-150l-97 -4zM145 166h125l21 169h-9z" />
<glyph unicode="5" horiz-adv-x="437" d="M-13 -84l6 117l11 11q62 -22 120 -22q54 0 85 23t31 62q0 50 -73 62l-103 18l-9 12l37 296l19 17l59 -3h152l109 6l7 -10l-29 -119l-12 -11l-97 12h-102l-13 -94l60 -13q145 -31 145 -147q0 -100 -81 -164.5t-204 -64.5q-56 0 -118 12z" />
<glyph unicode="6" horiz-adv-x="489" d="M24 192q0 120 86.5 228t251.5 177h8l96 -69l-2 -16q-187 -56 -256 -158l6 -9q46 22 82 22q73 0 117 -49.5t44 -117.5q0 -80 -59 -145.5t-170 -65.5q-97 0 -150.5 54.5t-53.5 148.5zM164 193q0 -51 15.5 -76t54.5 -25q42 0 61.5 26.5t19.5 67.5q0 72 -65 72q-40 0 -84 -26 q-2 -26 -2 -39z" />
<glyph unicode="7" horiz-adv-x="439" d="M31 -39l250 419h-143l-100 -10l-7 13l26 130l121 -4h217l52 2l-13 -114l-194 -333l-82 -163l-120 36z" />
<glyph unicode="8" horiz-adv-x="502" d="M29 136q0 54 31 88t92 58l1 7q-76 47 -76 130q0 79 58 128t154 49q84 0 132 -38t48 -103q0 -88 -102 -143l-1 -7q43 -25 65.5 -55.5t22.5 -79.5q0 -80 -60.5 -130t-160.5 -50q-95 0 -149.5 39.5t-54.5 106.5zM159 159q0 -66 77 -66q42 0 66.5 20t24.5 48t-21.5 45 t-65.5 35q-41 -15 -61 -33t-20 -49zM204 427q0 -28 18.5 -45t56.5 -32q66 38 66 85q0 55 -65 55q-35 0 -55.5 -17.5t-20.5 -45.5z" />
<glyph unicode="9" horiz-adv-x="489" d="M28 -20l2 16q187 56 256 158l-6 9q-46 -22 -82 -22q-73 0 -117 49.5t-44 117.5q0 80 59 145.5t170 65.5q97 0 150.5 -54.5t53.5 -148.5q0 -120 -86.5 -228t-251.5 -177h-8zM179 322q0 -72 65 -72q40 0 84 26q2 26 2 39q0 51 -15.5 76t-54.5 25q-42 0 -61.5 -26.5 t-19.5 -67.5z" />
<glyph unicode=":" horiz-adv-x="230" d="M16 70q0 39 22 62t61 23q36 0 56 -20.5t20 -57.5q0 -39 -22 -62t-60 -23q-37 0 -57 20.5t-20 57.5zM48 330q0 39 22.5 62t60.5 23q36 0 56 -20.5t20 -57.5q0 -39 -22 -61.5t-60 -22.5q-37 0 -57 20t-20 57z" />
<glyph unicode=";" horiz-adv-x="229" d="M-10 -78q55 48 55 102q0 37 -32 66l1 13q55 31 112 47q46 -39 46 -93q0 -97 -132 -189l-49 43zM43 330q0 39 22.5 62t60.5 23q36 0 56 -20.5t20 -57.5q0 -39 -22 -61.5t-60 -22.5q-37 0 -57 20t-20 57z" />
<glyph unicode="&#x3c;" horiz-adv-x="494" d="M32 196l15 125l12 14l387 139l22 -88l-8 -11l-311 -109l-1 -8l285 -105l-31 -87l-16 -10z" />
<glyph unicode="=" horiz-adv-x="478" d="M12 118l8 94h422l10 -11l-8 -94h-422zM36 315l8 94h422l10 -11l-8 -94h-422z" />
<glyph unicode="&#x3e;" horiz-adv-x="503" d="M46 153l311 105l1 8l-286 109l-4 11l43 88l353 -139l9 -14l-15 -125l-390 -140l-12 10z" />
<glyph unicode="?" horiz-adv-x="345" d="M63 70q0 39 22 62t61 23q36 0 56 -20.5t20 -57.5q0 -39 -22.5 -62t-60.5 -23q-37 0 -56.5 20.5t-19.5 57.5zM81 584l37 80l15 8q129 -7 197 -45.5t68 -105.5q0 -45 -29.5 -85t-82.5 -68l-72 -38l-2 -6l-4 -79l-110 -16l-10 11l5 129l7 10l93 43q62 29 62 74 q0 32 -38 49.5t-127 23.5z" />
<glyph unicode="@" horiz-adv-x="852" d="M25 184q0 199 125.5 329t328.5 130q162 0 259 -87.5t97 -238.5t-102 -233t-290 -84l19 138h-14q-47 -86 -101 -144h-20q-60 19 -85.5 58t-25.5 101q0 64 24 124t78 111t129 72h6l83 -18l82 21l11 -6l-47 -344v-8q70 13 111 68.5t41 138.5q0 111 -74 175t-199 60 q-150 -4 -242 -100.5t-92 -244.5q0 -156 103.5 -244t276.5 -88l5 -14l-41 -72q-204 2 -325 107t-121 293zM341 205q0 -80 24 -80q16 0 48.5 49.5t71.5 140.5l3 24l-63 19q-40 0 -62 -41.5t-22 -111.5z" />
<glyph unicode="A" horiz-adv-x="600" d="M-23 0l285 645h190l106 -645h-160l-5 92l-5 40l-113 2l-98 -3l-13 -30l-31 -101h-156zM227 252l72 -2l74 1l-32 248h-10z" />
<glyph unicode="B" horiz-adv-x="591" d="M43 0l32 191l48 454l240 1q95 0 149.5 -37t54.5 -108q0 -117 -116 -168q57 -21 82 -52.5t25 -82.5q0 -204 -324 -204q-75 0 -191 6zM207 108q50 -4 65 -4q59 0 92 25t33 70q0 55 -68 70l-104 -2l-9 -61zM240 376l84 -3q79 21 79 99q0 36 -22 50t-81 14l-37 -1z" />
<glyph unicode="C" horiz-adv-x="511" d="M32 260q0 186 92 290t260 104q93 0 166 -34l-43 -130l-13 -6q-54 40 -126 40q-166 0 -166 -238q0 -163 124 -163q73 0 141 35l12 -8l-29 -131q-72 -29 -145 -29q-132 0 -202.5 70.5t-70.5 199.5z" />
<glyph unicode="D" horiz-adv-x="651" d="M42 0l32 191l48 454l259 4q124 0 193 -66t69 -187q0 -190 -94.5 -297t-270.5 -107q-99 0 -235 8h-1zM212 121q56 -8 102 -8q161 0 161 259q0 79 -28 115.5t-86 36.5q-41 0 -96 -5l-46 -313z" />
<glyph unicode="E" horiz-adv-x="514" d="M42 0l31 191l49 454h422l8 -12l-26 -117l-152 5l-109 -1l-19 -132l104 -1l103 3l8 -11l-25 -117l-112 3l-96 -1l-8 -58l-8 -82l105 -1l159 6l7 -12l-24 -117h-417z" />
<glyph unicode="F" horiz-adv-x="458" d="M42 0l31 191l49 454h395l8 -12l-26 -118l-152 6l-82 -1l-22 -152l79 -1l111 3l8 -12l-25 -117l-120 3h-71l-5 -38l-19 -206h-159z" />
<glyph unicode="G" horiz-adv-x="590" d="M31 254q0 192 98 296t281 104q109 0 190 -35l-52 -143h-14q-85 50 -159 50q-90 0 -134 -60t-44 -208q0 -79 30.5 -112.5t99.5 -33.5q23 0 65 11l7 47l10 103l147 10l-13 -87l-20 -164q-113 -42 -215 -42q-135 0 -206 69t-71 195z" />
<glyph unicode="H" horiz-adv-x="692" d="M42 0l32 191l48 454h161l-38 -257l121 -3l117 2l27 258h162l-64 -439l-19 -206h-159l33 191l7 66l-129 2l-115 -3l-7 -50l-18 -206h-159z" />
<glyph unicode="I" horiz-adv-x="304" d="M42 0l32 191l48 454h161l-64 -439l-18 -206h-159z" />
<glyph unicode="J" horiz-adv-x="342" d="M-22 -25l1 13q61 30 87.5 60t32.5 78q10 78 26.5 230t18.5 174l-95 -2l-9 11l20 106h257l-63 -432l-8 -91q-12 -88 -63.5 -139.5t-169.5 -90.5z" />
<glyph unicode="K" horiz-adv-x="593" d="M41 0l33 191l48 454h161l-42 -290l182 225l44 65h170l-247 -312q76 -138 190 -300l-5 -17q-82 -20 -160 -27l-16 10q-99 181 -164 320l-16 -113l-19 -206h-159z" />
<glyph unicode="L" horiz-adv-x="434" d="M38 0l32 191l48 454h161l-63 -439l-7 -75h203l7 -12l-25 -119h-356z" />
<glyph unicode="M" horiz-adv-x="788" d="M8 0l143 645h183l12 -94l47 -280h10l123 277l38 97h180l-25 -645h-141l17 196l9 217h-10l-170 -348h-121l-69 348h-10l-45 -203l-38 -210h-133z" />
<glyph unicode="N" horiz-adv-x="691" d="M42 0l32 190l48 455h171l177 -404h10l45 398l148 9l-65 -445l-18 -203h-172l-176 404h-10l-23 -178l-22 -226h-145z" />
<glyph unicode="O" horiz-adv-x="642" d="M32 268q0 177 89.5 282t251.5 105q124 0 192 -69.5t68 -205.5q0 -177 -90 -284t-252 -107q-123 0 -191 71t-68 208zM197 269q0 -87 24.5 -123.5t85.5 -36.5q78 0 118 59t40 201q0 86 -24.5 122t-85.5 36q-78 0 -118 -58.5t-40 -199.5z" />
<glyph unicode="P" horiz-adv-x="561" d="M42 0l32 191l48 454l256 1q94 0 147 -45t53 -129q0 -121 -81 -197.5t-214 -76.5h-64l-18 -198h-159zM236 316l86 -4q88 30 88 135q0 42 -21 62.5t-68 22.5l-55 -3z" />
<glyph unicode="Q" horiz-adv-x="644" d="M32 268q0 177 90 282t253 105q124 0 191 -69t67 -206q0 -127 -48 -220t-137 -137q113 -71 242 -106l4 -16q-36 -61 -84 -101l-12 -5q-171 73 -300 194h-9q-123 0 -190 71t-67 208zM197 269q0 -87 24.5 -123.5t85.5 -36.5q78 0 118 59t40 201q0 86 -24.5 122t-85.5 36 q-78 0 -118 -58.5t-40 -199.5z" />
<glyph unicode="R" horiz-adv-x="596" d="M42 0l32 191l48 454l257 1q94 0 147 -43.5t53 -123.5q0 -71 -36.5 -129.5t-102.5 -96.5q56 -109 120 -216l-3 -17q-79 -25 -161 -31l-14 13q-49 120 -78 207h-85v-3l-18 -206h-159zM237 328l87 -4q86 32 86 129q0 75 -89 79l-55 -3z" />
<glyph unicode="S" horiz-adv-x="502" d="M4 30l39 143l17 9q38 -35 85 -54t83 -19q39 0 60 17.5t21 42.5t-25 46t-60 38.5t-70.5 39t-60.5 58t-25 85.5q0 93 75.5 156t189.5 63q87 0 171 -34l-41 -133l-24 -10q-72 53 -134 53q-35 0 -56 -17t-21 -41q0 -23 25 -43.5t60.5 -38.5t71.5 -40t61 -59t25 -85 q0 -91 -76 -154t-194 -63q-99 0 -197 40z" />
<glyph unicode="T" horiz-adv-x="501" d="M49 528l24 117h459l7 -12l-24 -117l-122 6h-28l-44 -316l-19 -206h-159l33 191l36 331h-29l-126 -6z" />
<glyph unicode="U" horiz-adv-x="634" d="M53 176q0 22 3 47l14 97l36 325h158l-56 -401q-2 -24 -2 -33q0 -32 10 -52.5t31 -30.5t54 -10q58 0 88.5 29.5t37.5 92.5l43 405h160q-6 -47 -18 -132t-21.5 -155t-17.5 -132q-14 -114 -86 -175t-199 -61q-111 0 -173 48.5t-62 137.5z" />
<glyph unicode="V" horiz-adv-x="588" d="M58 645h161l5 -93l53 -407h9l167 398l31 102h155l-284 -645h-190z" />
<glyph unicode="W" horiz-adv-x="892" d="M69 645h155l-1 -87l43 -396h10l134 329l-22 154h162l1 -103l49 -380h9l155 387l29 96h147l-280 -645h-167l-46 281h-9l-114 -281h-169z" />
<glyph unicode="X" horiz-adv-x="610" d="M-19 0l235 324l-154 321h187l23 -71l65 -137l105 145l36 63h166l-225 -314l154 -331h-186l-22 70l-69 144l-116 -153l-37 -61h-162z" />
<glyph unicode="Y" horiz-adv-x="563" d="M51 645h165l8 -48l66 -227h10l133 222l26 53h164l-278 -432l-6 -37l-15 -176h-158l30 176l3 39z" />
<glyph unicode="Z" horiz-adv-x="547" d="M0 -5l14 114l352 416h-182l-112 -9l-5 7l27 124l135 -2h269l67 1l-15 -115l-348 -412h191l113 9l4 -8l-27 -124l-156 4h-241z" />
<glyph unicode="[" horiz-adv-x="298" d="M26 -115l55 377l38 376l223 10l6 -8l-9 -69l-105 -14l-72 -591l101 -14l-9 -70l-7 -7z" />
<glyph unicode="\" horiz-adv-x="392" d="M44 668l12 13h105l207 -785l-10 -12h-107z" />
<glyph unicode="]" horiz-adv-x="298" d="M-43 -117l9 69l104 14l72 592l-100 13l8 70l8 7l220 -10l-54 -376l-38 -377l-224 -10z" />
<glyph unicode="^" horiz-adv-x="448" d="M4 144l182 346l15 8h125l97 -346l-12 -14l-89 -20l-71 273h-8l-142 -273l-13 -7z" />
<glyph unicode="_" horiz-adv-x="442" d="M-65 -176l18 86h455l8 -10l-18 -87h-455z" />
<glyph unicode="`" horiz-adv-x="390" d="M112 650l56 84l14 1q89 -79 188 -156l-36 -58l-14 -1q-77 42 -205 115z" />
<glyph unicode="a" d="M16 155q0 66 24.5 128.5t80.5 115.5t134 75h6l86 -19l88 23l10 -7l-48 -357l-4 -108l-144 -10l19 139h-14q-46 -85 -101 -145h-20q-64 20 -90.5 60.5t-26.5 104.5zM149 211q0 -83 24 -83q17 0 49 51t72 147l3 20l-66 20q-39 0 -60.5 -42t-21.5 -113z" />
<glyph unicode="b" horiz-adv-x="473" d="M29 24l77 563l3 107l144 10l-51 -377h14q50 89 103 147h21q62 -20 89 -60t27 -105q0 -105 -61.5 -196.5t-173.5 -122.5h-6q-87 17 -186 34zM175 116l70 -18q37 0 58 43.5t21 113.5q0 85 -23 85q-17 0 -50 -50.5t-73 -142.5z" />
<glyph unicode="c" horiz-adv-x="363" d="M18 174q0 129 67.5 215.5t198.5 86.5l81 -25l4 -15l-41 -108l-31 -1q-17 21 -29.5 29.5t-29.5 8.5q-82 0 -82 -163q0 -47 10 -67.5t33 -20.5q35 0 74 70l19 -1l46 -58q-32 -55 -68 -85.5t-88 -48.5h-20q-77 12 -110.5 55.5t-33.5 127.5z" />
<glyph unicode="d" d="M15 154q0 104 62.5 196t179.5 124h6l49 -11l17 124l3 107l145 10l-80 -590l-4 -108l-145 -10l19 140h-11q-47 -83 -104 -146h-20q-64 20 -90.5 60.5t-26.5 103.5zM147 209q0 -82 24 -82q17 0 49.5 48.5t71.5 139.5l4 32l-64 19q-41 0 -63 -42.5t-22 -114.5z" />
<glyph unicode="e" horiz-adv-x="416" d="M19 173q0 132 70 215.5t188 89.5l14 -1q109 -21 109 -116q0 -60 -57.5 -104.5t-186.5 -79.5q4 -40 17 -57t39 -17q58 0 101 73l19 -3l46 -60q-74 -94 -176 -123h-15q-168 18 -168 183zM156 262q61 16 89 37t28 53t-33 32q-72 0 -84 -122z" />
<glyph unicode="f" horiz-adv-x="318" d="M35 383l10 75h72l3 25q26 220 237 220l107 -15l7 -11l-39 -99l-19 -6q-48 27 -82 27q-56 0 -68 -82l-8 -59h98l10 -12l-11 -72h-109q-22 -152 -51 -371l-4 -108l-144 -10l41 305l22 184h-65z" />
<glyph unicode="g" horiz-adv-x="468" d="M-53 -39l4 11l134 64l1 11q-52 40 -52 128q0 102 59.5 186t168.5 113h5l82 -19l83 23l11 -7l-48 -347l-4 -78q-15 -115 -87 -179t-171 -64q-81 0 -128 43t-58 115zM95 -44q0 -20 16.5 -35.5t47.5 -15.5q39 0 65 25.5t31 74.5l21 151h-13q-45 -80 -106 -137l-48 -38 q-14 -11 -14 -25zM157 224q0 -80 24 -80q15 0 47.5 48t70.5 135l4 27l-63 19q-40 0 -61.5 -40t-21.5 -109z" />
<glyph unicode="h" horiz-adv-x="508" d="M25 -4l81 591l3 107l145 10l-54 -394h14q66 100 133 160l12 1q54 -10 85.5 -37t30.5 -66q-7 -50 -21.5 -139.5t-18.5 -113.5l-5 -109l-147 -10l46 290l2 11q0 23 -17 23q-21 0 -56.5 -42.5t-79.5 -124.5l-5 -39l-3 -108z" />
<glyph unicode="i" horiz-adv-x="245" d="M24 -4l49 358l4 108l143 10l-47 -358l-5 -108zM89 623q0 39 22.5 62t60.5 23q36 0 56 -20.5t20 -57.5q0 -39 -22 -62t-60 -23q-37 0 -57 20.5t-20 57.5z" />
<glyph unicode="j" horiz-adv-x="268" d="M-49 -130l2 14q82 45 94 138l45 329v23h-67l-7 9l11 75h71l137 13l4 -4l-50 -352l-8 -86q-10 -79 -53.5 -131.5t-132.5 -92.5zM96 623q0 39 22.5 62t60.5 23q36 0 56 -20.5t20 -57.5q0 -39 -22 -62t-60 -23q-37 0 -57 20.5t-20 57.5z" />
<glyph unicode="k" horiz-adv-x="515" d="M25 -4l81 591l3 107l145 10l-54 -391h15q77 103 145 157l13 1q117 -22 117 -117q0 -93 -119 -173q42 -83 91 -165l-7 -11l-121 -17l-14 7q-46 96 -75 178l5 19q94 59 94 109q0 21 -17 21q-25 0 -63.5 -42.5t-85.5 -128.5l-5 -37l-3 -108z" />
<glyph unicode="l" horiz-adv-x="247" d="M25 -4l81 591l3 107l145 10l-81 -590l-3 -108z" />
<glyph unicode="m" horiz-adv-x="771" d="M24 -4l50 358l4 108l143 10l-22 -162h14q67 102 132 160l13 1q35 -7 61 -21t40 -35t14 -47l-1 -13l-7 -45h12q64 99 132 160l12 1q54 -10 85.5 -37t30.5 -66q-7 -50 -21.5 -139.5t-18.5 -113.5l-4 -109l-148 -10l47 290l1 11q0 23 -17 23q-47 0 -137 -170l-6 -35l-4 -109 l-148 -10l47 290l1 11q0 23 -17 23q-44 0 -133 -163l-6 -43l-4 -108z" />
<glyph unicode="n" horiz-adv-x="506" d="M24 -4l50 358l4 108l143 10l-22 -162h13q66 100 133 160l12 1q32 -7 58 -20.5t42 -35t16 -47.5q-7 -50 -21.5 -139.5t-18.5 -113.5l-5 -109l-148 -10l48 290l1 11q0 23 -17 23q-46 0 -133 -163l-6 -43l-4 -108z" />
<glyph unicode="o" horiz-adv-x="449" d="M20 172q0 134 69.5 216.5t189.5 89.5l14 -1q136 -29 136 -172q0 -141 -69 -224.5t-189 -91.5l-14 2q-137 30 -137 181zM157 169q0 -39 9 -55t32 -16q51 0 71.5 47.5t20.5 150.5q0 39 -8.5 54.5t-30.5 15.5q-53 0 -73.5 -47t-20.5 -150z" />
<glyph unicode="p" horiz-adv-x="472" d="M-1 -195l75 549l4 108l143 10l-19 -145h15q51 90 104 147h20q62 -20 89 -60t27 -105q0 -104 -62 -196t-174 -123h-6l-57 11l-10 -77l-4 -109zM174 117l72 -19q37 0 58 43.5t21 113.5q0 85 -23 85q-18 0 -51 -52t-74 -148z" />
<glyph unicode="q" horiz-adv-x="472" d="M15 154q0 104 62.5 196t178.5 124h6l86 -19l88 23l10 -7l-73 -548l-4 -108l-145 -10l45 331h-14q-49 -86 -103 -146h-20q-64 20 -90.5 60.5t-26.5 103.5zM147 209q0 -82 24 -82q18 0 51 51.5t73 147.5l3 21l-66 19q-41 0 -63 -42.5t-22 -114.5z" />
<glyph unicode="r" horiz-adv-x="366" d="M25 -4l49 358l4 108l144 10l-21 -155h14q59 99 139 154l28 -4l-24 -180l-13 -6l-26 5q-39 -4 -69.5 -28.5t-67.5 -85.5l-8 -58l-4 -108z" />
<glyph unicode="s" horiz-adv-x="362" d="M-10 19l34 122l16 8q25 -31 57 -49t58 -18q20 0 31 11t11 25q0 18 -25.5 37t-55.5 35t-55 47.5t-24 70.5q1 76 63.5 122t149.5 45q56 -7 109 -25l-35 -116l-20 -7q-50 53 -97 53q-17 0 -28 -10.5t-11 -25.5q0 -18 24.5 -36t54.5 -33t54.5 -47t24.5 -74q0 -71 -60 -117.5 t-150 -46.5q-68 8 -126 29z" />
<glyph unicode="t" horiz-adv-x="351" d="M33 383l9 75h70l10 100l138 37l11 -8l-20 -129h105l11 -12l-10 -72h-119l-35 -223l-1 -12q0 -16 16 -16q21 0 51 45l19 -1l41 -52q-54 -77 -120 -122l-16 -1q-66 8 -97 32t-32 74q6 52 20.5 144.5t17.5 114.5l2 17h-63z" />
<glyph unicode="u" horiz-adv-x="499" d="M30 97q7 50 21.5 141t18.5 114l5 110l146 9l-45 -286l-1 -16q-1 -24 18 -24q40 0 125 154l7 55l4 108l144 10l-48 -358l-4 -108l-144 -10l21 155h-11q-65 -99 -127 -154l-12 -1q-54 8 -86 35t-32 66z" />
<glyph unicode="v" horiz-adv-x="450" d="M45 463l144 9l1 -88l14 -235h12l68 137q28 56 28 94q0 29 -17 60l6 15l133 19q16 -38 16 -79q0 -61 -45 -145l-140 -250h-164z" />
<glyph unicode="w" horiz-adv-x="723" d="M45 463l142 9v-79l12 -231h12l86 222l26 84h153l1 -75l13 -231h12l57 124q28 61 28 94q0 29 -17 60l6 15l133 19q16 -38 16 -79q0 -58 -45 -145l-130 -250h-158l-20 274h-12l-104 -274h-158z" />
<glyph unicode="x" horiz-adv-x="482" d="M-21 0l165 241l-94 222l156 13l13 -51l38 -91l58 87l23 47h152l-163 -235l107 -229l-161 -12l-14 63l-36 93l-61 -90l-26 -58h-157z" />
<glyph unicode="y" horiz-adv-x="458" d="M-71 -61l13 13q45 -14 84 -14q65 0 116 42l-103 483l144 9l9 -88l33 -230h16l50 113q29 66 29 110q0 32 -17 63l6 15l133 19q16 -38 16 -79q0 -65 -46 -154l-98 -186q-73 -139 -137.5 -195.5t-144.5 -56.5q-47 0 -96 17z" />
<glyph unicode="z" horiz-adv-x="433" d="M-23 33l244 315l-90 -2l-76 -13l-11 10l25 126l14 9l91 -7l175 -5l35 20l42 -41l-252 -321l27 7q5 0 28 -4t29 -4q33 0 47.5 16t19.5 65l18 7l59 -19q-4 -202 -143 -202q-34 0 -86.5 16.5t-73.5 16.5q-29 0 -62 -30h-17z" />
<glyph unicode="{" horiz-adv-x="298" d="M30 236l8 71q75 23 75 94q0 14 -3 50.5t-3 56.5q0 74 41.5 112t119.5 38q34 0 69 -11l4 -10l-21 -78q-20 5 -34 5q-60 0 -60 -72q0 -15 5 -49.5t5 -50.5q0 -81 -82 -117l-1 -6q57 -29 57 -90q0 -26 -21 -77.5t-21 -74.5q0 -47 46 -47q13 0 35 5l3 -78l-7 -11 q-34 -10 -72 -10q-63 0 -96.5 27t-33.5 77q0 37 21 97.5t21 81.5q0 49 -55 67z" />
<glyph unicode="|" horiz-adv-x="305" d="M34 -245l129 1042l109 9l10 -11q-66 -493 -131 -1045l-107 -8z" />
<glyph unicode="}" horiz-adv-x="298" d="M-34 -93l22 78q20 -5 34 -5q59 0 59 71q0 15 -5 50t-5 51q0 81 82 117l1 6q-57 29 -57 90q0 26 21 77.5t21 74.5q0 47 -45 47q-14 0 -36 -5l-3 78l8 10q38 11 71 11q64 0 97 -27.5t33 -76.5q0 -37 -20.5 -98t-20.5 -81q0 -49 55 -67l-9 -71q-74 -24 -74 -94 q0 -13 2.5 -50t2.5 -57q0 -74 -41.5 -112t-119.5 -38q-31 0 -68 10z" />
<glyph unicode="~" horiz-adv-x="480" d="M20 221l1 13l99 100l14 7q25 -4 105.5 -29.5t98.5 -25.5q5 0 10 1.5t11 5t10 6.5t11.5 9.5t11.5 10t13.5 12.5t13.5 13h14l33 -51l-1 -13l-97 -101l-15 -5q-27 4 -107 29t-97 25q-5 0 -10 -1.5t-11 -5t-10.5 -6.5t-12 -9.5t-11.5 -10.5t-13 -12.5t-13 -12.5h-13z" />
<glyph unicode="&#xa1;" horiz-adv-x="278" d="M1 -178l92 404l89 13l14 -16l-38 -394l-15 -18l-126 -8zM83 394q0 39 22 62t60 23q37 0 57 -20.5t20 -57.5q0 -39 -22.5 -62t-60.5 -23q-37 0 -56.5 20.5t-19.5 57.5z" />
<glyph unicode="&#xa2;" horiz-adv-x="387" d="M23 217q0 105 47.5 183t140.5 103l23 154h75l12 -12l-20 -134l75 -22l6 -14l-35 -96l-29 -1q-34 35 -65 35q-52 0 -79 -44t-27 -127q0 -100 55 -100q44 0 89 74l17 -1l43 -53q-51 -83 -122 -115l-26 -171h-77l-9 11l22 151q-60 16 -88 58.5t-28 120.5z" />
<glyph unicode="&#xa3;" horiz-adv-x="460" d="M-10 8l16 85q76 17 85 96l9 75h-73l-3 7l15 76h71l7 58q10 92 72.5 141.5t167.5 49.5q55 0 115 -15l-20 -109l-11 -7q-61 32 -108 32q-69 0 -78 -68l-11 -82h126l4 -8l-16 -75h-125l-9 -66q-4 -34 -15.5 -54t-34.5 -37v-4h136l104 8l4 -8l-23 -107l-135 4h-265z" />
<glyph unicode="&#xa4;" horiz-adv-x="435" d="M-1 196l3 14l76 60q-12 26 -12 60q0 47 28 87l-63 58v14l76 70h13l53 -70q36 19 77 19q37 0 66 -17l68 71l15 2l62 -67l-2 -14l-77 -61q12 -27 12 -61q0 -41 -27 -85l63 -57l1 -14l-76 -71h-13l-52 70q-39 -22 -80 -22q-37 0 -69 19l-65 -70l-15 -1zM148 336 q0 -32 19 -51.5t53 -19.5q40 0 66 25.5t26 65.5q0 32 -19.5 51t-52.5 19q-40 0 -66 -25t-26 -65z" />
<glyph unicode="&#xa5;" horiz-adv-x="565" d="M23 114l11 63h163l-27 68h-126l-4 8l12 62h91l-76 191h141l9 -39l65 -170h8l118 166l23 43h137l-132 -191h97l5 -6l-13 -64h-137l-47 -68h174l6 -7l-12 -63h-188l-9 -107h-134l19 107h-170z" />
<glyph unicode="&#xa6;" horiz-adv-x="305" d="M34 -245l49 394l105 12l11 -14l-48 -397l-106 -8zM111 375l52 422l109 9l10 -11l-54 -416l-108 -14z" />
<glyph unicode="&#xa7;" horiz-adv-x="450" d="M-4 -68l31 113l14 9q30 -27 67 -43.5t67 -16.5q28 0 44.5 13t16.5 29q0 19 -32 39.5t-70 38t-70 53t-32 80.5q0 47 30.5 88.5t82.5 66.5q-45 38 -45 90q0 67 62 114.5t151 47.5q70 0 129 -24l-29 -109l-18 -5q-62 42 -110 42q-25 0 -41 -13t-16 -28q0 -19 32 -39 t70 -37.5t70 -53t32 -80.5q0 -47 -31 -87.5t-83 -64.5q47 -40 47 -92q0 -67 -62 -114t-152 -47q-80 0 -155 30zM162 285q0 -17 13.5 -33t27 -25t42.5 -25q57 27 57 67q0 17 -13.5 33.5t-26.5 25t-42 25.5q-58 -29 -58 -68z" />
<glyph unicode="&#xa8;" horiz-adv-x="390" d="M81 619q0 35 20 55t54 20q31 0 49 -18.5t18 -50.5q0 -35 -19.5 -55t-53.5 -20q-68 0 -68 69zM263 619q0 35 19.5 54.5t54.5 19.5q32 0 49.5 -18t17.5 -50q0 -35 -19.5 -55.5t-53.5 -20.5q-68 0 -68 70z" />
<glyph unicode="&#xa9;" horiz-adv-x="694" d="M53 293q0 137 82.5 221t218.5 84t218.5 -84t82.5 -221t-82.5 -221t-218.5 -84t-218.5 84t-82.5 221zM105 293q0 -114 68.5 -183.5t180.5 -69.5t180.5 69.5t68.5 183.5t-68.5 183.5t-180.5 69.5t-180.5 -69.5t-68.5 -183.5zM202 293q0 81 46 126t131 45q43 0 87 -13 l-19 -81l-6 -4q-32 15 -66 15q-35 0 -50.5 -17.5t-15.5 -59.5q0 -92 71 -92q35 0 68 10l8 -4l-8 -81q-32 -9 -75 -9q-171 0 -171 165z" />
<glyph unicode="&#xaa;" horiz-adv-x="329" d="M45 429q0 73 42 135t121 83h5l61 -10l58 13l8 -5l-33 -243l-4 -74l-94 -6l14 107h-10q-37 -71 -75 -110h-13q-45 14 -62.5 40t-17.5 70zM133 466q0 -62 18 -62q10 0 34.5 37t52.5 102l3 22v4l-46 10q-29 -1 -45.5 -31.5t-16.5 -81.5z" />
<glyph unicode="&#xab;" horiz-adv-x="443" d="M31 221l3 23l154 174l68 -38l1 -14l-112 -137l78 -137l-4 -14l-78 -39zM223 221l3 23l154 174l68 -38l1 -14l-112 -137l78 -137l-4 -14l-78 -39z" />
<glyph unicode="&#xac;" horiz-adv-x="480" d="M18 217l19 94h401l5 -9l-31 -256l-95 -8l-10 10l20 158h-300z" />
<glyph unicode="&#xad;" horiz-adv-x="302" d="M22 194l11 96l242 36l10 -11l-11 -96l-242 -37z" />
<glyph unicode="&#xae;" horiz-adv-x="449" d="M36 515q0 84 52 136t136 52q85 0 137 -52t52 -136q0 -85 -51.5 -137t-137.5 -52q-84 0 -136 52t-52 137zM73 515q0 -69 42 -111t110 -42t110 42t42 111q0 68 -42 109.5t-110 41.5t-110 -41.5t-42 -109.5zM149 423l2 57l-2 138l90 1q71 0 71 -61q0 -37 -37 -59 q39 -51 50 -64l-1 -6q-16 -6 -53 -10l-7 5q-18 30 -33 60h-29l3 -61h-54zM201 524l30 -2q23 11 23 31q0 25 -34 26l-17 -1z" />
<glyph unicode="&#xaf;" horiz-adv-x="390" d="M95 585l7 86h279l10 -10l-8 -86h-279z" />
<glyph unicode="&#xb0;" horiz-adv-x="293" d="M49 510q0 59 44.5 102t104.5 43q51 0 84 -34t33 -84q0 -59 -44.5 -102t-104.5 -43q-51 0 -84 34t-33 84zM115 516q0 -26 16.5 -42.5t42.5 -16.5q31 0 53 21.5t22 52.5q0 26 -16.5 42.5t-42.5 16.5q-32 0 -53.5 -21.5t-21.5 -52.5z" />
<glyph unicode="&#xb1;" horiz-adv-x="478" d="M-18 -116l8 94h422l10 -11l-8 -93h-422zM17 217l19 94h160l20 160l94 8l10 -10l-19 -158h156l10 -11l-20 -94h-159l-20 -160l-94 -8l-10 10l20 158h-159z" />
<glyph unicode="&#xb2;" horiz-adv-x="366" d="M32 315l9 69l105 97q30 29 43.5 43t25 31t11.5 29q0 25 -32 25q-46 0 -99 -43h-13l-10 88q88 51 161 51q51 0 84.5 -23.5t33.5 -64.5q0 -31 -22.5 -66t-76.5 -91l-54 -56l2 -2h80l70 5l5 -8l-24 -92l-98 5h-169l-26 -2z" />
<glyph unicode="&#xb3;" horiz-adv-x="327" d="M43 313l3 84l9 7q43 -12 79 -12q75 0 75 41q0 28 -41 28h-55l-5 7l11 78l32 1q25 1 43 13t18 30q0 25 -36 25q-31 0 -81 -24h-12l-10 78q69 37 137 37q57 0 92 -24t35 -64q0 -64 -73 -98l-1 -4q61 -19 61 -79q0 -59 -56 -95.5t-146 -36.5q-42 0 -79 8z" />
<glyph unicode="&#xb4;" horiz-adv-x="390" d="M112 579q109 85 188 156l15 -1l55 -84l-3 -15q-142 -82 -204 -115l-14 1z" />
<glyph unicode="&#xb5;" horiz-adv-x="508" d="M1 -194l74 548l4 108l142 9l-40 -300v-2q-3 -26 18 -26q43 0 130 163l7 48l4 108l142 9l-48 -357l-4 -108l-143 -10l21 157h-12q-65 -100 -129 -156l-9 -1l-10 -71l-4 -109z" />
<glyph unicode="&#xb6;" horiz-adv-x="538" d="M42 400q0 115 76.5 180t211.5 65h234l9 -11l-24 -108h-64l-46 -324l-6 -63q-10 -81 -62 -133.5t-172 -94.5l-32 71l2 14q57 29 84 60t33 77q9 77 24.5 220.5t18.5 173.5h-41q-37 -9 -58 -41.5t-21 -80.5q0 -78 61 -122l-64 -79q-79 20 -121.5 71t-42.5 125z" />
<glyph unicode="&#xb7;" horiz-adv-x="230" d="M38 252q0 39 22.5 61.5t60.5 22.5q36 0 56 -20t20 -57q0 -39 -22 -62t-60 -23q-77 0 -77 78z" />
<glyph unicode="&#xb8;" horiz-adv-x="390" d="M55 -177l10 63l7 2q31 -29 58 -29q22 0 22 19q0 10 -15 18l-50 28l23 104h71l-17 -74l34 -19q42 -24 42 -61q0 -34 -27 -56t-73 -22t-85 27z" />
<glyph unicode="&#xb9;" horiz-adv-x="283" d="M48 565l11 92l196 49l15 -12l-35 -244l-12 -138h-122l20 127l17 136l-83 -15z" />
<glyph unicode="&#xba;" horiz-adv-x="314" d="M46 441q0 92 47.5 148.5t128.5 60.5l10 -1q93 -18 93 -115t-47 -154t-130 -62l-8 2q-94 16 -94 121zM137 440q0 -30 6.5 -42t23.5 -12q36 0 51.5 34.5t15.5 106.5q0 29 -6 41t-22 12q-37 0 -53 -34.5t-16 -105.5z" />
<glyph unicode="&#xbb;" horiz-adv-x="441" d="M-5 94l112 137l-79 137l5 14l77 39l111 -182l-4 -23l-153 -174l-68 38zM187 94l112 137l-79 137l5 14l78 39l110 -182l-3 -23l-154 -174l-68 38z" />
<glyph unicode="&#xbc;" horiz-adv-x="765" d="M37 -38l556 727l57 -38l6 -21l-554 -723l-61 40zM42 510l11 92l196 49l15 -12l-35 -244l-12 -138h-122l20 127l17 136l-83 -15zM392 89l8 72l194 227h111l-30 -219h52l5 -10l-15 -79l-50 1l-4 -73l-8 -8l-95 -5l-5 7l12 80h-97l-72 -2zM504 169h76l11 94h-7z" />
<glyph unicode="&#xbd;" horiz-adv-x="794" d="M37 -38l556 727l57 -38l6 -21l-554 -723l-61 40zM42 510l11 92l196 49l15 -12l-35 -244l-12 -138h-122l20 127l17 136l-83 -15zM430 3l9 69l105 97q30 29 43.5 43t25 31t11.5 29q0 25 -32 25q-46 0 -99 -43h-13l-10 88q88 51 161 51q51 0 84.5 -23.5t33.5 -64.5 q0 -31 -22.5 -66t-76.5 -91l-54 -56l2 -2h80l70 5l5 -8l-24 -92l-98 5h-169l-26 -2z" />
<glyph unicode="&#xbe;" horiz-adv-x="805" d="M34 258l3 84l9 7q43 -12 79 -12q75 0 75 41q0 28 -41 28h-55l-5 7l11 78l32 1q25 1 43 13t18 30q0 25 -36 25q-31 0 -81 -24h-12l-10 78q69 37 137 37q57 0 92 -24t35 -64q0 -64 -73 -98l-1 -4q61 -19 61 -79q0 -59 -56 -95.5t-146 -36.5q-42 0 -79 8zM77 -38l556 727 l57 -38l6 -21l-554 -723l-61 40zM432 89l8 72l194 227h111l-30 -219h52l5 -10l-15 -79l-50 1l-4 -73l-8 -8l-95 -5l-5 7l12 80h-97l-72 -2zM544 169h76l11 94h-7z" />
<glyph unicode="&#xbf;" horiz-adv-x="344" d="M-48 -50q0 45 29.5 85t82.5 68l72 38l2 6l4 79l110 16l10 -11l-5 -129l-7 -10l-93 -43q-62 -29 -62 -74q0 -32 38 -49.5t127 -23.5l9 -15l-37 -80l-15 -8q-129 7 -197 45.5t-68 105.5zM128 394q0 39 22.5 62t60.5 23q37 0 56.5 -20.5t19.5 -57.5q0 -39 -22 -62t-61 -23 q-36 0 -56 20.5t-20 57.5z" />
<glyph unicode="&#xc0;" horiz-adv-x="600" d="M-22 0l285 645h190l106 -645h-161l-5 92l-5 40l-113 2l-98 -3l-13 -30l-30 -101h-156zM228 252l71 -2l74 1l-31 248h-10zM239 805l39 92l14 4q90 -54 214 -116l-25 -65l-14 -4q-132 42 -223 75z" />
<glyph unicode="&#xc1;" horiz-adv-x="600" d="M-22 0l285 645h190l106 -645h-161l-5 92l-5 40l-113 2l-98 -3l-13 -30l-30 -101h-156zM228 252l71 -2l74 1l-31 248h-10zM245 783q124 64 213 117l14 -4l40 -92l-5 -14q-87 -32 -223 -75l-15 4z" />
<glyph unicode="&#xc2;" horiz-adv-x="600" d="M-22 0l285 645h190l106 -645h-161l-5 92l-5 40l-113 2l-98 -3l-13 -30l-30 -101h-156zM217 786q82 54 148 109h30q53 -50 133 -109l-35 -61h-15l-103 62q-21 -11 -62.5 -32t-59.5 -30h-15zM228 252l71 -2l74 1l-31 248h-10z" />
<glyph unicode="&#xc3;" horiz-adv-x="600" d="M-22 0l285 645h190l106 -645h-161l-5 92l-5 40l-113 2l-98 -3l-13 -30l-30 -101h-156zM189 759v13l74 97l14 5q25 -3 83 -18.5t71 -15.5q5 0 9 1.5t9.5 5t8.5 6t9.5 9t9 9.5t10 11.5t9.5 11.5h13l46 -45v-13l-74 -98l-14 -5q-24 3 -82.5 19t-71.5 16q-5 0 -9.5 -1.5 t-9 -5t-8.5 -6.5t-9.5 -9t-8.5 -9.5t-9.5 -11t-9.5 -11.5h-14zM228 252l71 -2l74 1l-31 248h-10z" />
<glyph unicode="&#xc4;" horiz-adv-x="600" d="M-22 0l285 645h190l106 -645h-161l-5 92l-5 40l-113 2l-98 -3l-13 -30l-30 -101h-156zM210 797q0 35 20 55t54 20q31 0 49 -18.5t18 -50.5q0 -35 -19.5 -55t-53.5 -20q-68 0 -68 69zM228 252l71 -2l74 1l-31 248h-10zM392 797q0 35 20 54.5t54 19.5q32 0 49.5 -18 t17.5 -50q0 -35 -19.5 -55.5t-53.5 -20.5q-68 0 -68 70z" />
<glyph unicode="&#xc5;" horiz-adv-x="600" d="M-22 0l285 645h190l106 -645h-161l-5 92l-5 40l-113 2l-98 -3l-13 -30l-30 -101h-156zM228 252l71 -2l74 1l-31 248h-10zM272 812q0 49 26.5 75.5t76.5 26.5q98 0 98 -96q0 -50 -27 -77t-77 -27q-47 0 -72 25t-25 73zM334 815q0 -38 39 -38q38 0 38 35q0 37 -39 37 q-38 0 -38 -34z" />
<glyph unicode="&#xc6;" horiz-adv-x="814" d="M-47 0l370 645h463l8 -12l-25 -117l-150 5h-81l-4 -156l188 51l10 -9v-111l-201 -51l-3 -122h97l162 6l8 -12l-25 -117h-400l7 92l2 112l-200 -55l-27 -48l-42 -101h-157zM257 289l124 34l3 176h-10z" />
<glyph unicode="&#xc7;" horiz-adv-x="511" d="M32 260q0 186 91.5 290t259.5 104q94 0 167 -34l-44 -130l-12 -6q-54 40 -126 40q-166 0 -166 -238q0 -163 124 -163q73 0 140 35l13 -8l-29 -131q-62 -25 -118 -28l-8 -36l34 -19q42 -24 42 -61q0 -34 -27 -56t-73 -22t-85 27l10 63l7 2q31 -29 58 -29q22 0 22 19 q0 10 -15 18l-50 28l15 67q-112 11 -171 80.5t-59 187.5z" />
<glyph unicode="&#xc8;" horiz-adv-x="514" d="M42 0l32 191l48 454h423l7 -12l-25 -117l-153 5l-109 -1l-19 -132l104 -1l103 3l7 -11l-24 -117l-112 3l-96 -1l-8 -58l-8 -82l106 -1l158 6l7 -12l-24 -117h-417zM214 805l39 92l14 4q90 -54 214 -116l-25 -65l-14 -4q-132 42 -223 75z" />
<glyph unicode="&#xc9;" horiz-adv-x="514" d="M42 0l32 191l48 454h423l7 -12l-25 -117l-153 5l-109 -1l-19 -132l104 -1l103 3l7 -11l-24 -117l-112 3l-96 -1l-8 -58l-8 -82l106 -1l158 6l7 -12l-24 -117h-417zM219 783q124 64 213 117l14 -4l40 -92l-5 -14q-87 -32 -223 -75l-15 4z" />
<glyph unicode="&#xca;" horiz-adv-x="514" d="M42 0l32 191l48 454h423l7 -12l-25 -117l-153 5l-109 -1l-19 -132l104 -1l103 3l7 -11l-24 -117l-112 3l-96 -1l-8 -58l-8 -82l106 -1l158 6l7 -12l-24 -117h-417zM192 786q82 54 148 109h30q53 -50 133 -109l-35 -61h-15l-103 62q-21 -11 -62.5 -32t-59.5 -30h-15z" />
<glyph unicode="&#xcb;" horiz-adv-x="514" d="M42 0l32 191l48 454h423l7 -12l-25 -117l-153 5l-109 -1l-19 -132l104 -1l103 3l7 -11l-24 -117l-112 3l-96 -1l-8 -58l-8 -82l106 -1l158 6l7 -12l-24 -117h-417zM185 797q0 35 20 55t54 20q31 0 49 -18.5t18 -50.5q0 -35 -19.5 -55t-53.5 -20q-68 0 -68 69zM367 797 q0 35 19.5 54.5t54.5 19.5q32 0 49.5 -18t17.5 -50q0 -35 -19.5 -55.5t-53.5 -20.5q-68 0 -68 70z" />
<glyph unicode="&#xcc;" horiz-adv-x="304" d="M42 0l32 191l48 454h161l-63 -439l-19 -206h-159zM87 805l39 92l14 4q90 -54 214 -116l-25 -65l-14 -4q-132 42 -223 75z" />
<glyph unicode="&#xcd;" horiz-adv-x="304" d="M42 0l32 191l48 454h161l-63 -439l-19 -206h-159zM93 783q124 64 213 117l14 -4l40 -92l-5 -14q-87 -32 -223 -75l-15 4z" />
<glyph unicode="&#xce;" horiz-adv-x="304" d="M42 0l32 191l48 454h161l-63 -439l-19 -206h-159zM65 786q82 54 148 109h30q53 -50 133 -109l-35 -61h-15l-103 62q-21 -11 -62.5 -32t-59.5 -30h-15z" />
<glyph unicode="&#xd0;" horiz-adv-x="680" d="M23 276l13 94h86l28 275h1l259 4q124 0 193 -66t69 -187q0 -190 -94.5 -297t-270.5 -107q-98 0 -236 8l32 191l8 74h-82zM241 121q56 -8 101 -8q161 0 161 259q0 80 -27.5 116t-86.5 36q-41 0 -96 -5l-21 -149h103l6 -11l-14 -94h-111l-8 -59z" />
<glyph unicode="&#xd1;" horiz-adv-x="691" d="M42 0l32 190l48 455h171l177 -404h10l45 398l147 9l-64 -445l-19 -203h-171l-176 404h-10l-23 -178l-22 -226h-145zM233 759v13l74 97l14 5q25 -3 83 -18.5t71 -15.5q5 0 9 1.5t9.5 5t8.5 6t9.5 9t9 9.5t10 11.5t9.5 11.5h13l46 -45v-13l-74 -98l-14 -5q-24 3 -82.5 19 t-71.5 16q-5 0 -9.5 -1.5t-9 -5t-8.5 -6.5t-9.5 -9t-8.5 -9.5t-9.5 -11t-9.5 -11.5h-14z" />
<glyph unicode="&#xd2;" horiz-adv-x="642" d="M32 268q0 177 89.5 282t251.5 105q124 0 192 -69.5t68 -205.5q0 -177 -90 -284t-252 -107q-123 0 -191 71t-68 208zM197 269q0 -87 24.5 -123.5t85.5 -36.5q78 0 118 59.5t40 200.5q0 86 -24.5 122t-85.5 36q-79 0 -118.5 -58.5t-39.5 -199.5zM258 805l39 92l14 4 q90 -54 214 -116l-25 -65l-14 -4q-132 42 -223 75z" />
<glyph unicode="&#xd3;" horiz-adv-x="642" d="M32 268q0 177 89.5 282t251.5 105q124 0 192 -69.5t68 -205.5q0 -177 -90 -284t-252 -107q-123 0 -191 71t-68 208zM197 269q0 -87 24.5 -123.5t85.5 -36.5q78 0 118 59.5t40 200.5q0 86 -24.5 122t-85.5 36q-79 0 -118.5 -58.5t-39.5 -199.5zM264 783q124 64 213 117 l14 -4l40 -92l-5 -14q-87 -32 -223 -75l-15 4z" />
<glyph unicode="&#xd4;" horiz-adv-x="642" d="M32 268q0 177 89.5 282t251.5 105q124 0 192 -69.5t68 -205.5q0 -177 -90 -284t-252 -107q-123 0 -191 71t-68 208zM197 269q0 -87 24.5 -123.5t85.5 -36.5q78 0 118 59.5t40 200.5q0 86 -24.5 122t-85.5 36q-79 0 -118.5 -58.5t-39.5 -199.5zM236 786q82 54 148 109h30 q53 -50 133 -109l-35 -61h-15l-103 62q-21 -11 -62.5 -32t-59.5 -30h-15z" />
<glyph unicode="&#xd5;" horiz-adv-x="642" d="M32 268q0 177 89.5 282t251.5 105q124 0 192 -69.5t68 -205.5q0 -177 -90 -284t-252 -107q-123 0 -191 71t-68 208zM197 269q0 -87 24.5 -123.5t85.5 -36.5q78 0 118 59.5t40 200.5q0 86 -24.5 122t-85.5 36q-79 0 -118.5 -58.5t-39.5 -199.5zM207 759v13l74 97l14 5 q25 -3 83 -18.5t71 -15.5q5 0 9 1.5t9.5 5t8.5 6t9.5 9t9 9.5t10 11.5t9.5 11.5h13l46 -45v-13l-74 -98l-14 -5q-24 3 -82.5 19t-71.5 16q-5 0 -9.5 -1.5t-9 -5t-8.5 -6.5t-9.5 -9t-8.5 -9.5t-9.5 -11t-9.5 -11.5h-14z" />
<glyph unicode="&#xd7;" horiz-adv-x="481" d="M43 132l2 14l126 113l-98 111l1 15l79 61l100 -114l127 114l64 -61l-1 -15l-125 -111l97 -112l-2 -15l-79 -61l-99 113l-128 -113z" />
<glyph unicode="&#xd8;" horiz-adv-x="642" d="M32 268q0 177 89.5 282t251.5 105q51 0 95 -12l59 99l78 -36l7 -16l-57 -95q78 -72 78 -215q0 -177 -90 -284t-252 -107q-47 0 -89 11l-74 -124l-80 37l-5 14l71 119q-82 73 -82 222zM197 269q0 -87 24.5 -123.5t85.5 -36.5q78 0 118 59.5t40 200.5q0 86 -24.5 122 t-85.5 36q-79 0 -118.5 -58.5t-39.5 -199.5z" />
<glyph unicode="&#xd9;" horiz-adv-x="634" d="M53 176q0 22 3 47l14 97l36 325h158l-56 -401q-2 -24 -2 -33q0 -32 10 -52.5t31 -30.5t54 -10q58 0 88.5 29.5t37.5 92.5l43 405h160q-6 -47 -18 -132t-21.5 -155t-17.5 -132q-14 -114 -86 -175t-199 -61q-111 0 -173 48.5t-62 137.5zM255 805l39 92l14 4 q90 -54 214 -116l-25 -65l-14 -4q-132 42 -223 75z" />
<glyph unicode="&#xda;" horiz-adv-x="634" d="M53 176q0 22 3 47l14 97l36 325h158l-56 -401q-2 -24 -2 -33q0 -32 10 -52.5t31 -30.5t54 -10q58 0 88.5 29.5t37.5 92.5l43 405h160q-6 -47 -18 -132t-21.5 -155t-17.5 -132q-14 -114 -86 -175t-199 -61q-111 0 -173 48.5t-62 137.5zM260 783q124 64 213 117l14 -4 l40 -92l-5 -14q-87 -32 -223 -75l-15 4z" />
<glyph unicode="&#xdb;" horiz-adv-x="634" d="M53 176q0 22 3 47l14 97l36 325h158l-56 -401q-2 -24 -2 -33q0 -32 10 -52.5t31 -30.5t54 -10q58 0 88.5 29.5t37.5 92.5l43 405h160q-6 -47 -18 -132t-21.5 -155t-17.5 -132q-14 -114 -86 -175t-199 -61q-111 0 -173 48.5t-62 137.5zM232 786q82 54 148 109h30 q53 -50 133 -109l-35 -61h-15l-103 62q-21 -11 -62.5 -32t-59.5 -30h-15z" />
<glyph unicode="&#xdc;" horiz-adv-x="634" d="M53 176q0 22 3 47l14 97l36 325h158l-56 -401q-2 -24 -2 -33q0 -32 10 -52.5t31 -30.5t54 -10q58 0 88.5 29.5t37.5 92.5l43 405h160q-6 -47 -18 -132t-21.5 -155t-17.5 -132q-14 -114 -86 -175t-199 -61q-111 0 -173 48.5t-62 137.5zM225 797q0 35 20 55t54 20 q31 0 49 -18.5t18 -50.5q0 -35 -19.5 -55t-53.5 -20q-22 0 -37 8t-23 23.5t-8 37.5zM407 797q0 35 19.5 54.5t54.5 19.5q21 0 36 -8t23 -23.5t8 -36.5q0 -35 -19.5 -55.5t-53.5 -20.5q-33 0 -50.5 18t-17.5 52z" />
<glyph unicode="&#xde;" horiz-adv-x="569" d="M42 0l32 191l48 454h162l-14 -98h105q92 0 144.5 -44t52.5 -127q0 -120 -80 -195.5t-211 -75.5h-69l-10 -105h-160zM223 222l96 -4q88 29 88 133q0 41 -21 61.5t-67 22.5l-66 -4z" />
<glyph unicode="&#xdf;" horiz-adv-x="607" d="M35 383l11 75h71l4 29q13 103 79 160t173 57q88 0 135.5 -37.5t47.5 -98.5q0 -30 -12 -56.5t-29 -45.5t-34 -36t-29 -36t-12 -38q0 -16 11 -30.5t28 -25.5t36.5 -26t36.5 -30t28 -39t11 -53q0 -70 -59 -116t-148 -46q-67 7 -126 29l32 120l15 7q27 -31 57.5 -48.5 t57.5 -17.5q21 0 33 11.5t12 27.5q0 15 -15.5 30t-38 30t-44.5 33.5t-38 47.5t-16 65q0 32 11 58.5t27.5 45t32.5 35t27 36t11 41.5q0 53 -65 53q-82 0 -95 -80q-50 -361 -70 -511l-4 -108l-144 -10l41 305l22 184h-65z" />
<glyph unicode="&#xe0;" d="M16 155q0 104 61.5 195.5t176.5 123.5h6l87 -19l88 23l10 -7l-48 -357l-4 -108l-144 -10l19 139h-14q-46 -85 -101 -145h-20q-64 20 -90.5 60.5t-26.5 104.5zM134 650l56 84l14 1q89 -79 188 -156l-36 -58l-14 -1q-77 42 -205 115zM149 211q0 -83 23 -83q18 0 51 52 t72 149l2 17l-67 20q-39 0 -60 -42t-21 -113z" />
<glyph unicode="&#xe1;" d="M16 155q0 104 61.5 195.5t176.5 123.5h6l87 -19l88 23l10 -7l-48 -357l-4 -108l-144 -10l19 139h-14q-46 -85 -101 -145h-20q-64 20 -90.5 60.5t-26.5 104.5zM149 211q0 -83 23 -83q18 0 51 52t72 149l2 17l-67 20q-39 0 -60 -42t-21 -113zM150 579q109 85 188 156l15 -1 l55 -84l-3 -15q-142 -82 -204 -115l-14 1z" />
<glyph unicode="&#xe2;" d="M16 155q0 104 61.5 195.5t176.5 123.5h6l87 -19l88 23l10 -7l-48 -357l-4 -108l-144 -10l19 139h-14q-46 -85 -101 -145h-20q-64 20 -90.5 60.5t-26.5 104.5zM116 586q43 35 163 144h31q51 -63 132 -144l-45 -59h-15q-71 58 -100 88q-38 -32 -121 -88h-15zM149 211 q0 -83 23 -83q18 0 51 52t72 149l2 17l-67 20q-39 0 -60 -42t-21 -113z" />
<glyph unicode="&#xe3;" d="M16 155q0 104 61.5 195.5t176.5 123.5h6l87 -19l88 23l10 -7l-48 -357l-4 -108l-144 -10l19 139h-14q-46 -85 -101 -145h-20q-64 20 -90.5 60.5t-26.5 104.5zM95 581v13l74 97l14 5q25 -3 83 -18.5t71 -15.5q5 0 9 1.5t9.5 5t8.5 6t9.5 9t9 9.5t10 11.5t9.5 11.5h13 l46 -45v-13l-74 -98l-14 -5q-24 3 -82.5 19t-71.5 16q-5 0 -9.5 -1.5t-9 -5t-8.5 -6.5t-9.5 -9t-8.5 -9.5t-9.5 -11t-9.5 -11.5h-14zM149 211q0 -83 23 -83q18 0 51 52t72 149l2 17l-67 20q-39 0 -60 -42t-21 -113z" />
<glyph unicode="&#xe4;" d="M16 155q0 104 61.5 195.5t176.5 123.5h6l87 -19l88 23l10 -7l-48 -357l-4 -108l-144 -10l19 139h-14q-46 -85 -101 -145h-20q-64 20 -90.5 60.5t-26.5 104.5zM116 619q0 35 20 55t54 20q31 0 49 -18.5t18 -50.5q0 -35 -19.5 -55t-53.5 -20q-68 0 -68 69zM149 211 q0 -83 23 -83q18 0 51 52t72 149l2 17l-67 20q-39 0 -60 -42t-21 -113zM298 619q0 35 20 54.5t54 19.5q32 0 49.5 -18t17.5 -50q0 -35 -19.5 -55.5t-53.5 -20.5q-68 0 -68 70z" />
<glyph unicode="&#xe5;" d="M16 155q0 104 61.5 195.5t176.5 123.5h6l87 -19l88 23l10 -7l-48 -357l-4 -108l-144 -10l19 139h-14q-46 -85 -101 -145h-20q-64 20 -90.5 60.5t-26.5 104.5zM149 211q0 -83 23 -83q18 0 51 52t72 149l2 17l-67 20q-39 0 -60 -42t-21 -113zM179 634q0 49 26.5 75.5 t76.5 26.5q98 0 98 -96q0 -50 -27 -77t-77 -27q-47 0 -72 25t-25 73zM241 637q0 -38 39 -38q38 0 38 35q0 37 -39 37q-38 0 -38 -34z" />
<glyph unicode="&#xe6;" horiz-adv-x="659" d="M19 154q0 105 62 196.5t177 123.5h7l138 -32q57 33 126 36l14 -1q110 -21 110 -115q0 -60 -57.5 -104.5t-188.5 -80.5q0 -3 2 -15q9 -60 53 -60q61 0 104 73l19 -2l46 -60q-75 -94 -177 -123h-15q-78 9 -115 45.5t-48 103.5q-3 9 -3 13q-57 -96 -118 -162h-20 q-64 20 -90 61t-26 103zM150 209q0 -82 24 -82q17 0 50 50t71 139q3 8 14 28l-74 23q-41 0 -63 -42.5t-22 -115.5zM406 260q121 32 121 93q0 32 -35 32q-74 0 -86 -125z" />
<glyph unicode="&#xe7;" horiz-adv-x="363" d="M18 174q0 129 67.5 215.5t198.5 86.5l81 -25l4 -15l-41 -108l-31 -1q-17 21 -29.5 29.5t-29.5 8.5q-82 0 -82 -163q0 -47 10 -67.5t33 -20.5q35 0 74 70l19 -1l46 -58q-53 -91 -133 -125l-10 -45l34 -19q42 -24 42 -61q0 -34 -27 -56t-73 -22t-85 27l10 63l7 2 q31 -29 58 -29q22 0 22 19q0 10 -15 18l-50 28l16 72q-61 16 -88.5 58.5t-27.5 118.5z" />
<glyph unicode="&#xe8;" horiz-adv-x="416" d="M19 173q0 132 70 215.5t188 89.5l14 -1q109 -21 109 -116q0 -60 -57.5 -104.5t-186.5 -79.5q4 -40 17 -57t39 -17q56 0 101 73l18 -3l47 -60q-76 -95 -177 -123h-15q-167 18 -167 183zM114 650l56 84l14 1q89 -79 188 -156l-36 -58l-14 -1q-77 42 -205 115zM156 262 q60 16 88 37t28 53t-33 32q-71 0 -83 -122z" />
<glyph unicode="&#xe9;" horiz-adv-x="416" d="M19 173q0 132 70 215.5t188 89.5l14 -1q109 -21 109 -116q0 -60 -57.5 -104.5t-186.5 -79.5q4 -40 17 -57t39 -17q56 0 101 73l18 -3l47 -60q-76 -95 -177 -123h-15q-167 18 -167 183zM130 579q109 85 188 156l15 -1l55 -84l-3 -15q-142 -82 -204 -115l-14 1zM156 262 q60 16 88 37t28 53t-33 32q-71 0 -83 -122z" />
<glyph unicode="&#xea;" horiz-adv-x="416" d="M19 173q0 132 70 215.5t188 89.5l14 -1q109 -21 109 -116q0 -60 -57.5 -104.5t-186.5 -79.5q4 -40 17 -57t39 -17q56 0 101 73l18 -3l47 -60q-76 -95 -177 -123h-15q-167 18 -167 183zM96 586q43 35 163 144h31q51 -63 132 -144l-45 -59h-15q-71 58 -100 88 q-38 -32 -121 -88h-15zM156 262q60 16 88 37t28 53t-33 32q-71 0 -83 -122z" />
<glyph unicode="&#xeb;" horiz-adv-x="416" d="M19 173q0 132 70 215.5t188 89.5l14 -1q109 -21 109 -116q0 -60 -57.5 -104.5t-186.5 -79.5q4 -40 17 -57t39 -17q56 0 101 73l18 -3l47 -60q-76 -95 -177 -123h-15q-167 18 -167 183zM97 619q0 35 20 55t54 20q31 0 49 -18.5t18 -50.5q0 -35 -19.5 -55t-53.5 -20 q-68 0 -68 69zM156 262q60 16 88 37t28 53t-33 32q-71 0 -83 -122zM279 619q0 35 19.5 54.5t54.5 19.5q32 0 49.5 -18t17.5 -50q0 -35 -19.5 -55.5t-53.5 -20.5q-68 0 -68 70z" />
<glyph unicode="&#xec;" horiz-adv-x="245" d="M24 -4l49 358l4 108l143 10l-47 -358l-5 -108zM24 650l56 84l14 1q89 -79 188 -156l-36 -58l-14 -1q-77 42 -205 115z" />
<glyph unicode="&#xed;" horiz-adv-x="245" d="M24 -4l49 358l4 108l143 10l-47 -358l-5 -108zM40 579q109 85 188 156l15 -1l55 -84l-3 -15q-142 -82 -204 -115l-14 1z" />
<glyph unicode="&#xee;" horiz-adv-x="245" d="M6 586q43 35 163 144h31q51 -63 132 -144l-45 -59h-15q-71 58 -100 88q-38 -32 -121 -88h-15zM24 -4l49 358l4 108l143 10l-47 -358l-5 -108z" />
<glyph unicode="&#xf0;" horiz-adv-x="474" d="M36 170q0 126 62.5 205.5t170.5 90.5q-20 33 -54 64l-124 -69l-11 4l-23 58l96 54q-43 26 -86 46l3 17l102 70h8q54 -30 97 -64l114 63l12 -4l23 -58l-95 -52q116 -126 111 -290q0 -141 -68 -224.5t-188 -91.5l-14 2q-136 30 -136 179zM168 167q0 -40 10 -57t34 -17 q53 0 74.5 49.5t22.5 154.5q0 19 -2 49q-13 23 -41 23q-53 0 -75.5 -49t-22.5 -153z" />
<glyph unicode="&#xf1;" horiz-adv-x="506" d="M24 -4l49 358l4 108l144 10l-22 -162h13q69 103 133 160l12 1q51 -10 84 -37.5t32 -65.5q-7 -50 -21.5 -139.5t-18.5 -113.5l-4 -109l-148 -10l47 290l1 11q0 23 -17 23q-46 0 -133 -163l-6 -43l-4 -108zM119 581v13l74 97l14 5q25 -3 83 -18.5t71 -15.5q5 0 9 1.5t9.5 5 t8.5 6t9.5 9t9 9.5t10 11.5t9.5 11.5h13l46 -45v-13l-74 -98l-14 -5q-24 3 -82.5 19t-71.5 16q-4 0 -7.5 -1t-7 -3t-6.5 -4t-7 -5.5t-7 -6.5t-7 -8t-7 -8.5t-7.5 -9t-7.5 -8.5h-14z" />
<glyph unicode="&#xf2;" horiz-adv-x="449" d="M20 172q0 134 69.5 216.5t189.5 89.5l14 -1q136 -29 136 -172q0 -141 -69 -224.5t-189 -91.5l-14 2q-137 30 -137 181zM134 650l56 84l14 1q89 -79 188 -156l-36 -58l-14 -1q-77 42 -205 115zM157 169q0 -39 9 -55t32 -16q51 0 71.5 47.5t20.5 150.5q0 39 -8.5 54.5 t-30.5 15.5q-53 0 -73.5 -47t-20.5 -150z" />
<glyph unicode="&#xf3;" horiz-adv-x="449" d="M20 172q0 134 69.5 216.5t189.5 89.5l14 -1q136 -29 136 -172q0 -141 -69 -224.5t-189 -91.5l-14 2q-137 30 -137 181zM150 579q109 85 188 156l15 -1l55 -84l-3 -15q-142 -82 -204 -115l-14 1zM157 169q0 -39 9 -55t32 -16q51 0 71.5 47.5t20.5 150.5q0 39 -8.5 54.5 t-30.5 15.5q-53 0 -73.5 -47t-20.5 -150z" />
<glyph unicode="&#xf4;" horiz-adv-x="449" d="M20 172q0 134 69.5 216.5t189.5 89.5l14 -1q136 -29 136 -172q0 -141 -69 -224.5t-189 -91.5l-14 2q-137 30 -137 181zM116 586q43 35 163 144h31q51 -63 132 -144l-45 -59h-15q-71 58 -100 88q-38 -32 -121 -88h-15zM157 169q0 -39 9 -55t32 -16q51 0 71.5 47.5 t20.5 150.5q0 39 -8.5 54.5t-30.5 15.5q-53 0 -73.5 -47t-20.5 -150z" />
<glyph unicode="&#xf5;" horiz-adv-x="449" d="M20 172q0 134 69.5 216.5t189.5 89.5l14 -1q136 -29 136 -172q0 -141 -69 -224.5t-189 -91.5l-14 2q-137 30 -137 181zM95 581v13l74 97l14 5q25 -3 83 -18.5t71 -15.5q5 0 9 1.5t9.5 5t8.5 6t9.5 9t9 9.5t10 11.5t9.5 11.5h13l46 -45v-13l-74 -98l-14 -5q-24 3 -82.5 19 t-71.5 16q-5 0 -9.5 -1.5t-9 -5t-8.5 -6.5t-9.5 -9t-8.5 -9.5t-9.5 -11t-9.5 -11.5h-14zM157 169q0 -39 9 -55t32 -16q51 0 71.5 47.5t20.5 150.5q0 39 -8.5 54.5t-30.5 15.5q-53 0 -73.5 -47t-20.5 -150z" />
<glyph unicode="&#xf7;" horiz-adv-x="478" d="M23 217l7 94h422l11 -11l-8 -94h-422zM153 90q0 33 19 52.5t52 19.5q65 0 65 -66q0 -34 -19 -53.5t-51 -19.5q-66 0 -66 67zM193 424q0 33 19.5 52.5t52.5 19.5q31 0 48 -17.5t17 -49.5q0 -33 -19 -52.5t-51 -19.5q-67 0 -67 67z" />
<glyph unicode="&#xf8;" horiz-adv-x="449" d="M1 -72l64 110q-45 48 -45 134q0 134 69.5 216.5t189.5 89.5l14 -1l17 -4l62 106l70 -41l7 -14l-58 -101q38 -44 38 -118q0 -141 -69 -224.5t-189 -91.5l-14 2l-8 2l-70 -120l-74 42zM157 169q0 -39 9 -55t32 -16q51 0 71.5 47.5t20.5 150.5q0 39 -8.5 54.5t-30.5 15.5 q-53 0 -73.5 -47t-20.5 -150z" />
<glyph unicode="&#xf9;" horiz-adv-x="499" d="M30 97q7 50 21.5 141t18.5 114l6 110l146 9l-46 -286l-1 -16q0 -24 18 -24q40 0 126 156l7 53l4 108l144 10l-49 -358l-3 -108l-145 -10l21 155h-11q-63 -99 -127 -154l-12 -1q-54 8 -86 35t-32 66zM154 650l56 84l14 1q89 -79 188 -156l-36 -58l-14 -1q-77 42 -205 115z " />
<glyph unicode="&#xfa;" horiz-adv-x="499" d="M30 97q7 50 21.5 141t18.5 114l6 110l146 9l-46 -286l-1 -16q0 -24 18 -24q40 0 126 156l7 53l4 108l144 10l-49 -358l-3 -108l-145 -10l21 155h-11q-63 -99 -127 -154l-12 -1q-54 8 -86 35t-32 66zM170 579q109 85 188 156l15 -1l55 -84l-3 -15q-142 -82 -204 -115 l-14 1z" />
<glyph unicode="&#xfb;" horiz-adv-x="499" d="M30 97q7 50 21.5 141t18.5 114l6 110l146 9l-46 -286l-1 -16q0 -24 18 -24q40 0 126 156l7 53l4 108l144 10l-49 -358l-3 -108l-145 -10l21 155h-11q-63 -99 -127 -154l-12 -1q-54 8 -86 35t-32 66zM135 586q43 35 163 144h31q51 -63 132 -144l-45 -59h-15 q-71 58 -100 88q-38 -32 -121 -88h-15z" />
<glyph unicode="&#xfc;" horiz-adv-x="499" d="M30 97q7 50 21.5 141t18.5 114l6 110l146 9l-46 -286l-1 -16q0 -24 18 -24q40 0 126 156l7 53l4 108l144 10l-49 -358l-3 -108l-145 -10l21 155h-11q-63 -99 -127 -154l-12 -1q-54 8 -86 35t-32 66zM136 619q0 35 20 55t54 20q31 0 49 -18.5t18 -50.5q0 -35 -19.5 -55 t-53.5 -20q-68 0 -68 69zM318 619q0 35 20 54.5t54 19.5q32 0 49.5 -18t17.5 -50q0 -35 -19.5 -55.5t-53.5 -20.5q-68 0 -68 70z" />
<glyph unicode="&#xfe;" horiz-adv-x="476" d="M1 -195l106 781l4 108l143 10l-51 -378h15q52 92 104 148h20q62 -20 89 -60t27 -105q0 -105 -61.5 -196.5t-173.5 -122.5h-7l-57 11l-10 -76l-4 -110zM175 117l72 -19q37 0 58 43.5t21 113.5q0 85 -23 85q-18 0 -51 -51.5t-74 -147.5z" />
<glyph unicode="&#xff;" horiz-adv-x="458" d="M-71 -61l13 13q45 -14 84 -14q65 0 116 42l-103 483l144 9l9 -88l33 -230h16l50 113q29 66 29 110q0 32 -17 63l6 15l133 19q16 -38 16 -79q0 -65 -46 -154l-98 -186q-73 -139 -137.5 -195.5t-144.5 -56.5q-47 0 -96 17zM104 619q0 35 20 55t54 20q31 0 49 -18.5 t18 -50.5q0 -35 -19.5 -55t-53.5 -20q-68 0 -68 69zM286 619q0 35 20 54.5t54 19.5q32 0 49.5 -18t17.5 -50q0 -35 -19.5 -55.5t-53.5 -20.5q-68 0 -68 70z" />
<glyph unicode="&#x152;" horiz-adv-x="864" d="M31 262q0 183 99 289t269 106q38 0 98.5 -6t87.5 -6h308l9 -12l-26 -117l-151 5h-111l-18 -133l102 -1l106 3l7 -11l-25 -117l-114 3l-96 -1q-5 -48 -14 -140l102 -1l162 6l7 -12l-24 -117h-303q-32 1 -104 -5.5t-109 -6.5q-126 0 -194 72t-68 202zM198 265 q0 -81 29.5 -119t94.5 -38q55 0 75 13q20 12 23 47l33 301q3 38 -7 45q-17 15 -77 15q-87 0 -129 -60.5t-42 -203.5z" />
<glyph unicode="&#x153;" horiz-adv-x="683" d="M22 172q0 134 70.5 216.5t190.5 89.5l13 -1q69 -13 99 -65q65 62 159 66l13 -1q110 -21 110 -116q0 -60 -57.5 -104.5t-187.5 -79.5q4 -40 17 -57t39 -17q59 0 102 73l18 -3l47 -60q-75 -94 -177 -123h-15q-89 10 -125 73q-63 -68 -163 -74l-14 2q-139 30 -139 181z M159 169q0 -40 10 -56t33 -16q52 0 73 48t21 152q0 39 -9 54.5t-32 15.5q-54 0 -75 -47t-21 -151zM432 262q61 16 89 37t28 53t-33 32q-72 0 -84 -122z" />
<glyph unicode="&#x178;" horiz-adv-x="563" d="M51 645h165l9 -48l65 -227h11l132 222l26 53h164l-278 -432l-6 -37l-14 -176h-159l30 176l3 39zM190 797q0 35 20 55t54 20q31 0 49 -18.5t18 -50.5q0 -35 -19.5 -55t-53.5 -20q-68 0 -68 69zM372 797q0 35 20 54.5t54 19.5q32 0 49.5 -18t17.5 -50q0 -35 -19.5 -55.5 t-53.5 -20.5q-68 0 -68 70z" />
<glyph unicode="&#x2c6;" horiz-adv-x="390" d="M75 586q43 35 163 144h31q51 -63 132 -144l-45 -59h-15q-71 58 -100 88q-38 -32 -121 -88h-15z" />
<glyph unicode="&#x2dc;" horiz-adv-x="390" d="M59 581v13l74 97l14 5q25 -3 83 -18.5t71 -15.5q5 0 9 1.5t9.5 5t8.5 6t9.5 9t9 9.5t10 11.5t9.5 11.5h13l46 -45v-13l-74 -98l-14 -5q-24 3 -82.5 19t-71.5 16q-5 0 -9.5 -1.5t-9 -5t-8.5 -6.5t-9.5 -9t-8.5 -9.5t-9.5 -11t-9.5 -11.5h-14z" />
<glyph unicode="&#x2000;" horiz-adv-x="457" />
<glyph unicode="&#x2001;" horiz-adv-x="914" />
<glyph unicode="&#x2002;" horiz-adv-x="457" />
<glyph unicode="&#x2003;" horiz-adv-x="914" />
<glyph unicode="&#x2004;" horiz-adv-x="304" />
<glyph unicode="&#x2005;" horiz-adv-x="228" />
<glyph unicode="&#x2006;" horiz-adv-x="152" />
<glyph unicode="&#x2007;" horiz-adv-x="152" />
<glyph unicode="&#x2008;" horiz-adv-x="114" />
<glyph unicode="&#x2009;" horiz-adv-x="182" />
<glyph unicode="&#x200a;" horiz-adv-x="50" />
<glyph unicode="&#x2010;" horiz-adv-x="302" d="M22 194l11 96l242 36l10 -11l-11 -96l-242 -37z" />
<glyph unicode="&#x2011;" horiz-adv-x="302" d="M22 194l11 96l242 36l10 -11l-11 -96l-242 -37z" />
<glyph unicode="&#x2012;" horiz-adv-x="302" d="M22 194l11 96l242 36l10 -11l-11 -96l-242 -37z" />
<glyph unicode="&#x2013;" horiz-adv-x="460" d="M-17 217l19 94h473l8 -11l-18 -94h-473z" />
<glyph unicode="&#x2014;" horiz-adv-x="871" d="M-20 217l19 94h890l9 -11l-19 -94h-890z" />
<glyph unicode="&#x2018;" horiz-adv-x="223" d="M64 476q0 83 100 177l53 -35l2 -10q-40 -44 -40 -87q0 -50 41 -76v-13q-50 -38 -98 -58q-58 33 -58 102z" />
<glyph unicode="&#x2019;" horiz-adv-x="223" d="M65 582v13q50 38 98 58q58 -33 58 -102q0 -81 -100 -177l-53 35l-2 10q40 44 40 87q0 50 -41 76z" />
<glyph unicode="&#x201a;" horiz-adv-x="228" d="M-11 -78q55 48 55 102q0 37 -32 66l1 13q55 31 113 47q45 -39 45 -93q0 -97 -132 -189l-49 43z" />
<glyph unicode="&#x201c;" horiz-adv-x="399" d="M62 476q0 81 100 177l53 -35l2 -10q-40 -44 -40 -87q0 -50 41 -76v-13q-50 -38 -98 -58q-58 33 -58 102zM241 476q0 81 100 177l53 -35l2 -10q-40 -44 -40 -87q0 -50 41 -76v-13q-50 -38 -98 -58q-58 33 -58 102z" />
<glyph unicode="&#x201d;" horiz-adv-x="395" d="M64 419q41 44 41 87q0 50 -41 76v13q50 38 98 58q58 -33 58 -102q0 -81 -100 -177l-53 35zM236 582v13q50 38 98 58q58 -33 58 -102q0 -81 -100 -177l-53 35l-2 10q40 44 40 87q0 50 -41 76z" />
<glyph unicode="&#x201e;" horiz-adv-x="408" d="M-11 -78q55 48 55 102q0 37 -32 66l1 13q55 31 113 47q45 -39 45 -93q0 -97 -132 -189l-49 43zM168 -78q56 48 56 102q0 36 -33 66l1 13q55 31 113 47q46 -39 46 -93q0 -96 -132 -189l-50 43z" />
<glyph unicode="&#x2022;" horiz-adv-x="299" d="M48 244q0 50 29 79.5t78 29.5q46 0 72 -26.5t26 -73.5q0 -51 -28.5 -80.5t-77.5 -29.5q-48 0 -73.5 26.5t-25.5 74.5z" />
<glyph unicode="&#x2026;" horiz-adv-x="653" d="M-8 70q0 39 22.5 62t60.5 23q36 0 56 -20.5t20 -57.5q0 -39 -22 -62t-60 -23q-37 0 -57 20.5t-20 57.5zM203 70q0 39 22.5 62t60.5 23q37 0 56.5 -20.5t19.5 -57.5q0 -39 -22 -62t-60 -23q-37 0 -57 20.5t-20 57.5zM414 70q0 39 22.5 62t61.5 23q36 0 55.5 -20.5 t19.5 -57.5q0 -39 -22 -62t-60 -23q-37 0 -57 20.5t-20 57.5z" />
<glyph unicode="&#x202f;" horiz-adv-x="182" />
<glyph unicode="&#x2039;" horiz-adv-x="250" d="M28 221l4 23l153 174l68 -38l1 -14l-112 -137l79 -137l-5 -14l-77 -39z" />
<glyph unicode="&#x203a;" horiz-adv-x="252" d="M7 94l112 137l-78 137l4 14l78 39l110 -182l-3 -23l-154 -174l-68 38z" />
<glyph unicode="&#x205f;" horiz-adv-x="228" />
<glyph unicode="&#x20ac;" horiz-adv-x="466" d="M-1 164l12 66h344l5 -7l-12 -66h-130q19 -57 89 -57q53 0 110 24l10 -6l-23 -104q-55 -22 -115 -22q-198 0 -218 165h-67zM13 278l12 65h72q67 170 259 170q72 0 128 -25l-36 -105l-10 -6q-40 28 -98 28q-74 0 -104 -62h133l6 -6l-13 -67h-345z" />
<glyph unicode="&#x2122;" horiz-adv-x="593" d="M66 588l12 55h192l3 -5l-11 -56l-52 3h-6l-15 -103l-7 -78h-76l13 70l12 111h-8l-52 -3zM272 404l55 239h89l3 -34l14 -83h5l38 80l14 37h88l-10 -239h-67l6 73l2 55h-5l-56 -106h-58l-24 106h-4l-12 -48l-13 -80h-65z" />
<glyph unicode="&#x25fc;" horiz-adv-x="475" d="M0 0v475h475v-475h-475z" />
</font>
</defs>
</svg>
