<?xml version="1.0" standalone="no"?>
<!DOCTYPE svg PUBLIC "-//W3C//DTD SVG 1.1//EN" "http://www.w3.org/Graphics/SVG/1.1/DTD/svg11.dtd" >
<svg xmlns="http://www.w3.org/2000/svg">
<metadata></metadata>
<defs>
<font id="alegreya_sansblack_italic" horiz-adv-x="626" >
<font-face units-per-em="1000" ascent="800" descent="-200" />
<missing-glyph horiz-adv-x="127" />
<glyph unicode="&#xa8;I" horiz-adv-x="327" d="M31 0l34 190l46 457h203l-65 -437l-18 -210h-200zM54 800q0 42 23.5 66t64.5 24q38 0 59.5 -21.5t21.5 -60.5q0 -41 -24 -65.5t-64 -24.5q-39 0 -60 21t-21 61zM237 800q0 42 24 66t65 24q38 0 59 -21.5t21 -60.5q0 -41 -23.5 -65.5t-63.5 -24.5q-82 0 -82 82z" />
<glyph unicode="&#xa8;O" horiz-adv-x="658" d="M24 276q0 171 94 277t262 106q131 0 202.5 -70.5t71.5 -214.5q0 -171 -94 -278.5t-261 -107.5q-131 0 -203 71.5t-72 216.5zM217 801q0 42 23.5 65.5t64.5 23.5q38 0 59.5 -21t21.5 -60q0 -42 -23.5 -66.5t-64.5 -24.5q-81 0 -81 83zM233 273q0 -79 17.5 -108.5 t69.5 -29.5q29 0 49.5 9t38.5 32t27 69.5t9 116.5q0 79 -17.5 108.5t-69.5 29.5q-61 0 -92.5 -47t-31.5 -180zM410 801q0 42 24 65.5t65 23.5q38 0 59 -21.5t21 -59.5q0 -42 -23.5 -66.5t-63.5 -24.5t-61 21.5t-21 61.5z" />
<glyph unicode="&#xb4;Y" horiz-adv-x="594" d="M43 647h208l9 -54l49 -196h12l109 189l30 61h204l-285 -443l-6 -34l-12 -170h-199l30 170l3 37zM226 795q114 56 225 122l17 -4l49 -116l-6 -16q-132 -42 -238 -69l-17 4z" />
<glyph unicode="&#xa8;i" horiz-adv-x="259" d="M-1 625q0 42 23.5 66t64.5 24q38 0 59.5 -21.5t21.5 -60.5q0 -41 -24 -65.5t-64 -24.5q-39 0 -60 21t-21 61zM15 -4l47 356l4 113l177 11l-46 -360l-5 -109zM182 625q0 42 24 66t65 24q38 0 59 -21.5t21 -60.5q0 -41 -23.5 -65.5t-63.5 -24.5q-82 0 -82 82z" />
<glyph unicode="&#xa8;o" horiz-adv-x="468" d="M12 183q0 133 74.5 213t202.5 88l16 -2q70 -16 110.5 -61t40.5 -120q0 -142 -74 -224t-204 -89l-16 2q-150 34 -150 193zM105 626q0 42 23.5 65.5t64.5 23.5q38 0 59.5 -21t21.5 -60q0 -42 -23.5 -66.5t-64.5 -24.5q-81 0 -81 83zM182 179q0 -34 6.5 -46.5t24.5 -12.5 q45 0 58 36t13 134q0 33 -6 45.5t-23 12.5q-46 0 -59.5 -36t-13.5 -133zM298 626q0 42 24 65.5t65 23.5q38 0 59 -21.5t21 -59.5q0 -42 -23.5 -66.5t-63.5 -24.5t-61 21.5t-21 61.5z" />
<glyph unicode="&#xb4;y" horiz-adv-x="483" d="M-55 -36l15 16q50 -13 90 -13q47 0 88 19l-107 480l178 10l7 -91l27 -200h14l35 87q26 63 26 110q0 32 -14 60l8 17l163 20q14 -40 14 -78q0 -66 -44 -154l-92 -181q-74 -147 -141 -205.5t-153 -58.5q-54 0 -105 18zM147 594q99 73 201 160l17 -1l69 -106l-3 -17 q-142 -72 -223 -109l-17 1z" />
<glyph unicode="&#xfb01;" horiz-adv-x="595" d="M25 373l12 90h69v3q15 117 84 176.5t186 59.5l137 -22l6 -11l-45 -124l-22 -8q-70 38 -103 38q-51 0 -62 -67l-6 -45h173l118 16l7 -8l-45 -355l-5 -109l-177 -11l47 356v10h-133l-22 -152l-25 -198l-4 -109l-177 -11l39 298l18 172h-62z" />
<glyph unicode="&#xfb02;" horiz-adv-x="596" d="M25 373l12 90h69q27 245 274 245l99 -12l134 8l-79 -588l-3 -109l-178 -11l76 564q-50 21 -79 21q-51 0 -62 -67l-7 -51h93l12 -14l-13 -87h-107l-22 -152l-25 -198l-4 -109l-177 -11l39 298l18 172h-62z" />
<glyph horiz-adv-x="1000" />
<glyph horiz-adv-x="1000" />
<glyph unicode="&#xd;" horiz-adv-x="1000" />
<glyph unicode=" "  horiz-adv-x="127" />
<glyph unicode="&#x09;" horiz-adv-x="127" />
<glyph unicode="&#xa0;" horiz-adv-x="127" />
<glyph unicode="!" horiz-adv-x="286" d="M32 86q0 47 27.5 75t74.5 28q44 0 68 -25t24 -69q0 -48 -27 -76t-73 -28t-70 24.5t-24 70.5zM83 261l30 378l19 22l158 11l20 -23l-100 -390l-110 -16z" />
<glyph unicode="&#x22;" horiz-adv-x="436" d="M79 370l23 267l151 9l9 -12l-81 -261l-88 -14zM265 370l23 267l151 9l9 -12l-80 -261l-89 -14z" />
<glyph unicode="#" horiz-adv-x="587" d="M20 159l8 97h91l14 90h-72l-11 12l8 97h92l19 117h108l12 -13l-17 -104h91l19 117h107l12 -13l-17 -104h71l11 -12l-8 -97h-91l-14 -90h72l11 -12l-8 -96h-92l-19 -117h-111l-8 12l17 105h-92l-19 -117h-110l-9 12l17 105h-71zM240 256h92l14 90h-91z" />
<glyph unicode="$" horiz-adv-x="469" d="M0 16l44 160l18 13q36 -31 80 -51t74 -20q26 0 26 19q0 12 -20 22t-48.5 21t-57 26.5t-48.5 46t-20 72.5q0 69 46 120.5t127 69.5l14 130h95l14 -14l-12 -109q64 -6 120 -26l-43 -153l-26 -7q-32 23 -68.5 37t-57.5 14q-22 0 -22 -16q0 -12 20 -22.5t48.5 -21.5 t56.5 -26.5t48 -45.5t20 -71q0 -61 -39 -113t-117 -72l-15 -139h-96l-11 14l12 114q-88 4 -162 28z" />
<glyph unicode="%" horiz-adv-x="896" d="M46 427q0 106 54.5 167t152.5 61q66 0 101 -37.5t35 -107.5q0 -107 -54 -168t-151 -61q-67 0 -102.5 37.5t-35.5 108.5zM123 -27l552 721l71 -47l7 -24l-551 -717l-75 50zM163 445q0 -28 10 -41t34 -13q39 0 52 22.5t13 68.5q0 28 -11 40.5t-36 12.5q-31 0 -46.5 -19.5 t-15.5 -70.5zM528 138q0 107 54 168t152 61q66 0 101 -37.5t35 -108.5q0 -106 -54 -167t-151 -61q-67 0 -102 37.5t-35 107.5zM644 156q0 -28 10 -40.5t34 -12.5q39 0 52.5 23t13.5 68q0 28 -11 40.5t-37 12.5q-31 0 -46.5 -19.5t-15.5 -71.5z" />
<glyph unicode="&#x26;" horiz-adv-x="649" d="M33 162q0 100 129 157v4q-69 58 -69 142q0 88 68 141t186 53q74 0 164 -26l-42 -138l-21 -6q-84 46 -132 46q-71 0 -71 -67q0 -83 74 -83l197 12l134 18l18 -16l-29 -119l-113 -3l-5 -6q15 -29 15 -73q0 -38 -15.5 -74t-47 -67t-85.5 -50t-123 -19q-109 0 -170.5 46 t-61.5 128zM199 177q0 -75 86 -75q111 0 111 102q0 44 -29 68l-110 -4q-58 -37 -58 -91z" />
<glyph unicode="'" horiz-adv-x="249" d="M79 370l23 267l151 9l9 -12l-81 -261l-88 -14z" />
<glyph unicode="(" horiz-adv-x="307" d="M54 148q0 69 10 135.5t32.5 137t66.5 133t106 105.5h17l62 -57l-2 -15q-52 -49 -85 -138t-43 -163.5t-10 -145.5q0 -134 58 -205l-2 -15l-76 -57h-17q-117 95 -117 285z" />
<glyph unicode=")" horiz-adv-x="307" d="M-35 -80l2 15q52 49 85 138t43 163.5t10 145.5q0 134 -58 205l2 15l76 57h17q117 -95 117 -285q0 -69 -10 -135.5t-32.5 -137t-66.5 -133t-106 -105.5h-17z" />
<glyph unicode="*" horiz-adv-x="394" d="M59 579q-1 44 13 97l12 3l109 -74l-9 -51l-11 -5zM74 440l1 12l104 81l46 -24l2 -11l-64 -100q-38 11 -89 42zM199 734q43 15 97 17l5 -10l-36 -127l-51 -6l-9 8zM244 499l37 35l12 -1l75 -93q-24 -33 -69 -70l-10 4zM274 595l5 11l112 42q27 -39 45 -87l-7 -8l-132 -4z " />
<glyph unicode="+" horiz-adv-x="477" d="M9 203l23 117h152l18 152l118 9l12 -12l-18 -149h147l11 -13l-24 -117h-150l-19 -152l-118 -9l-12 12l19 149h-149z" />
<glyph unicode="," horiz-adv-x="229" d="M-20 -75q56 49 56 109q0 42 -33 74l1 16q72 40 143 58q47 -46 47 -106q0 -113 -151 -218l-61 53z" />
<glyph unicode="-" horiz-adv-x="300" d="M19 182l14 120l239 38l12 -14l-13 -120l-240 -38z" />
<glyph unicode="." horiz-adv-x="230" d="M-1 86q0 47 27.5 75t74.5 28q44 0 68 -25t24 -69q0 -48 -27 -76t-73 -28t-70 24.5t-24 70.5z" />
<glyph unicode="/" horiz-adv-x="280" d="M-55 -103l263 786h131l14 -16l-263 -785h-135z" />
<glyph unicode="0" horiz-adv-x="517" d="M28 214q0 136 72.5 223t195.5 87q95 0 146 -56.5t51 -168.5q0 -138 -72.5 -224.5t-194.5 -86.5q-96 0 -147 57.5t-51 168.5zM181 240q0 -44 14.5 -63t54.5 -19q90 0 90 105q0 45 -15.5 62.5t-55.5 17.5q-50 0 -69 -25t-19 -78z" />
<glyph unicode="1" horiz-adv-x="379" d="M12 289l19 157l278 76l26 -20l-46 -292l-18 -210h-197l32 190l13 110l-96 -20z" />
<glyph unicode="2" horiz-adv-x="490" d="M2 4l15 117l140 111q97 76 97 104q0 22 -33 22q-58 0 -133 -50h-21l-14 151q120 63 221 63q79 0 129.5 -34.5t50.5 -96.5q0 -40 -29.5 -83t-101.5 -109l-50 -47l3 -5h78l98 10l8 -12l-40 -153l-143 8h-230l-37 -3z" />
<glyph unicode="3" horiz-adv-x="453" d="M-12 -82l7 143l15 12q66 -20 119 -20q91 0 91 51q0 30 -43 30h-84l-6 12l21 134l60 3q22 1 42.5 17t20.5 37q0 30 -41 30q-42 0 -115 -33h-20l-12 135q104 55 201 55q84 0 138 -37.5t54 -95.5q0 -42 -29 -87t-79 -69v-6q41 -23 60 -49.5t19 -68.5q0 -91 -80 -147.5 t-213 -56.5q-71 0 -126 11z" />
<glyph unicode="4" horiz-adv-x="528" d="M-9 44l15 123l279 347h179l-45 -333h69l9 -17l-24 -136l-69 2l-6 -103l-12 -13l-153 -9l-8 12l19 115h-130l-113 -4zM175 181h92l15 120h-11z" />
<glyph unicode="5" horiz-adv-x="448" d="M-21 -81l7 139l13 13q64 -19 127 -19q44 0 68.5 15t24.5 42q0 34 -56 43l-107 18l-10 14l39 314l21 20l63 -4h161l117 8l9 -12l-36 -147l-15 -14l-109 15h-80l-8 -62l59 -13q140 -31 140 -145q0 -106 -84.5 -172.5t-216.5 -66.5q-60 0 -127 14z" />
<glyph unicode="6" horiz-adv-x="500" d="M15 198q0 121 88 225t246 175h9l113 -86l-2 -18q-157 -46 -222 -122l5 -7q29 11 59 11q75 0 119 -52t44 -122q0 -85 -64 -149.5t-178 -64.5q-102 0 -159.5 56t-57.5 154zM190 197q0 -46 11 -65.5t38 -19.5q28 0 43 20t15 53q0 56 -50 56q-25 0 -56 -10q-1 -11 -1 -34z " />
<glyph unicode="7" horiz-adv-x="450" d="M23 357l32 162l138 -5h210l58 2l-18 -141l-167 -287l-93 -185l-149 43l-9 30l228 378h-110l-113 -12z" />
<glyph unicode="8" horiz-adv-x="516" d="M24 135q0 51 28.5 84.5t88.5 55.5l1 8q-74 46 -74 132q0 82 62.5 132.5t166.5 50.5q90 0 141 -39t51 -106q0 -85 -95 -140l-1 -8q81 -49 81 -132t-63 -134t-168 -51q-102 0 -160.5 40t-58.5 107zM186 165q0 -50 61 -50q33 0 50.5 14t17.5 33q0 21 -18.5 35t-53.5 28 q-57 -21 -57 -60zM227 423q0 -21 16 -35t50 -28q42 33 42 65q0 42 -52 42q-27 0 -41.5 -12.5t-14.5 -31.5z" />
<glyph unicode="9" horiz-adv-x="500" d="M31 311q0 85 64 149.5t178 64.5q102 0 159.5 -56t57.5 -154q0 -121 -88 -225t-246 -175h-9l-113 86l2 18q157 46 222 122l-5 7q-29 -11 -59 -11q-75 0 -119 52t-44 122zM208 328q0 -56 50 -56q25 0 56 10q1 11 1 34q0 46 -11 65.5t-38 19.5q-28 0 -43 -20t-15 -53z" />
<glyph unicode=":" horiz-adv-x="230" d="M0 86q0 47 27.5 75t74.5 28q44 0 68 -25t24 -69q0 -48 -27 -76t-73 -28t-70 24.5t-24 70.5zM32 341q0 47 27.5 75t74.5 28q44 0 68 -25t24 -69q0 -48 -27 -76t-73 -28t-70 24.5t-24 70.5z" />
<glyph unicode=";" horiz-adv-x="229" d="M-25 -75q56 49 56 109q0 42 -33 74l1 16q72 40 143 58q48 -45 48 -106q0 -113 -152 -218l-61 53zM26 341q0 47 27 75t74 28q44 0 68.5 -25t24.5 -69q0 -48 -27 -76t-74 -28q-93 0 -93 95z" />
<glyph unicode="&#x3c;" horiz-adv-x="492" d="M31 178l19 155l14 17l381 130l26 -111l-9 -12l-288 -93l-1 -9l265 -91l-39 -108l-18 -13z" />
<glyph unicode="=" horiz-adv-x="478" d="M4 97l9 116h430l12 -13l-9 -116h-430zM30 309l9 117h430l12 -13l-9 -117h-430z" />
<glyph unicode="&#x3e;" horiz-adv-x="503" d="M42 164l288 91l1 9l-267 93l-5 12l53 111l349 -130l10 -17l-19 -155l-383 -135l-15 13z" />
<glyph unicode="?" horiz-adv-x="352" d="M56 86q0 47 27.5 75t74.5 28q43 0 67.5 -25t24.5 -69q0 -48 -27 -76t-73 -28t-70 24.5t-24 70.5zM73 569l46 99l18 9q136 -6 208.5 -45.5t72.5 -108.5q0 -47 -31 -88t-87 -68l-62 -30l-3 -6l-2 -71l-138 -20l-11 12l4 136l8 11l88 36q55 22 55 59q0 25 -34 38.5 t-120 19.5z" />
<glyph unicode="@" horiz-adv-x="866" d="M19 183q0 204 130.5 340t341.5 136q166 0 265 -88.5t99 -243.5q0 -157 -108.5 -241t-310.5 -84l14 104h-15q-36 -70 -71 -111h-21q-74 18 -102 57t-28 102q0 94 58 179.5t169 122.5h6l91 -15l103 21l11 -8l-43 -322q56 13 89.5 65t33.5 124q0 105 -72 164.5t-192 54.5 q-145 -6 -233.5 -100t-88.5 -236q0 -152 103 -237.5t276 -85.5l6 -17l-49 -89q-213 0 -337.5 106.5t-124.5 301.5zM368 223q0 -74 20 -74q27 0 87 147l3 22l-64 16q-46 0 -46 -111z" />
<glyph unicode="A" d="M-27 0l276 647h241l97 -647h-202l-4 107v4l-99 2l-83 -4l-31 -109h-195zM255 256l57 -1l56 1l-18 213h-12z" />
<glyph unicode="B" horiz-adv-x="630" d="M33 0l33 190l46 457l278 1q104 0 164.5 -38.5t60.5 -112.5q0 -51 -30 -95t-88 -69q57 -23 80.5 -54t23.5 -83q0 -101 -84 -152t-266 -51q-57 0 -218 7zM236 128q50 -4 63 -4q46 0 73 20.5t27 55.5q0 22 -12 34t-39 22l-99 -2l-6 -44zM268 383l75 -3q66 19 66 80 q0 32 -21.5 44t-82.5 12h-17z" />
<glyph unicode="C" horiz-adv-x="516" d="M25 263q0 186 96.5 290.5t274.5 104.5q95 0 168 -27l-53 -159l-14 -7q-54 31 -119 31q-76 0 -107.5 -48t-31.5 -153q0 -73 26.5 -107t82.5 -34q66 0 127 21l14 -9l-35 -158q-62 -19 -132 -19q-144 0 -220.5 71t-76.5 203z" />
<glyph unicode="D" horiz-adv-x="668" d="M32 0l33 190l46 457l283 4q128 0 199.5 -66t71.5 -188q0 -191 -98 -298.5t-282 -107.5q-114 0 -253 9zM244 147q60 -8 87 -8q123 0 123 229q0 69 -20.5 98.5t-66.5 29.5q-37 0 -76 -4l-42 -282z" />
<glyph unicode="E" horiz-adv-x="540" d="M31 0l33 190l47 457h463l9 -14l-31 -145l-158 6h-103l-13 -92h98l105 3l9 -14l-30 -146l-115 3h-90l-6 -38l-5 -57h96l167 6l9 -14l-30 -145h-455z" />
<glyph unicode="F" horiz-adv-x="480" d="M31 0l33 190l47 457h431l9 -14l-31 -145l-158 6h-71l-17 -117h67l117 3l9 -14l-30 -145l-127 3h-59q-5 -42 -11.5 -123t-8.5 -101h-200z" />
<glyph unicode="G" horiz-adv-x="599" d="M24 258q0 193 103.5 296.5t298.5 103.5q117 0 193 -30l-64 -176h-16q-88 47 -160 47q-36 0 -60.5 -9t-45 -34t-30.5 -73.5t-10 -122.5q0 -69 25 -95.5t85 -26.5q14 0 36 4l4 33l10 109l184 13l-14 -88l-22 -177q-119 -44 -225 -44q-141 0 -216.5 71t-75.5 199z" />
<glyph unicode="H" horiz-adv-x="711" d="M31 0l34 190l46 457h203l-36 -245l101 -2l93 2l25 245h203l-65 -437l-18 -210h-200l34 190l5 50l-108 2l-95 -3l-4 -29l-18 -210h-200z" />
<glyph unicode="I" horiz-adv-x="327" d="M31 0l34 190l46 457h203l-65 -437l-18 -210h-200z" />
<glyph unicode="J" horiz-adv-x="362" d="M-17 -9l2 15q53 25 76.5 52.5t28.5 71.5q9 73 24 214.5t17 162.5l-83 -3l-9 13l24 130h285l-66 -434l-8 -89q-13 -94 -67.5 -146.5t-183.5 -89.5z" />
<glyph unicode="K" horiz-adv-x="629" d="M31 0l34 190l46 457h203l-40 -271l149 201l43 70h211l-229 -317q69 -128 174 -288l-5 -22q-109 -24 -203 -32l-21 12q-80 175 -131 298l-13 -88l-18 -210h-200z" />
<glyph unicode="L" horiz-adv-x="452" d="M27 0l33 190l46 457h203l-64 -437l-4 -47h191l9 -14l-29 -149h-385z" />
<glyph unicode="M" horiz-adv-x="806" d="M-3 0l142 647h231l8 -92l29 -236h12l91 229l36 99h227l-27 -647h-176l20 196l9 165h-12l-143 -300h-150l-50 300h-12l-33 -146l-35 -215h-167z" />
<glyph unicode="N" horiz-adv-x="710" d="M32 0l33 190l46 457h217l141 -348h12l36 341l184 11l-65 -440l-18 -211h-217l-140 348h-12l-15 -114l-21 -234h-181z" />
<glyph unicode="O" horiz-adv-x="658" d="M24 276q0 171 94 277t262 106q131 0 202.5 -70.5t71.5 -214.5q0 -172 -93.5 -279t-261.5 -107q-131 0 -203 71.5t-72 216.5zM233 273q0 -79 17.5 -108.5t69.5 -29.5q29 0 49.5 9t38.5 32t27 69.5t9 116.5q0 79 -17.5 108.5t-69.5 29.5q-61 0 -92.5 -47t-31.5 -180z" />
<glyph unicode="P" horiz-adv-x="593" d="M32 0l33 190l46 457l296 1q100 0 156.5 -46.5t56.5 -130.5q0 -128 -86.5 -208t-227.5 -80h-58l-16 -183h-200zM267 327l74 -4q67 34 67 115q0 68 -78 72l-36 -3z" />
<glyph unicode="Q" horiz-adv-x="662" d="M24 276q0 171 95 277t264 106q131 0 201 -70.5t70 -214.5q0 -114 -43.5 -202.5t-124.5 -136.5q100 -57 212 -96l6 -18q-50 -77 -111 -126l-14 -7q-159 85 -280 200h-3q-131 0 -201.5 71.5t-70.5 216.5zM233 273q0 -79 17.5 -108.5t69.5 -29.5q29 0 49.5 9t38.5 32 t27 69.5t9 116.5q0 79 -17.5 108.5t-69.5 29.5q-61 0 -92.5 -47t-31.5 -180z" />
<glyph unicode="R" horiz-adv-x="630" d="M31 0l34 190l46 457l296 1q100 0 157.5 -45.5t57.5 -127.5q0 -68 -34.5 -126.5t-97.5 -98.5q61 -115 116 -203l-5 -22q-106 -31 -205 -37l-17 16q-51 150 -63 189h-68l-17 -193h-200zM268 339l73 -4q67 28 67 107q0 34 -18.5 50t-59.5 18l-37 -3z" />
<glyph unicode="S" horiz-adv-x="528" d="M-3 26l48 173l21 12q43 -36 93 -56t86 -20q55 0 55 36q0 20 -25 37.5t-60 33t-70.5 36t-60.5 57t-25 85.5q0 101 83 170t208 69q96 0 185 -35l-50 -162l-28 -12q-85 56 -143 56q-25 0 -39.5 -10.5t-14.5 -25.5q0 -19 25 -35.5t61 -33t72 -37t61 -57.5t25 -85 q0 -98 -83 -166t-213 -68q-103 0 -211 38z" />
<glyph unicode="T" horiz-adv-x="518" d="M40 502l29 145h482l9 -14l-28 -145l-131 6h-13l-40 -284l-18 -210h-199l34 190l32 304h-13l-134 -6z" />
<glyph unicode="U" horiz-adv-x="653" d="M45 173q0 21 3 43l15 103l34 328h200l-58 -404q-2 -20 -2 -27q0 -37 18 -54t59 -17q47 0 71 23t29 75l40 404h203l-47 -328l-13 -103q-14 -111 -90 -169.5t-210 -58.5q-119 0 -185.5 48t-66.5 137z" />
<glyph unicode="V" horiz-adv-x="615" d="M55 647h202l5 -107l32 -362h11l135 350l34 119h195l-275 -647h-241z" />
<glyph unicode="W" horiz-adv-x="914" d="M68 647h194l-2 -100l21 -346h11l111 296l-16 150h203l-1 -121l28 -325h11l120 334l32 112h184l-270 -647h-212l-32 234h-11l-86 -234h-213z" />
<glyph unicode="X" horiz-adv-x="634" d="M-27 0l230 321l-153 326h236l25 -81l44 -103l80 114l39 70h208l-223 -315l150 -332h-235l-24 79l-45 106l-89 -116l-41 -69h-202z" />
<glyph unicode="Y" horiz-adv-x="594" d="M43 647h208l9 -54l49 -196h12l109 189l30 61h204l-285 -443l-6 -34l-12 -170h-199l30 170l3 37z" />
<glyph unicode="Z" horiz-adv-x="569" d="M-2 -6l18 142l325 364h-158l-121 -10l-6 8l33 152l150 -3h274l75 1l-18 -143l-319 -358h161l124 9l5 -9l-35 -152l-176 5h-230z" />
<glyph unicode="[" horiz-adv-x="302" d="M16 -113l57 376l36 376l246 10l6 -9l-11 -86l-97 -14l-67 -554l93 -15l-11 -85l-8 -9z" />
<glyph unicode="\" horiz-adv-x="455" d="M58 667l15 16h130l208 -786l-11 -15h-134z" />
<glyph unicode="]" horiz-adv-x="302" d="M-52 -114l11 85l96 15l68 554l-93 14l11 86l8 9l244 -10l-57 -376l-36 -376l-246 -10z" />
<glyph unicode="^" horiz-adv-x="460" d="M2 151l172 340l18 11h155l93 -341l-15 -16l-111 -26l-60 252h-9l-124 -253l-14 -7z" />
<glyph unicode="_" horiz-adv-x="438" d="M-68 -197l22 106h447l10 -13l-22 -106h-447z" />
<glyph unicode="`" horiz-adv-x="390" d="M98 647l69 106l17 1q102 -87 201 -160l-44 -72l-17 -1q-81 37 -223 109z" />
<glyph unicode="a" horiz-adv-x="488" d="M8 157q0 64 24 124.5t80 115t136 81.5h7l97 -17l109 23l11 -8l-47 -360l-4 -109l-177 -11l15 110h-16q-35 -71 -74 -117h-23q-78 19 -108 60.5t-30 107.5zM172 231q0 -79 21 -79q29 0 93 157l3 22l-68 17q-49 0 -49 -117z" />
<glyph unicode="b" horiz-adv-x="490" d="M19 27l73 553l4 113l177 11l-46 -347h16q35 67 79 121h23q75 -19 105.5 -59t30.5 -108q0 -102 -61 -193t-174 -129h-7q-109 19 -220 38zM198 138l75 -20q45 0 45 120q0 83 -20 83q-27 0 -96 -154z" />
<glyph unicode="c" horiz-adv-x="379" d="M10 181q0 127 72 213.5t211 86.5l89 -26l4 -18l-51 -129l-39 -1q-12 16 -18 22.5t-15 11.5t-21 5q-33 0 -47 -31.5t-14 -98.5q0 -75 35 -75q15 0 28 12.5t33 47.5l23 -1l56 -70q-32 -56 -69 -88t-93 -52h-23q-87 13 -124 60t-37 131z" />
<glyph unicode="d" horiz-adv-x="486" d="M7 155q0 100 62.5 192t181.5 131h7l47 -8l15 110l4 113l177 11l-78 -588l-4 -109l-177 -11l15 112h-13q-38 -72 -77 -119h-23q-78 19 -107.5 60t-29.5 106zM170 227q0 -77 21 -77q29 0 91 145l5 37l-64 17q-53 0 -53 -122z" />
<glyph unicode="e" horiz-adv-x="436" d="M12 183q0 131 73.5 212.5t201.5 88.5l16 -2q121 -24 121 -128q0 -60 -56 -102t-187 -74q4 -29 16.5 -41.5t35.5 -12.5q51 0 93 63l22 -3l56 -72q-76 -91 -186 -123h-16q-100 11 -145 59.5t-45 134.5zM179 276q48 10 68.5 25t20.5 42q0 28 -27 28q-55 0 -62 -95z" />
<glyph unicode="f" horiz-adv-x="336" d="M25 373l12 90h69v3q13 117 81 176.5t183 59.5l113 -14l9 -14l-47 -120l-23 -8q-55 29 -83 29q-42 0 -52 -67l-6 -45h93l12 -14l-13 -87h-107l-22 -152l-25 -198l-4 -109l-177 -11l39 298l18 172h-62z" />
<glyph unicode="g" horiz-adv-x="481" d="M-52 -31l4 11l132 55l1 12q-58 42 -58 132q0 98 60 181t171 119h6l92 -16l99 21l11 -8l-46 -343l-3 -83q-15 -118 -90.5 -182t-179.5 -64q-90 0 -139 45.5t-60 119.5zM128 -32q0 -17 12 -29t37 -12q67 0 73 72l18 135h-13q-40 -67 -88 -117l-23 -20q-16 -14 -16 -29z M176 240q0 -73 22 -73q30 0 95 150l3 26l-63 15q-57 0 -57 -118z" />
<glyph unicode="h" horiz-adv-x="527" d="M14 -4l79 584l3 113l178 11l-48 -359h17q57 74 114 128l13 1q63 -11 99 -40.5t35 -70.5q-6 -48 -20.5 -134.5t-18.5 -109.5l-4 -112l-181 -11l42 264l2 10q0 22 -17 22q-35 0 -103 -111l-9 -65l-3 -109z" />
<glyph unicode="i" horiz-adv-x="259" d="M15 -4l47 356l4 113l177 11l-46 -360l-5 -109zM78 627q0 48 27.5 75.5t74.5 27.5q44 0 68 -24.5t24 -69.5q0 -48 -27 -76t-73 -28t-70 24.5t-24 70.5z" />
<glyph unicode="j" horiz-adv-x="286" d="M-52 -115l2 16q78 37 91 125l43 321l-2 15h-63l-7 11l13 90h73l165 13l4 -4l-49 -354l-8 -82q-10 -80 -59.5 -136t-146.5 -95zM82 627q0 48 27.5 75.5t74.5 27.5q44 0 68 -24.5t24 -69.5q0 -48 -27 -76t-73 -28t-70 24.5t-24 70.5z" />
<glyph unicode="k" horiz-adv-x="540" d="M14 -4l79 584l3 113l178 11l-48 -359h17q48 59 126 128l13 1q133 -24 133 -125q0 -90 -106 -169q29 -65 80 -160l-9 -13l-149 -19l-17 8q-44 116 -60 174l6 23q32 19 53.5 43.5t21.5 41.5t-16 17q-44 0 -115 -113l-9 -66l-3 -109z" />
<glyph unicode="l" horiz-adv-x="258" d="M14 -4l79 584l3 113l178 11l-79 -588l-3 -109z" />
<glyph unicode="m" horiz-adv-x="798" d="M15 -4l47 356l4 113l177 11l-17 -131h16q57 74 114 128l13 1q62 -11 98 -40.5t35 -70.5l-1 -14l-1 -4h14q53 70 112 128l13 1q63 -11 99.5 -40.5t35.5 -70.5q-6 -48 -20.5 -134.5t-18.5 -109.5l-3 -112l-182 -11l43 264l1 10q0 22 -16 22t-44 -28.5t-61 -84.5l-10 -60 l-3 -112l-182 -11l43 264l1 10q0 22 -16 22q-34 0 -101 -107l-9 -69l-4 -109z" />
<glyph unicode="n" horiz-adv-x="525" d="M15 -4l47 356l4 113l177 11l-17 -131h15q57 74 114 128l13 1q57 -11 96 -41t38 -70q-6 -48 -20.5 -134.5t-18.5 -109.5l-4 -112l-182 -11l44 264l1 10q0 22 -17 22q-33 0 -100 -105l-9 -71l-4 -109z" />
<glyph unicode="o" horiz-adv-x="468" d="M12 183q0 133 74.5 213t203.5 88l16 -2q70 -16 110 -61.5t40 -119.5q0 -142 -74 -224t-204 -89l-16 2q-150 34 -150 193zM182 179q0 -34 6.5 -46.5t25.5 -12.5q44 0 57 36t13 134q0 33 -6 45.5t-23 12.5q-46 0 -59.5 -36t-13.5 -133z" />
<glyph unicode="p" horiz-adv-x="490" d="M-10 -196l72 548l4 113l177 11l-16 -119h18q37 71 79 121h23q74 -19 104.5 -59t30.5 -108q0 -102 -61 -193t-174 -129h-7l-59 11l-10 -76l-4 -109zM199 138l76 -20q45 0 45 120q0 83 -21 83q-29 0 -97 -158z" />
<glyph unicode="q" horiz-adv-x="490" d="M7 155q0 100 62.5 192t181.5 131h7l97 -17l108 23l11 -8l-72 -552l-4 -109l-177 -11l40 304h-17q-38 -72 -77 -119h-23q-78 19 -107.5 60t-29.5 106zM170 227q0 -77 21 -77q31 0 97 158l3 24l-67 17q-54 0 -54 -122z" />
<glyph unicode="r" horiz-adv-x="385" d="M15 -4l47 356l4 113l177 11l-16 -124h17q54 83 125 123l29 -5l-28 -216l-16 -7l-36 7q-60 -4 -111 -51l-11 -87l-4 -109z" />
<glyph unicode="s" horiz-adv-x="385" d="M-13 15l42 145l18 9q28 -32 63 -50.5t62 -18.5q13 0 19.5 6t6.5 13q0 13 -26 29.5t-57.5 32.5t-57.5 48t-25 71q3 83 70.5 131.5t162.5 48.5q61 -6 121 -24l-41 -138l-23 -9q-56 56 -106 56q-24 0 -24 -19q0 -15 25.5 -31t55.5 -30t55.5 -46t25.5 -76q0 -76 -65.5 -125 t-161.5 -49q-76 8 -140 26z" />
<glyph unicode="t" horiz-adv-x="366" d="M23 373l11 90h70l10 97l169 38l12 -10l-19 -125h98l12 -14l-11 -87h-114l-30 -196l-1 -9q0 -9 10 -9q14 0 32 30l23 -1l49 -61q-52 -78 -114 -124l-18 -2q-81 9 -116.5 34t-37.5 83q1 13 36 255h-62z" />
<glyph unicode="u" horiz-adv-x="514" d="M18 105q6 49 21 136.5t18 109.5l4 112l181 11l-42 -262l-1 -13q0 -23 18 -23q29 0 89 95l11 81l4 113l177 11l-47 -360l-4 -109l-177 -11l16 121h-13q-51 -70 -104 -120l-13 -1q-64 7 -101 36.5t-37 72.5z" />
<glyph unicode="v" horiz-adv-x="471" d="M31 466l177 10v-91l11 -203h14l47 109q25 58 25 95q0 30 -13 56l8 17l162 20q14 -40 14 -78q0 -68 -47 -154l-134 -247h-204z" />
<glyph unicode="w" horiz-adv-x="743" d="M31 466l175 10v-87l3 -191h15l60 179l27 95h188l1 -83l5 -190h14l36 92q25 62 25 95q0 30 -13 56l8 17l162 20q14 -40 14 -78q0 -64 -46 -154l-125 -247h-197l-11 234h-15l-78 -234h-194z" />
<glyph unicode="x" horiz-adv-x="502" d="M-31 0l160 242l-89 225l193 15l13 -56l25 -70l37 66l22 50h186l-160 -239l104 -229l-200 -13l-12 69l-21 69l-38 -64l-27 -65h-193z" />
<glyph unicode="y" horiz-adv-x="483" d="M-55 -36l14 16q50 -13 90 -13q46 0 89 19l-107 480l178 10l7 -91l27 -200h14l35 87q25 61 25 110q0 34 -13 60l8 17l162 20q14 -40 14 -78q0 -66 -44 -154l-91 -181q-74 -147 -141 -205.5t-154 -58.5q-54 0 -104 18z" />
<glyph unicode="z" horiz-adv-x="446" d="M-28 41l225 285l-70 -3l-76 -15l-14 12l30 153l17 11l105 -8l167 -6l41 23l50 -51l-237 -296l25 7h38q28 0 39.5 10.5t17.5 49.5l21 6l69 -18q-1 -115 -39 -163t-106 -48q-37 0 -92 16.5t-75 16.5q-27 0 -62 -31h-22z" />
<glyph unicode="{" horiz-adv-x="303" d="M26 234l11 87q64 26 64 83q0 13 -3.5 49t-3.5 57q0 72 46 110.5t131 38.5q41 0 78 -12l5 -13l-26 -95q-18 5 -33 5q-25 0 -38.5 -15.5t-13.5 -41.5q0 -14 6 -46t6 -48q0 -34 -21.5 -64t-61.5 -48l-1 -7q58 -30 58 -91q0 -25 -20.5 -68t-20.5 -63q0 -41 42 -41q14 0 34 5 l3 -95l-9 -13q-40 -12 -81 -12q-70 0 -107.5 28.5t-37.5 80.5q0 37 20.5 91.5t20.5 74.5q0 42 -47 63z" />
<glyph unicode="|" horiz-adv-x="300" d="M17 -240q66 523 129 1039l137 11l12 -13q-68 -494 -132 -1042l-133 -11z" />
<glyph unicode="}" horiz-adv-x="302" d="M-41 -79l26 95q18 -5 33 -5q52 0 52 57q0 14 -6.5 46t-6.5 48q0 34 21.5 64t61.5 48l1 7q-58 30 -58 91q0 26 20.5 68t20.5 62q0 42 -41 42q-14 0 -34 -5l-3 95l9 13q41 12 81 12q70 0 107.5 -28.5t37.5 -80.5q0 -37 -20.5 -91.5t-20.5 -74.5q0 -42 47 -63l-11 -87 q-64 -26 -64 -83q0 -13 3 -49t3 -57q0 -72 -45.5 -110.5t-130.5 -38.5q-40 0 -78 12z" />
<glyph unicode="~" horiz-adv-x="480" d="M3 214l2 16l107 115l16 7q26 -5 109 -31t101 -26q5 0 10.5 1.5t12 5.5t11.5 7t13 10.5t11.5 11t13.5 13t13 12.5h16l42 -63l-2 -16l-105 -115l-17 -5q-30 4 -111.5 29.5t-97.5 25.5q-13 0 -29.5 -10.5t-24.5 -18.5l-31 -31h-16z" />
<glyph unicode="&#xa1;" horiz-adv-x="286" d="M-12 -174l100 390l110 16l17 -18l-30 -378l-19 -22l-158 -11zM72 380q0 48 27 76t73 28t70 -24.5t24 -70.5q0 -47 -27.5 -75t-74.5 -28q-44 0 -68 25t-24 69z" />
<glyph unicode="&#xa2;" horiz-adv-x="384" d="M13 224q0 101 47.5 177t140.5 103l22 156h94l15 -14l-19 -134l73 -20l6 -17l-45 -118l-36 -1q-18 20 -30.5 28.5t-29.5 8.5q-81 0 -81 -137q0 -46 11 -67t36 -21q35 0 73 64l21 -1l54 -65q-50 -84 -121 -119l-25 -174h-97l-11 14l21 152q-63 19 -91 64t-28 121z" />
<glyph unicode="&#xa3;" horiz-adv-x="479" d="M-15 9l20 107q41 10 60 31.5t24 59.5l5 42h-74l-3 9l18 95h71l4 39q11 99 82 152t189 53q60 0 119 -13l-25 -134l-14 -8q-67 32 -111 32q-58 0 -65 -51l-10 -70h126l4 -9l-19 -95h-125l-5 -33q-6 -57 -47 -85v-5h120l111 8l4 -8l-28 -131l-154 5h-272z" />
<glyph unicode="&#xa4;" horiz-adv-x="434" d="M-17 191l3 16l77 59q-9 24 -9 56q0 44 23 85l-63 55v17l94 89l16 -1l51 -71q37 16 74 16q32 0 63 -13l66 72l18 3l78 -84l-2 -16l-79 -61q9 -26 9 -57q0 -40 -22 -82l65 -55l1 -17l-95 -88h-16l-50 71q-37 -19 -78 -19q-33 0 -66 15l-62 -70l-18 -3zM155 329 q0 -29 16.5 -45.5t47.5 -16.5q37 0 59.5 22.5t22.5 59.5q0 29 -17 45.5t-47 16.5q-37 0 -59.5 -22.5t-22.5 -59.5z" />
<glyph unicode="&#xa5;" horiz-adv-x="585" d="M20 108l14 77h150l-22 55h-120l-5 9l15 77h77l-72 185h178l9 -45l51 -145h10l96 139l26 51h173l-127 -185h80l7 -7l-16 -79h-129l-38 -55h158l7 -7l-14 -79h-182l-7 -99h-169l19 99h-164z" />
<glyph unicode="&#xa6;" horiz-adv-x="300" d="M17 -240l48 386l132 15l13 -16l-47 -390l-133 -11zM94 376l52 423l137 11l12 -13l-55 -415l-135 -17z" />
<glyph unicode="&#xa7;" horiz-adv-x="465" d="M-9 -68l37 135l17 11q33 -28 73.5 -45t70.5 -17q21 0 31.5 7.5t10.5 17.5q0 12 -21.5 24t-52 24.5t-61 29.5t-52 46.5t-21.5 68.5q0 48 30.5 91t82.5 69q-48 38 -48 93q0 71 67.5 121t165.5 50q77 0 140 -25l-34 -129l-22 -7q-65 43 -118 43q-18 0 -29 -7t-11 -16 q0 -14 32.5 -30.5t71.5 -31.5t71.5 -49.5t32.5 -81.5q0 -48 -31.5 -90.5t-85.5 -67.5q51 -39 51 -94q0 -71 -66 -119.5t-163 -48.5q-87 0 -169 28zM182 281q0 -32 62 -64q51 25 51 60q0 20 -16 34.5t-47 29.5q-50 -24 -50 -60z" />
<glyph unicode="&#xa8;" horiz-adv-x="390" d="M62 626q0 42 23.5 65.5t64.5 23.5q38 0 59.5 -21t21.5 -60q0 -42 -23.5 -66.5t-64.5 -24.5q-81 0 -81 83zM255 626q0 42 24 65.5t65 23.5q38 0 59 -21.5t21 -59.5q0 -42 -23.5 -66.5t-63.5 -24.5t-61 21.5t-21 61.5z" />
<glyph unicode="&#xa9;" horiz-adv-x="695" d="M50 293q0 137 83.5 221t220.5 84t221 -84t84 -221t-84 -221t-221 -84t-220.5 84t-83.5 221zM112 293q0 -109 67 -176.5t175 -67.5q109 0 176 67.5t67 176.5t-67 176.5t-176 67.5q-108 0 -175 -67.5t-67 -176.5zM199 292q0 81 48.5 126.5t136.5 45.5q37 0 84 -9l-22 -100 l-7 -5q-25 12 -60 12q-26 0 -36.5 -11.5t-10.5 -43.5q0 -40 13 -58t43 -18t58 5l10 -6l-10 -99q-12 -2 -68 -2q-179 0 -179 163z" />
<glyph unicode="&#xaa;" horiz-adv-x="337" d="M36 427q0 72 43 134.5t125 86.5h5l67 -11l66 14l8 -5l-33 -247l-3 -75l-110 -7l12 95h-10q-32 -62 -66 -99h-15q-50 13 -69.5 41t-19.5 73zM138 471q0 -60 17 -60q24 0 78 125l3 22l-48 11q-50 0 -50 -98z" />
<glyph unicode="&#xab;" horiz-adv-x="466" d="M29 221l4 27l147 177l85 -47l2 -17l-96 -131l64 -130l-6 -17l-96 -47zM234 221l4 27l147 177l85 -47l2 -17l-96 -131l64 -130l-6 -17l-96 -47z" />
<glyph unicode="&#xac;" horiz-adv-x="481" d="M11 203l24 117h410l5 -9l-34 -273l-117 -9l-12 12l19 149h-284z" />
<glyph unicode="&#xad;" horiz-adv-x="300" d="M19 182l14 120l239 38l12 -14l-13 -120l-240 -38z" />
<glyph unicode="&#xae;" horiz-adv-x="454" d="M35 511q0 86 53 139t139 53t139 -53t53 -139t-53 -139t-139 -53t-139 53t-53 139zM77 511q0 -67 41.5 -108.5t108.5 -41.5t108.5 41.5t41.5 108.5t-41.5 108.5t-108.5 41.5t-108.5 -41.5t-41.5 -108.5zM146 419l3 56l-3 140l100 1q35 0 54.5 -16.5t19.5 -46.5 q0 -36 -36 -58q25 -35 48 -62l-1 -7q-19 -7 -62 -11l-8 5q-17 30 -29 56h-25l3 -57h-64zM208 521l27 -2q18 11 18 29q0 21 -30 22l-13 -1z" />
<glyph unicode="&#xaf;" horiz-adv-x="390" d="M95 584l9 106h276l12 -12l-9 -107h-276z" />
<glyph unicode="&#xb0;" horiz-adv-x="293" d="M46 510q0 61 45.5 105t106.5 44q52 0 86 -35t34 -86q0 -61 -46 -105t-107 -44q-51 0 -85 35t-34 86zM125 517q0 -23 13.5 -36t36.5 -13q27 0 45 17.5t18 45.5q0 22 -13.5 35.5t-35.5 13.5q-28 0 -46 -17.5t-18 -45.5z" />
<glyph unicode="&#xb1;" horiz-adv-x="479" d="M-24 -132l9 117h430l12 -13l-9 -116h-430zM10 203l23 117h152l18 152l118 9l12 -12l-18 -149h147l11 -13l-24 -117h-150l-19 -152l-118 -9l-12 12l19 149h-149z" />
<glyph unicode="&#xb2;" horiz-adv-x="375" d="M36 310l10 84l101 89q60 54 69 70q6 10 6 18q0 18 -24 18q-43 0 -96 -40h-16l-12 108q98 50 176 50q55 0 90 -24t35 -68q0 -32 -22 -67t-75 -89l-40 -41l2 -3h57l72 7l6 -9l-29 -112l-108 6h-170l-26 -2z" />
<glyph unicode="&#xb3;" horiz-adv-x="337" d="M36 307l3 102l11 8q46 -13 86 -13q61 0 61 26q0 15 -26 15h-62l-6 8l13 95l33 2q51 2 51 30q0 16 -29 16q-26 0 -80 -19h-15l-12 95q75 36 154 36q61 0 98 -25.5t37 -66.5q0 -64 -73 -100v-4q58 -19 58 -77q0 -62 -60 -99t-157 -37q-45 0 -85 8z" />
<glyph unicode="&#xb4;" horiz-adv-x="390" d="M98 594q99 73 201 160l17 -1l69 -106l-3 -17q-142 -72 -223 -109l-17 1z" />
<glyph unicode="&#xb5;" horiz-adv-x="522" d="M-9 -194l72 546l4 113l177 11q-3 -26 -16.5 -128t-20.5 -157q1 -15 18 -15q29 0 89 95l11 81l4 113l177 11l-47 -360l-4 -109l-177 -11l16 121h-13q-46 -64 -99 -114l-10 -77l-4 -109z" />
<glyph unicode="&#xb6;" horiz-adv-x="564" d="M31 391q0 121 80 188.5t224 67.5h260l10 -13l-29 -134h-59l-43 -287l-6 -69q-11 -88 -68.5 -142.5t-191.5 -96.5l-39 89l2 16q56 26 81 54t31 73q9 70 22.5 205.5t15.5 158.5h-32q-49 -22 -49 -105q0 -60 34 -109l-81 -97q-78 22 -120 74.5t-42 126.5z" />
<glyph unicode="&#xb7;" horiz-adv-x="230" d="M20 256q0 48 27.5 75.5t74.5 27.5q44 0 68 -24.5t24 -69.5q0 -48 -27 -76t-73 -28t-70 24.5t-24 70.5z" />
<glyph unicode="&#xb8;" horiz-adv-x="390" d="M46 -185l11 75l8 3q33 -28 60 -28q16 0 16 14q0 9 -12 15l-50 27l22 112h83l-14 -76l34 -19q44 -23 44 -63q0 -37 -29.5 -60.5t-80.5 -23.5q-49 0 -92 24z" />
<glyph unicode="&#xb9;" horiz-adv-x="295" d="M40 542l14 112l219 52l19 -14l-37 -244l-11 -141h-149l21 127l14 114l-81 -12z" />
<glyph unicode="&#xba;" horiz-adv-x="323" d="M38 442q0 92 51 148t138 61l11 -1q101 -20 101 -121q0 -98 -50 -155t-139 -62l-10 2q-102 19 -102 128zM144 441q0 -28 6 -39t22 -11q35 0 48 30.5t13 99.5q0 28 -5.5 38.5t-20.5 10.5q-36 0 -49.5 -30t-13.5 -99z" />
<glyph unicode="&#xbb;" horiz-adv-x="466" d="M-6 103l96 131l-64 130l6 17l96 47l104 -185l-4 -27l-147 -177l-85 47zM200 103l96 131l-64 130l6 17l96 47l103 -185l-4 -27l-147 -177l-84 47z" />
<glyph unicode="&#xbc;" horiz-adv-x="796" d="M35 489l14 112l219 52l19 -14l-37 -244l-11 -141h-149l21 127l14 114l-81 -12zM49 -27l552 721l71 -47l7 -24l-551 -717l-75 50zM406 80l10 88l194 225h135l-30 -215h49l6 -12l-18 -97l-46 1l-3 -61l-9 -9l-115 -6l-7 8l11 70h-86l-84 -3zM541 178h58l7 65h-8z" />
<glyph unicode="&#xbd;" horiz-adv-x="834" d="M35 489l14 112l219 52l19 -14l-37 -244l-11 -141h-149l21 127l14 114l-81 -12zM49 -27l552 721l71 -47l7 -24l-551 -717l-75 50zM458 3l10 84l101 89q60 54 69 70q6 10 6 18q0 18 -24 18q-43 0 -96 -40h-16l-12 108q98 50 176 50q55 0 90 -24t35 -68q0 -32 -22 -67 t-75 -89l-40 -41l2 -3h57l72 7l6 -9l-29 -112l-108 6h-170l-26 -2z" />
<glyph unicode="&#xbe;" horiz-adv-x="838" d="M31 254l3 102l11 8q46 -13 86 -13q61 0 61 26q0 15 -26 15h-62l-6 8l13 95l33 2q51 2 51 30q0 16 -29 16q-26 0 -80 -19h-15l-12 95q75 36 154 36q61 0 98 -25.5t37 -66.5q0 -63 -73 -100v-4q58 -19 58 -77q0 -62 -60 -99t-157 -37q-45 0 -85 8zM91 -27l552 721l71 -47 l7 -24l-551 -717l-75 50zM448 80l10 88l194 225h135l-30 -215h49l6 -12l-18 -97l-46 1l-3 -61l-9 -9l-115 -6l-7 8l11 70h-86l-84 -3zM583 178h58l7 65h-8z" />
<glyph unicode="&#xbf;" horiz-adv-x="351" d="M-61 -48q0 47 31 88t87 68l62 30l3 6l2 71l138 20l11 -12l-4 -136l-8 -11l-88 -36q-55 -22 -55 -59q0 -25 34 -38.5t120 -19.5l12 -17l-46 -99l-18 -9q-136 6 -208.5 45.5t-72.5 108.5zM107 380q0 48 27 76t73 28t70 -24.5t24 -70.5q0 -47 -27.5 -75t-74.5 -28 q-43 0 -67.5 25t-24.5 69z" />
<glyph unicode="&#xc0;" d="M-26 0l276 647h241l97 -647h-202l-4 107v4l-101 2l-81 -4l-31 -109h-195zM240 797l49 116l17 4q95 -56 225 -122l-30 -79l-17 -4q-106 27 -238 69zM256 256l55 -1l58 1l-18 213h-12z" />
<glyph unicode="&#xc1;" d="M-26 0l276 647h241l97 -647h-202l-4 107v4l-101 2l-81 -4l-31 -109h-195zM243 795q114 56 225 122l17 -4l49 -116l-6 -16q-132 -42 -238 -69l-17 4zM256 256l55 -1l58 1l-18 213h-12z" />
<glyph unicode="&#xc2;" d="M-26 0l276 647h241l97 -647h-202l-4 107v4l-101 2l-81 -4l-31 -109h-195zM216 796q99 67 158 118h34q58 -55 148 -118l-43 -76h-18q-19 10 -54 30t-54 30q-21 -10 -64 -30t-64 -30h-18zM256 256l55 -1l58 1l-18 213h-12z" />
<glyph unicode="&#xc3;" d="M-26 0l276 647h241l97 -647h-202l-4 107v4l-101 2l-81 -4l-31 -109h-195zM189 757v16l81 112l16 6q26 -3 83 -18.5t70 -15.5q4 0 8 1t8.5 3t8 4t8 6.5l7 7t7.5 8.5t7 9t7.5 9.5t7.5 9.5h16l57 -54v-16l-81 -113l-16 -6q-26 3 -83 18.5t-70 15.5q-4 0 -8 -1t-8.5 -3t-8 -4 t-8 -6.5l-7 -7t-7.5 -8.5t-7 -9t-7.5 -9.5t-7.5 -9.5h-16zM256 256l55 -1l58 1l-18 213h-12z" />
<glyph unicode="&#xc4;" d="M-26 0l276 647h241l97 -647h-202l-4 107v4l-101 2l-81 -4l-31 -109h-195zM203 801q0 42 23.5 65.5t64.5 23.5q38 0 59.5 -21t21.5 -60q0 -42 -23.5 -66.5t-64.5 -24.5q-81 0 -81 83zM256 256l55 -1l58 1l-18 213h-12zM396 801q0 42 24 65.5t65 23.5q38 0 59 -21.5 t21 -59.5q0 -42 -23.5 -66.5t-63.5 -24.5t-61 21.5t-21 61.5z" />
<glyph unicode="&#xc5;" d="M-26 0l276 647h241l97 -647h-202l-4 107v4l-101 2l-81 -4l-31 -109h-195zM256 256l55 -1l58 1l-18 213h-12zM276 820q0 110 114 110q106 0 106 -103q0 -55 -29 -84.5t-85 -29.5q-106 0 -106 107zM351 823q0 -19 8 -26.5t28 -7.5q19 0 26.5 7t7.5 24q0 18 -8 25.5t-28 7.5 q-19 0 -26.5 -6.5t-7.5 -23.5z" />
<glyph unicode="&#xc6;" horiz-adv-x="838" d="M-49 0l355 647h518l9 -14l-30 -145l-149 6h-75l-6 -114l175 53l13 -11l1 -138l-197 -55l-4 -76h91l165 6l10 -14l-30 -145h-435l8 107l3 67l-178 -52q-9 -24 -26.5 -67t-22.5 -55h-195zM283 294l96 28l6 147h-12z" />
<glyph unicode="&#xc7;" horiz-adv-x="516" d="M25 263q0 186 96 290.5t274 104.5q95 0 168 -27l-52 -159l-14 -7q-54 31 -119 31q-76 0 -107.5 -48t-31.5 -153q0 -73 26.5 -107t82.5 -34q64 0 127 21l14 -9l-35 -158q-53 -16 -108 -19l-6 -31l34 -19q44 -23 44 -63q0 -37 -29.5 -60.5t-80.5 -23.5q-49 0 -92 24l11 75 l8 3q33 -28 60 -28q16 0 16 14q0 9 -12 15l-50 27l14 70q-116 14 -177 83.5t-61 187.5z" />
<glyph unicode="&#xc8;" horiz-adv-x="540" d="M31 0l33 190l47 457h464l8 -14l-30 -145l-158 6h-104l-13 -92h99l105 3l9 -14l-30 -146l-115 3h-91l-6 -38l-5 -57h97l167 6l9 -14l-30 -145h-456zM212 797l49 116l17 4q95 -56 225 -122l-30 -79l-17 -4q-106 27 -238 69z" />
<glyph unicode="&#xc9;" horiz-adv-x="540" d="M31 0l33 190l47 457h464l8 -14l-30 -145l-158 6h-104l-13 -92h99l105 3l9 -14l-30 -146l-115 3h-91l-6 -38l-5 -57h97l167 6l9 -14l-30 -145h-456zM215 795q114 56 225 122l17 -4l49 -116l-6 -16q-132 -42 -238 -69l-17 4z" />
<glyph unicode="&#xca;" horiz-adv-x="540" d="M31 0l33 190l47 457h464l8 -14l-30 -145l-158 6h-104l-13 -92h99l105 3l9 -14l-30 -146l-115 3h-91l-6 -38l-5 -57h97l167 6l9 -14l-30 -145h-456zM188 796q99 67 158 118h34q58 -55 148 -118l-43 -76h-18q-19 10 -54 30t-54 30q-21 -10 -64 -30t-64 -30h-18z" />
<glyph unicode="&#xcb;" horiz-adv-x="540" d="M31 0l33 190l47 457h464l8 -14l-30 -145l-158 6h-104l-13 -92h99l105 3l9 -14l-30 -146l-115 3h-91l-6 -38l-5 -57h97l167 6l9 -14l-30 -145h-456zM175 801q0 42 23.5 65.5t64.5 23.5q38 0 59.5 -21t21.5 -60q0 -42 -23.5 -66.5t-64.5 -24.5q-81 0 -81 83zM368 801 q0 42 24 65.5t65 23.5q38 0 59 -21.5t21 -59.5q0 -42 -23.5 -66.5t-63.5 -24.5t-61 21.5t-21 61.5z" />
<glyph unicode="&#xcc;" horiz-adv-x="327" d="M31 0l34 190l46 457h203l-65 -437l-18 -210h-200zM86 797l49 116l17 4q95 -56 225 -122l-30 -79l-17 -4q-106 27 -238 69z" />
<glyph unicode="&#xcd;" horiz-adv-x="327" d="M31 0l34 190l46 457h203l-65 -437l-18 -210h-200zM89 795q114 56 225 122l17 -4l49 -116l-6 -16q-132 -42 -238 -69l-17 4z" />
<glyph unicode="&#xce;" horiz-adv-x="327" d="M31 0l34 190l46 457h203l-65 -437l-18 -210h-200zM62 796q99 67 158 118h34q58 -55 148 -118l-43 -76h-18q-19 10 -54 30t-54 30q-21 -10 -64 -30t-64 -30h-18z" />
<glyph unicode="&#xd0;" horiz-adv-x="698" d="M18 262l18 117h79l27 268l283 4q128 0 199.5 -66t71.5 -188q0 -191 -98 -298.5t-282 -107.5q-114 0 -253 9l33 190l6 59h-76zM275 147q60 -8 86 -8q124 0 124 229q0 69 -20.5 98.5t-66.5 29.5q-37 0 -76 -4l-17 -113h76l7 -13l-17 -117h-85l-6 -39z" />
<glyph unicode="&#xd1;" horiz-adv-x="710" d="M32 0l33 190l46 457h217l141 -348h12l36 341l184 11l-65 -440l-18 -211h-217l-140 348h-12l-15 -114l-21 -234h-181zM230 757v16l81 112l16 6q26 -3 83 -18.5t70 -15.5q4 0 8 1t8.5 3t8 4t8 6.5l7 7t7.5 8.5t7 9t7.5 9.5t7.5 9.5h16l57 -54v-16l-81 -113l-16 -6 q-26 3 -83 18.5t-70 15.5q-4 0 -8 -1t-8.5 -3t-8 -4t-8 -6.5l-7 -7t-7.5 -8.5t-7 -9t-7.5 -9.5t-7.5 -9.5h-16z" />
<glyph unicode="&#xd2;" horiz-adv-x="658" d="M24 276q0 171 94 277t262 106q131 0 202.5 -70.5t71.5 -214.5q0 -171 -94 -278.5t-261 -107.5q-131 0 -203 71.5t-72 216.5zM233 273q0 -79 17.5 -108.5t69.5 -29.5q29 0 49.5 9t38.5 32t27 69.5t9 116.5q0 79 -17.5 108.5t-69.5 29.5q-61 0 -92.5 -47t-31.5 -180z M254 797l49 116l17 4q95 -56 225 -122l-30 -79l-17 -4q-106 27 -238 69z" />
<glyph unicode="&#xd3;" horiz-adv-x="658" d="M24 276q0 171 94 277t262 106q131 0 202.5 -70.5t71.5 -214.5q0 -171 -94 -278.5t-261 -107.5q-131 0 -203 71.5t-72 216.5zM233 273q0 -79 17.5 -108.5t69.5 -29.5q29 0 49.5 9t38.5 32t27 69.5t9 116.5q0 79 -17.5 108.5t-69.5 29.5q-61 0 -92.5 -47t-31.5 -180z M257 795q114 56 225 122l17 -4l49 -116l-6 -16q-132 -42 -238 -69l-17 4z" />
<glyph unicode="&#xd4;" horiz-adv-x="658" d="M24 276q0 171 94 277t262 106q131 0 202.5 -70.5t71.5 -214.5q0 -171 -94 -278.5t-261 -107.5q-131 0 -203 71.5t-72 216.5zM230 796q99 67 158 118h34q58 -55 148 -118l-43 -76h-18q-19 10 -54.5 30t-53.5 30q-20 -10 -64 -30t-64 -30h-18zM233 273q0 -79 17.5 -108.5 t69.5 -29.5q29 0 49.5 9t38.5 32t27 69.5t9 116.5q0 79 -17.5 108.5t-69.5 29.5q-61 0 -92.5 -47t-31.5 -180z" />
<glyph unicode="&#xd5;" horiz-adv-x="658" d="M24 276q0 171 94 277t262 106q131 0 202.5 -70.5t71.5 -214.5q0 -171 -94 -278.5t-261 -107.5q-131 0 -203 71.5t-72 216.5zM203 757v16l81 112l16 6q26 -3 83 -18.5t70 -15.5q4 0 8 1t8.5 3t8 4t8 6.5l7 7t7.5 8.5t7 9t7.5 9.5t7.5 9.5h16l57 -54v-16l-81 -113l-16 -6 q-26 3 -83 18.5t-70 15.5q-4 0 -8 -1t-8.5 -3t-8 -4t-8 -6.5l-7 -7t-7.5 -8.5t-7 -9t-7.5 -9.5t-7.5 -9.5h-16zM233 273q0 -79 17.5 -108.5t69.5 -29.5q29 0 49.5 9t38.5 32t27 69.5t9 116.5q0 79 -17.5 108.5t-69.5 29.5q-61 0 -92.5 -47t-31.5 -180z" />
<glyph unicode="&#xd7;" horiz-adv-x="481" d="M32 132l2 17l119 106l-93 105l2 18l98 76l95 -107l120 107l80 -76l-1 -18l-118 -105l91 -105l-2 -18l-99 -76l-93 108l-122 -109z" />
<glyph unicode="&#xd8;" horiz-adv-x="658" d="M24 276q0 171 94 277t262 106q49 0 88 -10l62 103l94 -46l9 -19l-56 -93q77 -74 77 -220q0 -171 -94 -278.5t-261 -107.5q-41 0 -83 8l-79 -131l-97 47l-6 17l73 120q-83 74 -83 227zM233 273q0 -79 17.5 -108.5t69.5 -29.5q29 0 49.5 9t38.5 32t27 69.5t9 116.5 q0 79 -17.5 108.5t-69.5 29.5q-61 0 -92.5 -47t-31.5 -180z" />
<glyph unicode="&#xd9;" horiz-adv-x="653" d="M45 173q0 21 3 43l15 103l34 328h200l-58 -404q-2 -20 -2 -27q0 -37 18 -54t58 -17q48 0 72 23t29 75l40 404h203l-47 -328l-13 -103q-14 -111 -90 -169.5t-210 -58.5q-119 0 -185.5 48t-66.5 137zM252 797l49 116l17 4q95 -56 225 -122l-30 -79l-17 -4q-106 27 -238 69z " />
<glyph unicode="&#xda;" horiz-adv-x="653" d="M45 173q0 21 3 43l15 103l34 328h200l-58 -404q-2 -20 -2 -27q0 -37 18 -54t58 -17q48 0 72 23t29 75l40 404h203l-47 -328l-13 -103q-14 -111 -90 -169.5t-210 -58.5q-119 0 -185.5 48t-66.5 137zM255 795q114 56 225 122l17 -4l49 -116l-6 -16q-132 -42 -238 -69l-17 4 z" />
<glyph unicode="&#xdb;" horiz-adv-x="653" d="M45 173q0 21 3 43l15 103l34 328h200l-58 -404q-2 -20 -2 -27q0 -37 18 -54t58 -17q48 0 72 23t29 75l40 404h203l-47 -328l-13 -103q-14 -111 -90 -169.5t-210 -58.5q-119 0 -185.5 48t-66.5 137zM228 796q99 67 158 118h34q58 -55 148 -118l-43 -76h-18 q-18 10 -53.5 30t-54.5 30q-21 -10 -64 -30t-64 -30h-18z" />
<glyph unicode="&#xdc;" horiz-adv-x="653" d="M45 173q0 21 3 43l15 103l34 328h200l-58 -404q-2 -20 -2 -27q0 -37 18 -54t58 -17q48 0 72 23t29 75l40 404h203l-47 -328l-13 -103q-14 -111 -90 -169.5t-210 -58.5q-119 0 -185.5 48t-66.5 137zM215 801q0 42 23.5 65.5t64.5 23.5q38 0 59.5 -21t21.5 -60 q0 -42 -23.5 -66.5t-64.5 -24.5q-81 0 -81 83zM408 801q0 42 24 65.5t65 23.5q38 0 59 -21.5t21 -59.5q0 -42 -23.5 -66.5t-63.5 -24.5t-61 21.5t-21 61.5z" />
<glyph unicode="&#xde;" horiz-adv-x="603" d="M31 0l34 190l46 457h205l-14 -91h105q98 0 153.5 -45t55.5 -128q0 -126 -85 -204t-223 -78h-66l-9 -101h-202zM256 242l86 -5q66 32 66 114q0 34 -18.5 50.5t-57.5 18.5l-50 -4z" />
<glyph unicode="&#xdf;" horiz-adv-x="636" d="M25 373l12 90h69v4q14 111 87.5 174t193.5 63q97 0 149.5 -40.5t52.5 -103.5q0 -34 -17.5 -65.5t-38 -50.5t-38 -42t-17.5 -43q0 -22 24 -41.5t53 -34.5t53 -47t24 -75q0 -76 -65 -124t-161 -48q-70 7 -136 26l38 144l18 9q29 -33 62.5 -51.5t59.5 -18.5q14 0 22 6.5 t8 14.5q0 11 -16 23.5t-39 26.5t-46 32t-39.5 48.5t-16.5 68.5q0 37 16 68.5t35 49.5t35 41.5t16 46.5q0 46 -57 46q-71 0 -81 -73l-41 -287l-25 -198l-4 -109l-177 -11l39 298l18 172h-62z" />
<glyph unicode="&#xe0;" horiz-adv-x="488" d="M8 157q0 64 24 124.5t80 115t136 81.5h7l97 -17l109 23l11 -8l-47 -360l-4 -109l-177 -11l15 110h-16q-36 -71 -75 -117h-23q-78 19 -107.5 60.5t-29.5 107.5zM124 647l69 106l17 1q102 -87 201 -160l-44 -72l-17 -1q-81 37 -223 109zM172 231q0 -79 21 -79q29 0 93 157 l3 22l-68 17q-49 0 -49 -117z" />
<glyph unicode="&#xe1;" horiz-adv-x="488" d="M8 157q0 64 24 124.5t80 115t136 81.5h7l97 -17l109 23l11 -8l-47 -360l-4 -109l-177 -11l15 110h-16q-36 -71 -75 -117h-23q-78 19 -107.5 60.5t-29.5 107.5zM143 594q99 73 201 160l17 -1l69 -106l-3 -17q-142 -72 -223 -109l-17 1zM172 231q0 -79 21 -79q29 0 93 157 l3 22l-68 17q-49 0 -49 -117z" />
<glyph unicode="&#xe2;" horiz-adv-x="488" d="M8 157q0 64 24 124.5t80 115t136 81.5h7l97 -17l109 23l11 -8l-47 -360l-4 -109l-177 -11l15 110h-16q-36 -71 -75 -117h-23q-78 19 -107.5 60.5t-29.5 107.5zM107 602q56 43 178 149h34q52 -59 147 -149l-56 -72h-18q-74 52 -105 78q-36 -26 -124 -78h-18zM172 231 q0 -79 21 -79q29 0 93 157l3 22l-68 17q-49 0 -49 -117z" />
<glyph unicode="&#xe3;" horiz-adv-x="488" d="M8 157q0 64 24 124.5t80 115t136 81.5h7l97 -17l109 23l11 -8l-47 -360l-4 -109l-177 -11l15 110h-16q-36 -71 -75 -117h-23q-78 19 -107.5 60.5t-29.5 107.5zM90 582v16l81 112l16 6q26 -3 83 -18.5t70 -15.5q4 0 8 1t8.5 3t8 4t8 6.5l7 7t7.5 8.5t7 9t7.5 9.5t7.5 9.5 h16l57 -54v-16l-81 -113l-16 -6q-26 3 -83 18.5t-70 15.5q-4 0 -8 -1t-8.5 -3t-8 -4t-8 -6.5l-7 -7t-7.5 -8.5t-7 -9t-7.5 -9.5t-7.5 -9.5h-16zM172 231q0 -79 21 -79q29 0 93 157l3 22l-68 17q-49 0 -49 -117z" />
<glyph unicode="&#xe4;" horiz-adv-x="488" d="M8 157q0 64 24 124.5t80 115t136 81.5h7l97 -17l109 23l11 -8l-47 -360l-4 -109l-177 -11l15 110h-16q-36 -71 -75 -117h-23q-78 19 -107.5 60.5t-29.5 107.5zM104 626q0 42 23.5 65.5t64.5 23.5q38 0 59.5 -21t21.5 -60q0 -42 -23.5 -66.5t-64.5 -24.5q-81 0 -81 83z M172 231q0 -79 21 -79q29 0 93 157l3 22l-68 17q-49 0 -49 -117zM297 626q0 42 24 65.5t65 23.5q38 0 59 -21.5t21 -59.5q0 -42 -23.5 -66.5t-63.5 -24.5t-61 21.5t-21 61.5z" />
<glyph unicode="&#xe5;" horiz-adv-x="488" d="M8 157q0 64 24 124.5t80 115t136 81.5h7l97 -17l109 23l11 -8l-47 -360l-4 -109l-177 -11l15 110h-16q-36 -71 -75 -117h-23q-78 19 -107.5 60.5t-29.5 107.5zM172 231q0 -79 21 -79q29 0 93 157l3 22l-68 17q-49 0 -49 -117zM177 645q0 110 114 110q106 0 106 -103 q0 -55 -29 -84.5t-85 -29.5q-106 0 -106 107zM252 648q0 -19 8 -26.5t28 -7.5q19 0 26.5 7t7.5 24q0 18 -8 25.5t-28 7.5q-19 0 -26.5 -6.5t-7.5 -23.5z" />
<glyph unicode="&#xe6;" horiz-adv-x="682" d="M8 154q0 104 61.5 194.5t179.5 129.5h7l156 -27q57 29 130 33l16 -2q55 -10 88 -42t33 -85q0 -60 -55.5 -102t-189.5 -75l4 -17q10 -39 48 -39q54 0 96 64l21 -3l56 -71q-76 -91 -187 -123h-16q-81 9 -122 42.5t-59 94.5l-4 17q-46 -86 -103 -154h-23q-78 19 -107.5 61 t-29.5 104zM169 228q0 -78 22 -78q31 0 96 160l3 7.5t1.5 3.5t1 1.5t1.5 2.5t3 5l-74 19q-54 0 -54 -121zM432 274q51 11 72.5 27t21.5 43q0 28 -29 28q-58 0 -65 -98z" />
<glyph unicode="&#xe7;" horiz-adv-x="379" d="M10 181q0 127 72 213.5t211 86.5l88 -26l4 -18l-50 -129l-39 -1q-12 16 -18 22.5t-15 11.5t-21 5q-34 0 -47.5 -31.5t-13.5 -98.5q0 -75 35 -75q27 0 61 60l23 -1l56 -70q-54 -94 -138 -130l-8 -42l34 -19q44 -23 44 -63q0 -37 -29.5 -60.5t-80.5 -23.5q-49 0 -92 24 l11 75l8 3q33 -28 60 -28q16 0 16 14q0 9 -12 15l-50 27l15 76q-66 18 -95 63t-29 120z" />
<glyph unicode="&#xe8;" horiz-adv-x="436" d="M12 183q0 131 73.5 212.5t201.5 88.5l15 -2q57 -11 89.5 -43t32.5 -85q0 -60 -56 -102t-187 -74q4 -29 16.5 -41.5t35.5 -12.5q50 0 92 63l22 -3l57 -72q-76 -91 -187 -123h-16q-99 11 -144 59.5t-45 134.5zM100 647l69 106l17 1q102 -87 201 -160l-44 -72l-17 -1 q-81 37 -223 109zM179 276q48 10 68.5 25t20.5 42q0 28 -27 28q-55 0 -62 -95z" />
<glyph unicode="&#xe9;" horiz-adv-x="436" d="M12 183q0 131 73.5 212.5t201.5 88.5l15 -2q57 -11 89.5 -43t32.5 -85q0 -60 -56 -102t-187 -74q4 -29 16.5 -41.5t35.5 -12.5q50 0 92 63l22 -3l57 -72q-76 -91 -187 -123h-16q-99 11 -144 59.5t-45 134.5zM119 594q99 73 201 160l17 -1l69 -106l-3 -17 q-142 -72 -223 -109l-17 1zM179 276q48 10 68.5 25t20.5 42q0 28 -27 28q-55 0 -62 -95z" />
<glyph unicode="&#xea;" horiz-adv-x="436" d="M12 183q0 131 73.5 212.5t201.5 88.5l15 -2q57 -11 89.5 -43t32.5 -85q0 -60 -56 -102t-187 -74q4 -29 16.5 -41.5t35.5 -12.5q50 0 92 63l22 -3l57 -72q-76 -91 -187 -123h-16q-99 11 -144 59.5t-45 134.5zM83 602q56 43 178 149h34q52 -59 147 -149l-56 -72h-18 q-74 52 -105 78q-36 -26 -124 -78h-18zM179 276q48 10 68.5 25t20.5 42q0 28 -27 28q-55 0 -62 -95z" />
<glyph unicode="&#xeb;" horiz-adv-x="436" d="M12 183q0 131 73.5 212.5t201.5 88.5l15 -2q57 -11 89.5 -43t32.5 -85q0 -60 -56 -102t-187 -74q4 -29 16.5 -41.5t35.5 -12.5q50 0 92 63l22 -3l57 -72q-76 -91 -187 -123h-16q-99 11 -144 59.5t-45 134.5zM80 626q0 42 23.5 65.5t64.5 23.5q38 0 59.5 -21t21.5 -60 q0 -42 -23.5 -66.5t-64.5 -24.5q-81 0 -81 83zM179 276q48 10 68.5 25t20.5 42q0 28 -27 28q-55 0 -62 -95zM273 626q0 42 24 65.5t65 23.5q38 0 59 -21.5t21 -59.5q0 -42 -23.5 -66.5t-63.5 -24.5t-61 21.5t-21 61.5z" />
<glyph unicode="&#xec;" horiz-adv-x="259" d="M14 647l69 106l17 1q102 -87 201 -160l-44 -72l-17 -1q-81 37 -223 109zM15 -4l47 356l4 113l177 11l-46 -360l-5 -109z" />
<glyph unicode="&#xed;" horiz-adv-x="259" d="M15 -4l47 356l4 113l177 11l-46 -360l-5 -109zM33 594q99 73 201 160l17 -1l69 -106l-3 -17q-142 -72 -223 -109l-17 1z" />
<glyph unicode="&#xee;" horiz-adv-x="259" d="M-3 602q56 43 178 149h34q52 -59 147 -149l-56 -72h-18q-74 52 -105 78q-36 -26 -124 -78h-18zM15 -4l47 356l4 113l177 11l-46 -360l-5 -109z" />
<glyph unicode="&#xf0;" horiz-adv-x="492" d="M32 180q0 120 60.5 195.5t165.5 91.5q-17 24 -44 48l-125 -72l-13 4l-28 66l92 54q-28 17 -73 39l3 20l127 86h9q44 -26 85 -57l111 65l14 -4l28 -68l-90 -52q120 -129 115 -295q0 -142 -73 -224t-201 -89l-16 2q-147 34 -147 190zM195 176q0 -34 7.5 -47.5t26.5 -13.5 q46 0 60.5 38.5t14.5 137.5q0 26 -1 38q-10 21 -31 21q-46 0 -61.5 -38t-15.5 -136z" />
<glyph unicode="&#xf1;" horiz-adv-x="525" d="M15 -4l47 356l4 113l177 11l-17 -131h15q59 77 113 128l13 1q58 -11 97 -41t38 -70q-6 -48 -20.5 -134.5t-18.5 -109.5l-4 -112l-182 -11l44 264l1 10q0 22 -17 22q-34 0 -100 -104l-9 -72l-4 -109zM116 582v16l81 112l16 6q26 -3 83 -18.5t70 -15.5q4 0 8 1t8.5 3t8 4 t8 6.5l7 7t7.5 8.5t7 9t7.5 9.5t7.5 9.5h16l57 -54v-16l-81 -113l-16 -6q-26 3 -83 18.5t-70 15.5q-4 0 -8 -1t-8.5 -3t-8 -4t-8 -6.5l-7 -7t-7.5 -8.5t-7 -9t-7.5 -9.5t-7.5 -9.5h-16z" />
<glyph unicode="&#xf2;" horiz-adv-x="468" d="M12 183q0 133 74.5 213t202.5 88l16 -2q70 -16 110.5 -61t40.5 -120q0 -142 -74 -224t-204 -89l-16 2q-150 34 -150 193zM125 647l69 106l17 1q102 -87 201 -160l-44 -72l-17 -1q-81 37 -223 109zM182 179q0 -34 6.5 -46.5t24.5 -12.5q45 0 58 36t13 134q0 33 -6 45.5 t-23 12.5q-46 0 -59.5 -36t-13.5 -133z" />
<glyph unicode="&#xf3;" horiz-adv-x="468" d="M12 183q0 133 74.5 213t202.5 88l16 -2q70 -16 110.5 -61t40.5 -120q0 -142 -74 -224t-204 -89l-16 2q-150 34 -150 193zM144 594q99 73 201 160l17 -1l69 -106l-3 -17q-142 -72 -223 -109l-17 1zM182 179q0 -34 6.5 -46.5t24.5 -12.5q45 0 58 36t13 134q0 33 -6 45.5 t-23 12.5q-46 0 -59.5 -36t-13.5 -133z" />
<glyph unicode="&#xf4;" horiz-adv-x="468" d="M12 183q0 133 74.5 213t202.5 88l16 -2q70 -16 110.5 -61t40.5 -120q0 -142 -74 -224t-204 -89l-16 2q-150 34 -150 193zM108 602q56 43 178 149h34q52 -59 147 -149l-56 -72h-18q-74 52 -105 78q-36 -26 -124 -78h-18zM182 179q0 -34 6.5 -46.5t24.5 -12.5q45 0 58 36 t13 134q0 33 -6 45.5t-23 12.5q-46 0 -59.5 -36t-13.5 -133z" />
<glyph unicode="&#xf5;" horiz-adv-x="468" d="M12 183q0 133 74.5 213t202.5 88l16 -2q70 -16 110.5 -61t40.5 -120q0 -142 -74 -224t-204 -89l-16 2q-150 34 -150 193zM91 582v16l81 112l16 6q26 -3 83 -18.5t70 -15.5q4 0 8 1t8.5 3t8 4t8 6.5l7 7t7.5 8.5t7 9t7.5 9.5t7.5 9.5h16l57 -54v-16l-81 -113l-16 -6 q-26 3 -83 18.5t-70 15.5q-4 0 -8 -1t-8.5 -3t-8 -4t-8 -6.5l-7 -7t-7.5 -8.5t-7 -9t-7.5 -9.5t-7.5 -9.5h-16zM182 179q0 -34 6.5 -46.5t24.5 -12.5q45 0 58 36t13 134q0 33 -6 45.5t-23 12.5q-46 0 -59.5 -36t-13.5 -133z" />
<glyph unicode="&#xf7;" horiz-adv-x="478" d="M17 203l9 117h430l12 -13l-9 -117h-430zM141 87q0 40 22.5 62.5t61.5 22.5q36 0 55.5 -20t19.5 -57q0 -39 -22 -62t-60 -23q-37 0 -57 20t-20 57zM182 413q0 39 22 61.5t61 22.5q36 0 55.5 -20t19.5 -57q0 -39 -22 -62t-60 -23q-76 0 -76 78z" />
<glyph unicode="&#xf8;" horiz-adv-x="468" d="M-13 -63l69 112q-44 50 -44 134q0 133 74.5 213t202.5 88l16 -2l11 -3l70 115l85 -52l9 -17l-64 -105q40 -46 40 -119q0 -142 -74 -224t-204 -89l-16 2l-6 1l-75 -123l-90 53zM182 179q0 -34 6.5 -46.5t24.5 -12.5q45 0 58 36t13 134q0 33 -6 45.5t-23 12.5 q-46 0 -59.5 -36t-13.5 -133z" />
<glyph unicode="&#xf9;" horiz-adv-x="514" d="M18 105q6 49 21 136.5t18 109.5l4 112l181 11l-42 -262l-1 -13q0 -23 18 -23q29 0 89 95l11 81l4 113l177 11l-47 -360l-4 -109l-177 -11l16 121h-13q-52 -71 -105 -120l-13 -1q-63 8 -100 37t-37 72zM144 647l69 106l17 1q102 -87 201 -160l-44 -72l-17 -1 q-81 37 -223 109z" />
<glyph unicode="&#xfa;" horiz-adv-x="514" d="M18 105q6 49 21 136.5t18 109.5l4 112l181 11l-42 -262l-1 -13q0 -23 18 -23q29 0 89 95l11 81l4 113l177 11l-47 -360l-4 -109l-177 -11l16 121h-13q-52 -71 -105 -120l-13 -1q-63 8 -100 37t-37 72zM163 594q99 73 201 160l17 -1l69 -106l-3 -17q-142 -72 -223 -109 l-17 1z" />
<glyph unicode="&#xfb;" horiz-adv-x="514" d="M18 105q6 49 21 136.5t18 109.5l4 112l181 11l-42 -262l-1 -13q0 -23 18 -23q29 0 89 95l11 81l4 113l177 11l-47 -360l-4 -109l-177 -11l16 121h-13q-52 -71 -105 -120l-13 -1q-63 8 -100 37t-37 72zM127 602q56 43 178 149h34q52 -59 147 -149l-56 -72h-18 q-74 52 -105 78q-36 -26 -124 -78h-18z" />
<glyph unicode="&#xfc;" horiz-adv-x="514" d="M18 105q6 49 21 136.5t18 109.5l4 112l181 11l-42 -262l-1 -13q0 -23 18 -23q29 0 89 95l11 81l4 113l177 11l-47 -360l-4 -109l-177 -11l16 121h-13q-52 -71 -105 -120l-13 -1q-63 8 -100 37t-37 72zM124 626q0 42 23.5 65.5t64.5 23.5q38 0 59.5 -21t21.5 -60 q0 -42 -23.5 -66.5t-64.5 -24.5q-81 0 -81 83zM317 626q0 42 24 65.5t65 23.5q38 0 59 -21.5t21 -59.5q0 -42 -23.5 -66.5t-63.5 -24.5t-61 21.5t-21 61.5z" />
<glyph unicode="&#xfe;" horiz-adv-x="491" d="M-10 -196l103 776l4 113l177 11l-46 -347h17q37 71 79 121h23q74 -19 104.5 -59t30.5 -108q0 -102 -61 -193t-174 -129h-7l-59 11l-10 -76l-4 -109zM199 138l76 -20q45 0 45 120q0 83 -21 83q-27 0 -96 -157z" />
<glyph unicode="&#xff;" horiz-adv-x="483" d="M-55 -36l15 16q50 -13 90 -13q47 0 88 19l-107 480l178 10l7 -91l27 -200h14l35 87q26 63 26 110q0 32 -14 60l8 17l163 20q14 -40 14 -78q0 -66 -44 -154l-92 -181q-74 -147 -141 -205.5t-153 -58.5q-54 0 -105 18zM108 626q0 42 23.5 65.5t64.5 23.5q38 0 59.5 -21 t21.5 -60q0 -42 -23.5 -66.5t-64.5 -24.5q-81 0 -81 83zM301 626q0 42 24 65.5t65 23.5q38 0 59 -21.5t21 -59.5q0 -42 -23.5 -66.5t-63.5 -24.5t-61 21.5t-21 61.5z" />
<glyph unicode="&#x152;" horiz-adv-x="890" d="M24 262q0 184 102 290.5t276 106.5q42 0 107.5 -6t92.5 -6h321l10 -14l-31 -145l-159 6h-103l-13 -92h99l105 3l9 -14l-30 -146l-116 3h-91l-4 -38l-5 -57h96l167 6l9 -14l-30 -145h-313q-33 2 -111.5 -5t-118.5 -7q-129 0 -199 71.5t-70 202.5zM234 264q0 -69 21.5 -99 t72.5 -30q52 0 68 15t19 54l23 231q3 38 -5 49q-13 16 -68 16q-45 0 -72 -17.5t-43 -70.5t-16 -148z" />
<glyph unicode="&#x153;" horiz-adv-x="701" d="M12 183q0 133 75 213t204 88l16 -2q64 -14 96 -58q64 54 160 60l16 -2q121 -24 121 -128q0 -60 -56 -102t-187 -74q4 -29 16.5 -41.5t35.5 -12.5q51 0 93 63l22 -3l56 -72q-76 -91 -186 -123h-16q-87 10 -130 68q-69 -65 -169 -69l-16 2q-151 34 -151 193zM182 178 q0 -34 7 -46.5t26 -12.5q44 0 57.5 36.5t13.5 135.5q0 33 -6.5 45.5t-23.5 12.5q-46 0 -60 -36.5t-14 -134.5zM455 276q48 10 68.5 25t20.5 42q0 28 -27 28q-55 0 -62 -95z" />
<glyph unicode="&#x178;" horiz-adv-x="594" d="M43 647h208l9 -54l49 -196h12l109 189l30 61h204l-285 -443l-6 -34l-12 -170h-199l30 170l3 37zM186 801q0 42 23.5 65.5t64.5 23.5q38 0 59.5 -21t21.5 -60q0 -42 -23.5 -66.5t-64.5 -24.5q-81 0 -81 83zM379 801q0 42 24 65.5t65 23.5q38 0 59 -21.5t21 -59.5 q0 -42 -23.5 -66.5t-63.5 -24.5t-61 21.5t-21 61.5z" />
<glyph unicode="&#x2c6;" horiz-adv-x="390" d="M60 602q56 43 178 149h34q52 -59 147 -149l-56 -72h-18q-74 52 -105 78q-36 -26 -124 -78h-18z" />
<glyph unicode="&#x2dc;" horiz-adv-x="390" d="M47 582v16l81 112l16 6q26 -3 83 -18.5t70 -15.5q4 0 8 1t8.5 3t8 4t8 6.5l7 7t7.5 8.5t7 9t7.5 9.5t7.5 9.5h16l57 -54v-16l-81 -113l-16 -6q-26 3 -83 18.5t-70 15.5q-4 0 -8 -1t-8.5 -3t-8 -4t-8 -6.5l-7 -7t-7.5 -8.5t-7 -9t-7.5 -9.5t-7.5 -9.5h-16z" />
<glyph unicode="&#x2000;" horiz-adv-x="465" />
<glyph unicode="&#x2001;" horiz-adv-x="930" />
<glyph unicode="&#x2002;" horiz-adv-x="465" />
<glyph unicode="&#x2003;" horiz-adv-x="930" />
<glyph unicode="&#x2004;" horiz-adv-x="310" />
<glyph unicode="&#x2005;" horiz-adv-x="232" />
<glyph unicode="&#x2006;" horiz-adv-x="155" />
<glyph unicode="&#x2007;" horiz-adv-x="155" />
<glyph unicode="&#x2008;" horiz-adv-x="116" />
<glyph unicode="&#x2009;" horiz-adv-x="186" />
<glyph unicode="&#x200a;" horiz-adv-x="51" />
<glyph unicode="&#x2010;" horiz-adv-x="300" d="M19 182l14 120l239 38l12 -14l-13 -120l-240 -38z" />
<glyph unicode="&#x2011;" horiz-adv-x="300" d="M19 182l14 120l239 38l12 -14l-13 -120l-240 -38z" />
<glyph unicode="&#x2012;" horiz-adv-x="300" d="M19 182l14 120l239 38l12 -14l-13 -120l-240 -38z" />
<glyph unicode="&#x2013;" horiz-adv-x="451" d="M-19 208l24 117h460l10 -13l-23 -117h-460z" />
<glyph unicode="&#x2014;" horiz-adv-x="842" d="M-23 208l24 117h859l10 -13l-23 -117h-859z" />
<glyph unicode="&#x2018;" horiz-adv-x="252" d="M65 458q0 95 114 200l64 -42l3 -12q-39 -44 -39 -88q0 -56 42 -88v-14q-67 -50 -124 -71q-60 40 -60 115z" />
<glyph unicode="&#x2019;" horiz-adv-x="252" d="M64 573v15q66 49 124 71q60 -40 60 -116q0 -93 -113 -199l-65 42l-3 12q39 44 39 88q0 56 -42 87z" />
<glyph unicode="&#x201a;" horiz-adv-x="228" d="M-25 -75q56 49 56 109q0 42 -33 74l1 16q72 40 143 58q47 -46 47 -106q0 -113 -151 -218l-61 53z" />
<glyph unicode="&#x201c;" horiz-adv-x="457" d="M65 459q0 93 113 199l65 -42l3 -12q-39 -44 -39 -88q0 -56 42 -87v-15q-66 -49 -124 -71q-60 40 -60 116zM269 459q0 93 113 199l65 -42l3 -12q-39 -44 -39 -88q0 -56 42 -87v-15q-66 -49 -124 -71q-60 40 -60 116z" />
<glyph unicode="&#x201d;" horiz-adv-x="447" d="M64 573v15q66 49 124 71q60 -40 60 -116q0 -93 -113 -199l-65 42l-3 12q39 44 39 88q0 56 -42 87zM258 573v15q66 49 125 71q60 -40 60 -116q0 -94 -114 -199l-65 42l-3 12q39 44 39 88q0 56 -42 87z" />
<glyph unicode="&#x201e;" horiz-adv-x="432" d="M-25 -75q56 49 56 109q0 42 -33 74l1 16q72 40 143 58q47 -46 47 -106q0 -113 -151 -218l-61 53zM180 -75q56 49 56 109q0 42 -33 74l1 16q70 40 142 58q48 -45 48 -106q0 -113 -152 -218l-60 53z" />
<glyph unicode="&#x2022;" horiz-adv-x="321" d="M29 251q0 66 37.5 104.5t102.5 38.5q61 0 94 -34t33 -96q0 -66 -37 -104.5t-101 -38.5q-63 0 -96 33.5t-33 96.5z" />
<glyph unicode="&#x2026;" horiz-adv-x="689" d="M-23 86q0 47 27.5 75t74.5 28q44 0 68 -25t24 -69q0 -48 -27 -76t-73 -28t-70 24.5t-24 70.5zM207 86q0 47 27.5 75t73.5 28q44 0 68.5 -25t24.5 -69q0 -48 -27 -76t-74 -28q-45 0 -69 24.5t-24 70.5zM436 86q0 47 27.5 75t74.5 28q44 0 68 -25t24 -69q0 -48 -27 -76 t-73 -28t-70 24.5t-24 70.5z" />
<glyph unicode="&#x202f;" horiz-adv-x="186" />
<glyph unicode="&#x2039;" horiz-adv-x="260" d="M28 221l4 27l147 177l85 -47l2 -17l-97 -131l65 -130l-6 -17l-97 -47z" />
<glyph unicode="&#x203a;" horiz-adv-x="260" d="M6 103l96 131l-64 130l6 17l96 47l104 -185l-4 -27l-147 -177l-85 47z" />
<glyph unicode="&#x205f;" horiz-adv-x="232" />
<glyph unicode="&#x20ac;" horiz-adv-x="451" d="M-8 163l14 79h352l6 -8l-14 -79h-100q19 -29 65 -29q47 0 97 16l11 -7l-28 -132q-46 -12 -103 -12q-209 0 -232 164h-63zM6 277l14 78h71q72 164 266 164q71 0 126 -19l-44 -133l-12 -7q-38 24 -90 24q-44 0 -67 -29h102l6 -7l-14 -80h-353z" />
<glyph unicode="&#x2122;" horiz-adv-x="598" d="M62 578l14 67h199l4 -6l-13 -68l-54 3l-14 -91l-6 -79h-93l14 70l10 100l-55 -3zM270 404l55 241h109l1 -34l5 -66h6q27 74 36 100h108l-11 -241h-83l8 73l2 35h-5l-44 -88h-70l-14 88h-5l-6 -26l-13 -82h-79z" />
<glyph unicode="&#x25fc;" horiz-adv-x="480" d="M0 0v480h480v-480h-480z" />
</font>
</defs>
</svg>
